osu file format v5

[General]
AudioFilename: 305 Second Run.mp3
AudioLeadIn: 0
PreviewTime: 59968
Countdown: 0
SampleSet: Soft
StackLeniency: 0.7
Mode: 0
EditorBookmarks: 49363,57257,82363

[Metadata]
Title:Second Run
Artist:Nauts
Creator:yuching
Version:Normal
Source:
Tags:

[Difficulty]
HPDrainRate:4
CircleSize:3
OverallDifficulty:5
SliderMultiplier:1
SliderTickRate:1

[Events]
//Background and Video events
0,0,"07_1024.jpg"
//Break Periods
2,40089,50057
//Storyboard Layer 0 (Background)
//Storyboard Layer 1 (Failing)
//Storyboard Layer 2 (Passing)
//Storyboard Layer 3 (Foreground)
//Storyboard Sound Samples
//Background Colour Transformations
3,100,163,162,255

[TimingPoints]
100,631.578947368421,4,2,0,100

[HitObjects]
64,64,20942,5,0
256,64,22205,1,0
160,256,23468,5,0
256,256,24100,1,0
352,256,24731,1,0
0,64,25994,6,0,L|448:64,1,400
256,192,29784,5,0
352,192,30415,1,0
416,288,31047,6,0,L|-32:288,1,400
192,192,34836,1,0
64,192,36100,5,2
160,192,36731,1,2
256,192,37363,1,2
352,192,37994,1,0
352,288,38626,6,4,B|276:290|232:289|132:288|132:288,1,200
64,64,51257,5,2
256,64,52521,1,0
256,256,53784,5,2
448,256,55047,1,2
256,160,56310,5,2
256,256,56942,1,2
256,352,57573,1,2
160,192,58836,6,2,L|270:192,1,100
384,64,60100,6,0,B|402:79|424:104|460:139,1,100
454,135,61047,1,2
448,128,61363,1,4
448,224,62310,5,0
448,224,62626,1,0
256,256,63573,5,0
256,256,63889,2,2,B|128:256|128:256,3,100
160,160,66415,5,0
320,160,67363,1,2
320,192,67678,1,2
320,288,68310,1,2
224,288,68942,1,2
416,64,70836,5,0
352,128,71468,1,4
192,128,72415,5,0
192,192,72731,1,0
352,288,73994,1,0
352,192,74626,1,0
352,96,75257,1,0
256,192,76521,5,2
256,192,77152,1,0
256,192,77784,1,2
416,96,78573,5,2
416,96,79047,1,2
320,96,79678,1,2
224,96,80310,6,2,L|224:224,2,100
288,192,82205,5,2
384,192,82836,2,2,L|384:320,1,100
320,288,83784,1,2
256,288,84099,1,2
256,224,84415,1,2
256,160,84731,5,2
96,160,85363,1,0
96,224,85678,1,0
96,288,85994,1,0
192,288,86626,2,2,L|192:160,2,100
416,320,88521,5,2
416,224,89152,1,2
320,224,89784,1,2
224,224,90415,5,6
224,128,91047,1,4
128,128,91678,2,0,L|128:288,1,150
128,320,92942,6,0,L|448:320,1,300
352,256,95468,5,0
288,256,95784,1,4
224,256,96099,1,4
224,192,96415,1,4
224,128,96731,1,0
416,128,97994,5,0
416,320,99257,2,0,L|192:320,1,200
256,0,101784,5,0
256,192,103047,1,0
32,96,104626,5,0
32,160,104942,1,0
128,160,105573,6,0,B|264:199|448:160,1,300
256,192,108100,12,4,113152
