osu file format v5

[General]
AudioFilename: 305 Second Run.mp3
AudioLeadIn: 0
PreviewTime: 59968
Countdown: 1
SampleSet: Soft
StackLeniency: 0.7
Mode: 0
EditorBookmarks: 49363,57257,82363

[Metadata]
Title:Second Run
Artist:Nauts
Creator:yuching
Version:Easy
Source:
Tags:

[Difficulty]
HPDrainRate:1
CircleSize:2
OverallDifficulty:1
SliderMultiplier:1
SliderTickRate:4

[Events]
//Background and Video events
0,0,"07_1024.jpg"
//Break Periods
2,40089,48946
//Storyboard Layer 0 (Background)
//Storyboard Layer 1 (Failing)
//Storyboard Layer 2 (Passing)
//Storyboard Layer 3 (Foreground)
//Storyboard Sound Samples
//Background Colour Transformations
3,100,163,162,255

[TimingPoints]
100,631.578947368421,4,2,0,100

[HitObjects]
64,64,20942,5,0
256,64,22205,1,0
256,320,23468,5,0
448,320,24731,1,0
0,64,25994,6,0,L|448:64,1,400
256,192,29784,5,0
512,352,31047,6,0,L|64:352,1,400
256,192,34836,1,0
64,192,36100,5,2
192,192,36731,1,2
320,192,37363,1,2
128,192,38626,6,4,B|204:190|248:191|386:191|386:191,1,200
64,64,51257,5,2
448,64,53784,5,2
448,320,56310,5,2
64,320,58836,5,2
64,128,60100,6,0,B|192:128|196:128|256:128,1,100
256,128,61363,1,4
448,224,62626,5,0
256,256,63889,2,2,B|128:256|128:256,1,100
128,128,65152,2,2,B|223:130|288:128|256:128,1,100
384,96,66415,5,0
384,320,67678,1,2
256,320,68310,1,2
128,320,68942,1,2
384,192,70836,5,0
256,192,71468,1,4
64,192,72731,5,0
256,192,73994,1,0
448,192,75257,1,0
256,192,76521,5,2
256,192,77784,1,2
256,64,79678,5,2
128,64,80310,6,2,L|128:320,1,200
256,256,82205,5,2
384,256,82836,2,2,L|384:0,1,200
256,64,84731,5,2
256,192,85363,1,0
256,320,85994,1,0
384,320,86626,2,2,L|384:64,2,200
64,192,90415,5,6
448,192,91678,1,4
448,320,92942,6,0,L|192:320,1,200
256,192,95468,5,0
64,64,96731,5,0
384,64,97994,1,0
448,320,99257,1,0
144,320,100521,1,0
256,0,101784,5,0
256,320,103047,1,0
128,128,105573,6,0,B|264:89|448:128,1,300
256,192,108100,12,4,113152
