osu file format v7

[General]
AudioFilename: natureq.mp3
AudioLeadIn: 0
PreviewTime: 16027
Countdown: 0
SampleSet: Soft
StackLeniency: 0.7
Mode: 0
LetterboxInBreaks: 1

[Editor]
DistanceSpacing: 0.800000011920929
BeatDivisor: 3
GridSize: 8

[Metadata]
Title:Zuo Zai Xiang Kou De Na Dui Nan Nv
Artist:NatureQ
Creator:kino77
Version:SuperQ
Source:
Tags:C'est La Vie

[Difficulty]
HPDrainRate:8
CircleSize:4
OverallDifficulty:7
SliderMultiplier:1.2
SliderTickRate:1

[Events]
//Background and Video events
0,0,"NatureQ.jpg"
//Break Periods
2,70448,81349
//Storyboard Layer 0 (Background)
//Storyboard Layer 1 (Fail)
//Storyboard Layer 2 (Pass)
//Storyboard Layer 3 (Foreground)
//Storyboard Sound Samples
//Background Colour Transformations
3,100,163,162,255

[TimingPoints]
1805,444.444444444444,4,2,0,40,1,0
7434,-100,4,1,0,10,0,0
8767,-100,4,2,0,40,0,0
16323,-100,4,2,1,60,0,0
34101,-100,4,1,0,20,0,0
35434,-200,4,2,0,40,0,0
36619,-100,4,2,0,60,0,0
48323,-100,4,1,0,10,0,0
49656,-100,4,2,0,40,0,0
50101,-100,4,2,0,60,0,0
67879,-100,4,1,0,20,0,0
69212,-200,4,2,0,60,0,0
70101,-100,4,2,0,30,0,0
70557,-100,4,2,0,60,0,0
83582,-100,4,2,0,50,0,1
96323,-100,4,2,0,45,0,1
96767,-100,4,2,0,40,0,1
97212,-100,4,2,0,35,0,1
97360,-100,4,2,0,35,0,0
98101,-100,4,2,0,60,0,0
115730,-100,4,2,0,20,0,0
116916,-100,4,2,0,40,0,0
130101,-200,4,2,0,40,0,0
130842,-100,4,2,0,40,0,0
144323,-100,4,2,0,20,0,0
146101,-100,4,2,0,13,0,0
147582,-100,4,2,0,10,0,0

[Colours]
Combo1 : 254,156,103
Combo2 : 164,222,84
Combo3 : 90,169,216
Combo4 : 253,108,173

[HitObjects]
136,48,1804,1,2
216,184,2101,1,0
264,184,2249,1,8
144,288,2545,1,0
96,288,2693,1,2
216,184,2990,5,0
264,184,3138,1,8
312,184,3286,1,0
360,184,3434,1,0
408,184,3582,1,2
288,288,3879,1,0
336,288,4027,1,8
216,184,4323,1,0
168,184,4471,1,2
296,96,4767,5,0
344,104,4916,1,8
384,136,5064,1,0
400,184,5212,1,0
400,232,5360,1,2
248,288,5656,1,0
208,256,5804,1,8
216,96,6101,1,0
248,136,6249,1,2
136,248,6545,5,0
104,208,6693,2,0,B|64:184|56:128|56:128,1,80,8|0
32,104,7138,1,2
256,80,7582,5,0
272,64,8027,1,0
296,56,8471,1,0
320,56,8916,5,2
456,248,9360,1,8
224,312,9804,1,2
128,184,10101,5,0
136,136,10249,1,8
160,96,10397,1,0
200,72,10545,1,0
248,72,10693,1,2
368,280,11138,1,8
136,232,11582,1,2
296,208,11879,5,0
280,160,12027,2,0,B|272:88|184:72|184:72,1,120,8|2
32,232,12916,1,8
256,328,13360,1,2
360,208,13656,5,0
408,208,13804,1,8
280,112,14101,1,0
232,112,14249,1,2
142,327,14693,6,0,B|175:294|164:241|164:241,1,80,8|0
160,208,15138,2,0,B|156:157|203:136|203:136,1,80,2|0
232,112,15582,2,0,B|278:111|306:65|306:65,1,80,8|0
336,40,16027,1,4
456,240,16471,5,2
304,288,16767,1,0
304,288,16916,2,0,B|240:328|168:272|168:272,1,120,0|2
96,152,17656,1,0
80,200,17804,1,0
200,88,18101,1,0
216,40,18249,1,2
288,184,18545,1,0
264,232,18693,2,0,B|240:304|168:320|168:320,2,120,0|2|0
448,88,20027,5,2
216,88,20471,2,0,B|104:96|160:248|312:64|128:88|128:88,1,200,0|0
88,88,21360,1,0
64,136,21508,1,0
72,184,21656,1,0
112,216,21805,1,2
272,200,22101,1,0
312,168,22249,2,0,B|360:104|312:56|312:56,1,120,0|2
216,272,23138,1,0
56,96,23582,6,0,B|80:56|136:48|136:48,1,80,2|0
168,40,24027,1,0
152,208,24323,1,0
200,200,24471,2,0,B|256:192|272:136|272:136,1,80,2|0
288,112,24916,2,0,B|304:56|368:56|368:56,1,80
392,48,25360,1,2
440,200,25656,2,0,B|432:280|360:304|360:304,2,120
424,152,26693,5,0
272,336,27138,1,2
64,216,27582,1,0
208,24,28027,1,2
352,96,28323,1,0
400,96,28471,1,0
280,200,28767,1,0
232,200,28916,1,2
352,304,29212,1,0
352,304,29360,2,0,B|432:312|464:264|464:264,1,120,0|2
280,112,30249,5,2
128,56,30545,1,0
80,40,30693,1,2
160,176,30990,1,0
112,176,31138,1,2
280,232,31434,1,0
248,272,31582,1,2
208,304,31730,1,0
160,328,31879,1,0
112,344,32027,1,2
64,192,32323,5,0
48,144,32471,1,2
208,120,32767,1,0
208,72,32916,1,2
328,176,33212,1,0
352,136,33360,1,2
384,96,33508,1,0
424,64,33656,1,0
472,48,33805,1,2
408,280,34249,5,0
240,312,34693,1,0
112,272,35138,1,0
64,184,35582,2,0,B|24:120|64:64|64:64,1,120,0|0
200,168,36767,5,0
232,128,36916,1,8
136,256,37212,1,0
104,296,37360,1,2
408,88,37805,1,8
104,296,38249,1,2
264,264,38545,5,0
248,216,38693,1,8
400,264,38990,1,0
416,312,39138,1,2
96,72,39582,1,8
416,312,40027,1,2
328,184,40323,5,0
288,216,40471,1,8
384,88,40767,1,0
424,56,40916,1,2
88,96,41360,1,8
424,136,41805,1,2
88,184,42249,5,8
424,224,42693,1,2
88,264,43138,1,8
424,224,43582,1,0
280,152,43879,5,0
240,120,44027,1,8
128,232,44323,1,0
88,264,44471,1,2
424,120,44916,1,8
88,264,45360,1,2
424,120,45656,5,0
376,120,45804,1,8
224,80,46101,1,0
176,80,46249,1,2
336,304,46693,1,8
176,80,47138,1,2
336,304,47434,5,0
352,256,47582,1,8
336,96,47879,1,0
352,144,48027,1,2
88,288,48471,5,0
72,272,48916,1,0
64,248,49360,1,0
64,224,49804,1,4
240,56,50249,5,0
384,128,50545,1,0
384,128,50693,2,0,B|440:176|408:240|408:240,1,120,2|0
256,280,51434,1,0
216,304,51582,1,2
280,152,51879,1,0
320,128,52027,1,0
160,104,52323,1,0
120,128,52471,2,0,B|40:152|32:232|32:232,2,120,2|0|2
360,112,53804,5,0
360,112,54249,2,0,B|488:192|344:280|288:144|504:88|408:272|408:272,1,240,2|2
256,304,55434,1,0
208,312,55582,1,0
112,184,55879,1,0
64,192,56027,1,2
288,104,56471,2,0,B|296:48|360:48|368:112|368:112,1,120,0|2
208,288,57360,5,0
336,192,57656,1,0
376,160,57804,1,2
248,256,58101,1,0
200,240,58249,1,0
352,288,58545,1,0
368,336,58693,1,2
448,200,58990,2,0,B|488:152|464:80|464:80,2,120
224,112,60323,5,0
176,96,60471,1,2
272,320,60916,1,0
448,160,61360,1,2
216,216,61804,1,0
448,288,62249,1,2
344,168,62545,1,0
304,144,62693,1,0
264,296,62990,1,0
216,296,63138,2,0,B|152:328|88:288|88:288,2,120,2|0|2
216,136,64323,5,0
216,96,64471,1,2
336,200,64767,1,0
368,168,64916,1,2
264,280,65212,1,0
232,320,65360,1,2
184,296,65508,1,0
192,248,65656,1,0
240,240,65804,1,2
112,144,66101,5,0
72,112,66249,1,2
232,104,66545,1,0
232,56,66693,1,2
352,160,66990,1,0
384,120,67138,1,2
432,144,67286,1,0
424,192,67434,1,0
376,200,67582,1,2
176,336,68027,5,0
96,160,68471,1,0
224,224,68916,1,0
224,120,69360,2,0,B|288:88|352:128,1,120
256,192,82249,12,4,83582
160,64,84027,5,8
312,120,84323,1,0
360,136,84471,1,2
208,176,84767,1,0
160,192,84916,1,8
312,248,85212,1,0
360,264,85360,1,2
208,304,85656,1,0
160,328,85804,1,8
80,192,86101,2,0,B|88:120|32:88|32:88,2,120
80,240,87138,5,2
312,304,87582,1,8
432,96,88027,1,2
200,32,88471,1,8
80,240,88916,2,0,B|136:256|176:208|176:208,1,80,2|0
184,184,89360,1,8
216,144,89508,1,0
264,128,89656,1,0
312,152,89804,1,2
472,344,90249,1,8
256,192,90693,12,2,92471
152,112,92916,5,8
312,112,93212,1,0
360,112,93360,1,2
200,112,93656,1,0
152,112,93804,1,8
256,232,94101,1,0
256,232,94249,2,0,B|280:288|336:288|336:288,2,80,2|2|2
256,232,95138,2,0,B|232:288|176:288|176:288,2,80,2|2|2
256,72,96027,5,2
464,192,96471,1,2
296,192,96916,1,2
256,72,97360,2,0,B|216:32|168:128|136:64|136:64,1,120,4|0
288,264,98249,5,2
392,144,98545,1,0
360,112,98693,2,0,B|296:56|240:120|240:120,1,120,2|2
144,232,99434,1,0
112,272,99582,1,2
144,112,99879,1,0
112,72,100027,1,2
240,168,100323,1,0
272,128,100471,2,0,B|336:72|392:136|392:136,2,120,2|2|2
80,272,101804,5,2
312,336,102249,1,2
256,104,102693,1,2
328,248,102990,1,0
360,288,103138,1,2
328,128,103434,1,0
360,88,103582,1,2
232,184,103879,1,0
200,144,104027,2,0,B|136:88|80:152|80:152,2,120,2|2|2
424,224,105360,5,2
344,88,105656,1,0
344,40,105804,1,2
224,160,106101,1,0
224,208,106249,1,2
112,88,106545,1,0
72,120,106693,1,2
48,168,106842,1,0
72,216,106990,1,0
112,248,107138,1,2
272,256,107434,2,0,B|352:256|352:336|352:336,2,120
224,256,108471,6,0,B|144:256|144:176|144:176,1,120,2|2
384,184,109360,2,0,B|464:184|464:264|464:264,1,120,2|2
224,256,110249,1,2
80,176,110545,1,0
40,200,110693,1,2
136,72,110990,1,0
136,72,111138,2,0,B|184:16|264:56|264:56|264:56,1,120,2|2
288,288,112027,5,2
376,152,112323,1,0
416,120,112471,1,2
280,40,112767,1,0
240,72,112916,1,2
80,40,113212,1,0
64,88,113360,1,2
80,136,113508,1,0
96,184,113656,1,0
80,232,113804,1,2
240,232,114101,5,0
200,264,114249,1,2
240,112,114545,1,0
280,80,114693,1,2
440,48,114990,1,0
456,96,115138,1,2
440,144,115286,1,0
424,192,115434,1,0
440,240,115582,1,2
256,192,115730,12,2,116916
464,160,117360,5,2
256,40,117804,1,8
48,160,118249,1,2
168,264,118545,5,0
208,296,118693,1,8
256,312,118842,1,0
304,296,118990,1,0
344,264,119138,1,2
256,40,119582,1,8
256,344,120027,1,2
128,240,120323,5,0
134,189,120471,1,8
156,144,120619,1,0
202,121,120767,1,0
253,116,120916,1,2
424,288,121360,1,8
96,96,121804,1,2
253,116,122101,5,0
303,121,122249,1,8
349,144,122397,1,0
371,189,122545,1,0
377,240,122693,1,2
144,288,123138,1,8
368,96,123582,1,2
224,160,123879,5,0
192,200,124027,1,8
144,176,124175,1,0
152,128,124323,1,0
200,120,124471,1,2
408,240,124916,2,0,B|448:272|488:224|472:168|408:184|408:184,1,120,8|2
344,48,125656,5,0
392,56,125804,1,8
400,104,125953,1,0
352,128,126101,1,0
320,88,126249,1,2
96,176,126693,2,0,B|120:175|56:159|40:215|80:263|120:231,1,120,8|2
272,240,127434,5,0
224,248,127582,1,8
216,296,127730,1,0
264,320,127879,1,0
296,280,128027,1,2
448,96,128471,2,0,B|480:56|432:16|376:32|392:96|392:96,1,120,8|2
232,64,129212,5,0
280,72,129360,1,8
288,120,129508,1,0
240,144,129656,1,0
208,104,129804,1,2
88,280,130249,6,0,B|120:280|160:280|160:280,1,60
312,280,130990,1,0
352,248,131138,1,2
424,104,131434,1,2
384,136,131582,1,0
72,56,132027,1,8
136,360,132471,1,2
248,248,132767,5,0
288,216,132916,1,8
144,144,133212,1,0
144,96,133360,1,2
488,32,133804,1,8
392,336,134249,1,2
272,232,134545,5,0
232,200,134693,1,8
144,336,134990,1,0
96,336,135138,1,2
176,32,135582,1,8
424,240,136027,1,2
280,176,136323,5,0
280,128,136471,1,8
440,104,136767,1,0
456,56,136916,1,2
64,128,137360,5,0
456,200,137804,1,0
112,264,138101,1,0
64,272,138249,1,2
408,328,138545,1,2
456,344,138693,1,0
456,200,139138,1,8
456,56,139582,1,2
384,128,139879,5,0
368,80,140027,1,8
320,56,140175,1,0
272,80,140323,1,0
256,128,140471,1,2
320,168,140916,1,8
320,240,141360,1,2
384,280,141656,5,0
368,328,141804,1,8
320,352,141953,1,0
272,328,142101,1,0
256,280,142249,1,2
320,240,142693,1,8
320,168,143138,1,2
384,128,143434,5,0
368,80,143582,1,8
320,56,143730,1,0
272,80,143879,1,0
248,128,144027,1,2
464,336,144471,5,0
152,264,144916,1,0
408,64,145360,1,0
88,80,145804,1,0
280,320,146249,1,0
192,24,146693,1,0
488,80,147138,1,0
256,192,147582,12,0,151286
