osu file format v7

[General]
AudioFilename: Natteke ft. tieff - The Dream.mp3
AudioLeadIn: 0
PreviewTime: 126738
Countdown: 0
SampleSet: Soft
StackLeniency: 0.7
Mode: 0
LetterboxInBreaks: 1

[Editor]
Bookmarks: 80658,126738,157458
DistanceSpacing: 1
BeatDivisor: 4
GridSize: 8

[Metadata]
Title:The Dream
Artist:Natteke ft. tieff
Creator:tieff
Version:Relaxing
Source:
Tags:Natteke_Desu

[Difficulty]
HPDrainRate:2
CircleSize:3
OverallDifficulty:3
SliderMultiplier:1.4
SliderTickRate:2

[Events]
//Background and Video events
0,0,"57044398.jpg"
//Break Periods
//Storyboard Layer 0 (Background)
//Storyboard Layer 1 (Fail)
//Storyboard Layer 2 (Pass)
//Storyboard Layer 3 (Foreground)
//Storyboard Sound Samples
//Background Colour Transformations
3,100,163,162,255

[TimingPoints]
32658,480,4,2,1,31,1,0
65298,-100,4,2,1,46,0,0
80538,-100,4,2,1,56,0,0
126738,-100,4,2,1,41,0,0

[Colours]
Combo1 : 128,128,192
Combo2 : 219,219,219
Combo3 : 102,179,255
Combo4 : 0,128,255

[HitObjects]
456,96,48018,1,0
320,80,48498,1,8
184,88,48978,1,0
48,80,49458,1,8
88,216,49938,6,0,B|160:264|240:200,1,140,0|8
344,144,50898,2,0,B|416:96|496:160,1,140,0|8
376,248,51858,6,0,B|416:216|472:280|512:248,2,140,4|8|0
312,280,53058,1,4
240,280,53298,1,8
208,152,53778,6,0,B|168:184|112:120|72:152,2,140,4|8|0
280,136,54978,1,4
352,152,55218,1,8
344,288,55698,6,0,B|264:272|176:264,1,140,4|8
136,256,56418,1,4
136,256,56658,2,0,B|144:176|144:96,1,140,0|8
280,88,57618,6,0,B|320:64|376:112|440:80,2,140,4|8|0
304,152,58818,1,4
312,224,59058,1,8
176,232,59538,5,4
168,160,59778,1,4
160,88,60018,2,0,B|112:72|48:88|24:144,2,140,8|0|8
304,72,61458,6,0,B|376:48|448:104,1,140,4|8
344,200,62418,2,0,B|328:280,2,70,0|8|8
256,192,63138,12,4,65298
392,88,65778,6,0,B|400:160|392:240,1,140,8|0
328,256,66498,2,0,B|224:264,1,70,4|8
256,128,67218,6,0,B|216:112|168:128,1,70,4|4
128,160,67698,2,0,B|88:200|88:248|128:312,1,140,8|0
184,304,68418,2,0,B|264:296,1,70,4|8
392,296,69138,5,4
384,160,69618,1,8
248,168,70098,1,0
256,304,70578,1,8
120,312,71058,6,0,B|112:232|112:160,2,140,4|8|0
168,264,72258,2,0,B|248:256,1,70,12|8
376,256,72978,6,0,B|392:160|384:96,1,140,4|8
328,72,73698,2,0,B|232:64|160:80,1,140,4|4
120,88,74418,1,8
128,232,74898,5,4
200,240,75138,1,4
272,232,75378,2,0,B|336:248|424:224,2,140,8|0|8
264,88,76818,5,0
136,152,77298,2,0,B|120:200|152:256|136:304,2,140,8|0|8
264,200,78738,6,0,B|344:192,3,70,4|8|0|8
400,184,79698,2,0,B|392:88,3,70,0|8|0|8
328,104,80658,6,0,B|256:80|160:120,2,140,4|8|0
384,144,81858,2,0,B|480:136,1,70,4|8
368,248,82578,6,0,B|440:272|536:232,2,140,4|8|4
312,208,83778,2,0,B|216:216,1,70,4|8
200,80,84498,5,4
312,168,84978,2,8,B|248:112|184:312|128:120|24:168,1,280
152,248,86418,6,0,B|184:216|208:272|224:240|248:280|280:248|312:256,2,140,4|8|0
80,256,87618,1,4
8,248,87858,1,8
40,112,88338,5,4
176,120,88818,2,0,B|224:104|304:144|336:120,1,140,8|0
384,144,89538,2,0,B|424:144|464:136,1,70,4|8
448,280,90258,6,4,B|400:272|360:272,1,70
312,272,90738,2,0,B|248:288|160:264,2,140,8|0|8
424,200,92178,5,4
296,152,92658,2,0,B|216:144|144:160,1,140,8|0
96,192,93378,2,0,B|48:200|16:200,1,70,4|8
120,304,94098,6,4,B|160:288|240:320|280:288,1,140,4|8
392,264,95058,2,0,B|376:224|408:144|376:104,1,140,0|8
248,152,96018,5,4
120,96,96498,1,8
120,96,96738,2,4,B|192:72|272:72,1,140
328,80,97458,1,8
464,104,97938,5,4
464,176,98178,1,4
448,240,98418,2,0,B|416:280|360:304|320:304,1,140,8|4
184,296,99378,1,8
64,232,99858,6,0,B|48:184|160:208|208:184,1,140,4|8
256,192,100578,2,4,B|320:200|368:192|416:168,1,140
456,144,101298,1,8
256,192,101778,12,4,103698
400,88,104178,6,0,B|384:144|368:240,1,140,8|0
368,296,104898,2,0,B|280:304,1,70,4|8
160,304,105618,5,4
152,232,105858,1,4
208,192,106098,2,0,B|240:240|216:344,2,140,8|0|8
168,56,107538,6,0,B|232:32|328:48,1,140,4|8
384,144,108498,2,0,B|408:224|360:296,2,140,0|8|4
256,192,109698,12,4,111378
216,104,111858,6,0,B|192:88|176:120|120:96,2,70,8|4|0
288,112,112578,2,0,B|376:104,1,70,4|8
456,200,113298,6,0,B|464:240|456:272,2,70,4|4|8
408,72,114258,2,0,B|336:40|240:80,1,140,4|8
168,160,115218,5,4
304,168,115698,1,8
296,304,116178,1,0
160,296,116658,1,8
48,208,117138,6,0,B|32:152|48:112|120:80,2,140,4|8|0
104,248,118338,2,0,B|144:264|176:264,1,70,4|8
312,264,119058,5,4
432,200,119538,1,8
368,176,119778,2,4,B|296:152|208:168,1,140,4|4
160,184,120498,1,8
152,48,120978,6,0,B|104:48|64:64,2,70,4|4|8
296,56,121938,2,0,B|288:96|288:176|272:200,1,140,4|8
216,320,122898,5,4
336,248,123378,1,8
288,120,123858,1,0
416,72,124338,1,8
256,192,124818,12,4,126738
432,112,127698,5,8
296,96,128178,2,4,B|224:72|144:104,1,140,0|4
96,128,128898,1,4
96,264,129378,1,4
168,280,129618,2,0,B|240:288|320:280,2,140,8|2|4
176,144,131058,6,0,B|176:104|136:72,1,70,0|4
96,128,131538,2,0,B|96:192|128:224|184:224,2,140,8|0|4
232,128,132978,1,4
368,120,133458,2,0,B|416:112|456:144,1,70,8|0
448,200,133938,2,0,B|408:256|320:248,1,140,2|4
184,256,134898,5,0
128,216,135138,2,0,B|120:168|136:128,1,70,4|8
160,80,135618,2,0,B|208:88|248:96,1,70,2|0
368,96,136338,6,4,B|368:152|360:184,1,70
288,280,137058,1,4
224,256,137298,2,0,B|176:240|144:248,1,70,8|0
88,216,137778,2,0,B|104:136|208:120,1,140,2|4
320,120,138738,2,0,B|320:80|304:48,2,70,2|4|8
320,192,139458,1,0
128,288,140178,6,0,B|208:272|288:304,1,140,4|0
408,320,141138,2,0,B|456:312|504:328,2,70,8|0|2
272,336,142098,5,4
280,200,142578,1,4
152,248,143058,2,0,B|120:240|72:240,2,70,8|0|0
280,200,144018,5,4
288,64,144498,1,4
160,112,144978,2,0,B|128:104|80:104,2,70,8|0|0
288,64,145938,5,4
280,200,146418,1,4
408,152,146898,2,0,B|440:160|488:160,2,70,8|0|0
400,288,147858,5,4
264,296,148338,1,4
144,232,148818,1,8
136,160,149058,1,0
144,88,149298,2,0,B|216:64|312:80,1,140,2|4
416,112,150258,5,4
352,240,150738,2,0,B|304:248|256:240,1,70,0|2
216,208,151218,2,0,B|136:192|80:232,2,140,0|4|4
352,240,152658,6,0,B|408:256|456:240,2,70,8|0|2
344,104,153618,1,4
208,112,154098,1,4
216,248,154578,2,0,B|168:248|128:264,1,70,8|2
120,320,155058,2,0,B|200:328|272:304,1,140,0|4
400,288,156018,5,4
408,152,156498,1,8
408,152,156738,1,2
408,152,156978,2,0,B|328:144|256:160,1,140,0|4
128,184,157938,5,0
128,184,158418,1,2
