osu file format v7

[General]
AudioFilename: Natteke ft. tieff - The Dream.mp3
AudioLeadIn: 0
PreviewTime: 126738
Countdown: 0
SampleSet: Soft
StackLeniency: 0.7
Mode: 0
LetterboxInBreaks: 1

[Editor]
Bookmarks: 80658,126738,157458
DistanceSpacing: 1.10000002384186
BeatDivisor: 4
GridSize: 8

[Metadata]
Title:The Dream
Artist:Natteke ft. tieff
Creator:tieff
Version:Natteke
Source:
Tags:Natteke_Desu

[Difficulty]
HPDrainRate:5
CircleSize:4
OverallDifficulty:6
SliderMultiplier:1.4
SliderTickRate:1

[Events]
//Background and Video events
0,0,"57044398.jpg"
//Break Periods
//Storyboard Layer 0 (Background)
//Storyboard Layer 1 (Fail)
//Storyboard Layer 2 (Pass)
//Storyboard Layer 3 (Foreground)
//Storyboard Sound Samples
//Background Colour Transformations
3,100,163,162,255

[TimingPoints]
32658,480,4,2,1,41,1,0
62898,-200,4,2,1,41,0,0
63138,-200,4,2,1,0,0,0
63618,-100,4,1,1,20,0,0
65538,-100,4,2,1,50,0,0
109458,-100,4,2,1,0,0,0
111498,-100,4,2,1,50,0,0
124818,-100,4,2,1,0,0,0
126858,-100,4,2,1,50,0,0

[Colours]
Combo1 : 128,128,192
Combo2 : 219,219,219
Combo3 : 102,179,255
Combo4 : 0,128,255

[HitObjects]
152,280,48018,6,0,B|72:248|104:152,3,140,4|8|0|8
176,192,49698,1,2
176,192,49938,2,0,B|208:112|136:72,2,140,4|8|0
144,264,51138,1,2
144,264,51378,1,8
208,304,51618,1,2
208,304,51858,6,0,B|296:280|264:352|344:336,2,140,4|8|0
256,160,53298,1,8
328,128,53538,1,2
400,96,53778,2,4,B|440:104|464:128,1,70
408,184,54258,2,0,B|440:216|488:208,1,70,8|4
344,224,54738,2,0,B|304:224|272:256,1,70,0|4
312,320,55218,2,0,B|272:336,2,35,8|4|0
168,360,55698,6,0,B|112:304|144:216,2,140,4|8|0
240,328,56898,1,4
240,328,57138,2,0,B|240:280|208:248,1,70,8|2
139,231,57618,2,0,B|195:175|163:87,2,140,4|8|0
80,280,58818,1,4
80,280,59058,2,0,B|56:312|56:352,1,70,8|2
152,312,59538,6,0,B|200:240|144:176,1,140,4|8
256,136,60378,2,4,B|240:192|272:240,1,105
336,144,60978,2,0,B|344:104|304:64,1,70,8|2
256,136,61458,6,4,B|248:88|192:80,1,70
176,160,61938,2,0,B|144:136|96:144,1,70,8|2
128,224,62418,2,8,B|80:216|40:240,1,70,0|8
112,296,62898,2,0,B|64:304|40:328,1,70,8|4
256,192,63618,12,4,65298
168,192,65778,6,0,B|224:256,1,70,8|4
152,88,66498,1,4
152,88,66738,2,0,B|112:80|72:96|48:120|48:168,1,140,8|4
120,192,67458,1,4
120,192,67698,2,0,B|136:240|104:296,2,105,8|4|4
48,224,68658,2,0,B|24:264|24:288,2,35,8|4|0
120,192,69138,6,0,B|184:160|264:184,1,140,4|8
232,256,69858,2,4,B|312:280|376:232,1,140
416,184,70578,2,0,B|432:144|416:112,1,70,8|0
360,64,71058,6,4,B|296:112,1,70
240,56,71538,2,0,B|152:120,2,105,8|4|4
304,105,72498,2,0,B|272:134|280:177,1,70,8|0
352,192,72978,6,0,B|384:264|336:336,1,140,4|8
272,352,73698,1,4
272,352,73938,2,0,B|224:280|288:200,1,140,0|8
200,192,74658,1,0
136,144,74898,6,4,B|64:80,1,70
32,160,75378,1,8
112,240,75738,2,4,B|112:304|64:344,1,105
24,257,76338,2,0,B|15:217,2,35,8|4|0
112,240,76818,6,0,B|176:208|264:232,1,140,4|8
216,296,77538,1,4
216,296,77778,2,0,B|288:328|368:288,1,140,0|8
392,232,78498,1,0
360,160,78738,6,0,B|304:112,1,70,4|8
272,192,79218,2,0,B|216:136,1,70,0|8
184,216,79698,2,0,B|128:152,1,70,0|8
96,240,80178,2,0,B|40:176,1,70,8|8
96,240,80658,6,0,B|136:312|224:296,1,140,4|8
184,216,81378,2,4,B|144:136|40:176,1,140
96,240,82098,2,0,B|112:280|168:296,1,70,8|2
216,312,82578,5,4
216,312,82818,1,4
288,336,83058,1,8
288,336,83298,2,4,B|328:272|424:272,1,140,2|4
480,232,84018,2,0,B|496:184|472:144,1,70,8|2
408,104,84498,6,0,B|384:144|408:184,1,70,4|2
312,240,84978,2,0,B|328:200|312:160,1,70,8|2
232,104,85458,2,0,B|224:144|240:184,1,70,0|6
160,256,85938,2,0,B|168:208|144:176,1,70,8|2
235,173,86418,6,0,B|224:249|267:317,1,140,4|8
336,320,87138,1,2
416,328,87378,2,0,B|456:264,1,70,0|4
384,240,87858,2,0,B|432:160,1,70,8|2
360,136,88338,6,0,B|312:80|224:104,1,140,4|8
264,176,89058,2,4,B|184:208|128:136,1,140
72,104,89778,2,0,B|48:144|72:184,1,70,8|2
137,146,90258,6,0,B|112:224|168:280,1,140,4|8
224,224,90978,2,0,B|200:144|240:80,1,140,0|4
312,104,91698,2,0,B|320:56,2,35,8|4|2
352,168,92178,5,4
352,168,92418,1,2
360,248,92658,1,8
360,248,92898,1,2
280,256,93138,1,0
280,256,93378,1,4
272,176,93618,1,8
272,176,93858,1,2
312,112,94098,5,4
328,320,94578,1,8
208,224,95058,1,0
424,200,95538,1,8
312,112,96018,6,0,B|232:72|160:160,1,140,4|8
264,176,96738,2,4,B|208:240|120:200,1,140
64,176,97458,1,8
24,240,97698,1,2
24,240,97938,6,4,B|32:320,1,70
104,240,98418,2,0,B|112:320,1,70,8|2
184,320,98898,1,0
184,320,99138,1,4
184,320,99378,2,0,B|176:232,1,70,8|2
256,192,99858,5,4
320,152,100098,1,2
320,232,100338,2,0,B|272:296,1,70,8|2
336,336,100818,1,0
416,336,101058,1,4
376,272,101298,2,0,B|424:208,1,70,8|2
376,152,101778,5,4
376,152,102018,1,2
312,112,102258,1,8
312,112,102498,1,2
248,72,102738,1,0
248,72,102978,1,4
184,32,103218,1,8
184,32,103458,1,2
120,72,103698,6,0,B|88:144|144:216,1,140,4|8
135,204,104418,1,4
264,288,104898,1,4
264,288,105138,2,0,B|296:256|288:216,1,70,8|2
264,112,105618,6,0,B|224:136|224:184,2,70,4|4|8
352,192,106458,2,4,B|376:248|328:320,1,105
272,272,107058,2,0,B|272:232,2,35,8|4|2
272,272,107538,6,0,B|280:184|216:136,1,140,4|8
176,200,108258,2,4,B|128:128|168:48,1,140
232,24,108978,2,0,B|240:72|224:104,1,70,8|2
256,192,109458,12,0,111378
256,192,111858,5,8
312,144,112098,2,4,B|340:180|338:221|313:257|252:272,1,140
200,240,112818,2,0,B|172:204|174:163|199:127|260:112,1,140,8|4
228,123,113538,1,4
256,192,113778,1,8
304,296,114138,2,4,B|416:296,1,105
488,296,114738,1,8
416,160,115218,6,0,B|400:80,1,70,4|2
352,200,115698,2,0,B|320:120,1,70,8|2
304,256,116178,2,0,B|256:192,1,70,0|4
272,320,116658,2,0,B|200:264,1,70,8|2
264,200,117138,2,0,B|200:192|168:152|176:88,1,140,4|8
264,200,118098,2,0,B|328:208|360:248|352:312,1,140,0|8
288,336,118818,1,0
288,336,119058,6,0,B|240:280|144:288,1,140,4|8
161,287,119778,2,4,B|80:304|40:224,1,140
32,152,120498,2,0,B|24:112|40:72,1,70,8|2
104,48,120978,1,4
104,48,121218,1,4
104,48,121458,1,8
216,80,121818,2,4,B|264:112|256:184,1,105
176,248,122418,2,0,B|160:208|176:160,1,70,8|2
256,171,122898,6,0,B|232:232|272:336,1,140,4|8
262,308,123618,1,4
360,184,124098,2,0,B|352:128,2,35,4|4|8
368,264,124578,1,2
256,192,124818,12,0,126738
160,240,127218,6,0,B|128:168|184:96,1,140,2|8
224,168,127938,2,0,B|248:208,6,35,2|0|2|0|2|0|4
224,168,128898,2,4,B|264:240|352:256,1,140
331,251,129618,1,8
331,251,129858,2,0,B|352:288|392:304,2,70,2|0|2
384,192,130578,6,4,B|408:136|352:64,2,105
332,252,131538,2,0,B|304:217|309:170,2,70,8|2|0
400,280,132258,1,2
464,320,132498,6,4,B|496:248|464:168,1,140,4|0
392,160,133218,1,4
392,160,133458,2,0,B|376:120|384:80,1,70,8|2
382,91,133938,1,0
256,176,134418,6,0,B|176:168|120:232,1,140,4|0
80,280,135138,1,0
80,280,135378,1,8
144,328,135618,2,0,B|176:352,6,35,2|0|2|0|2|0|4
144,328,136578,1,4
296,328,137058,2,0,B|256:296,2,35,4|4|8
416,232,137778,1,2
416,232,138258,6,4,B|448:176|408:104,1,105
344,48,138978,2,0,B|320:80|344:128,1,70,4|8
338,114,139458,1,2
344,192,139698,1,0
264,200,139938,1,2
264,200,140178,6,4,B|232:248|240:304,2,105
344,192,141138,2,0,B|352:144|336:112,1,70,8|2
264,120,141618,2,0,B|256:72|272:40,1,70,0|2
192,40,142098,6,4,B|136:32|64:80,2,105
168,112,143058,1,8
144,184,143298,2,0,B|128:240,6,35,2|0|2|0|2|0|4
144,184,144258,1,4
256,296,144738,2,0,B|248:344,2,35,4|4|8
296,144,145458,1,2
416,48,145938,6,4,B|456:96|424:152,2,105
360,112,146898,2,0,B|344:160|368:192,1,70,8|2
361,249,147378,2,0,B|377:201|353:169,1,70,0|2
360,112,147858,2,4,B|312:96|248:104,2,105
424,160,148818,2,0,B|448:232|408:312,1,140,8|2
344,320,149538,1,0
344,320,149778,6,4,B|304:296|272:336|224:296,2,105
416,296,150738,2,0,B|456:224|416:152,1,140,8|0
360,120,151458,1,2
360,120,151698,2,4,B|312:80|328:16,2,105,4|0|4
430,92,152658,2,0,B|438:140|406:188,1,70,8|2
376,224,153138,1,0
376,224,153378,1,2
376,224,153618,6,4,B|344:272|352:328,2,105
440,184,154578,2,0,B|456:224|432:272,1,70,8|2
384,136,155058,2,0,B|376:96|408:64,1,70,0|2
320,40,155538,6,0,B|288:56,6,35,4|0|0|0|4|4|0
304,136,156498,2,0,B|224:184,1,70,8|2
243,172,156978,1,0
112,248,157458,5,4
112,96,157938,1,2
256,40,158418,1,2
