osu file format v7

[General]
AudioFilename: Natteke ft. tieff - The Dream.mp3
AudioLeadIn: 0
PreviewTime: 126738
Countdown: 0
SampleSet: Soft
StackLeniency: 0.7
Mode: 0
LetterboxInBreaks: 1

[Editor]
DistanceSpacing: 1.10000002384186
BeatDivisor: 4
GridSize: 8

[Metadata]
Title:The Dream
Artist:Natteke ft. tieff
Creator:tieff
Version:Hard
Source:
Tags:Natteke_Desu

[Difficulty]
HPDrainRate:6
CircleSize:4
OverallDifficulty:7
SliderMultiplier:1.6
SliderTickRate:2

[Events]
//Background and Video events
0,0,"57044398.jpg"
//Break Periods
//Storyboard Layer 0 (Background)
//Storyboard Layer 1 (Fail)
//Storyboard Layer 2 (Pass)
//Storyboard Layer 3 (Foreground)
//Storyboard Sound Samples
//Background Colour Transformations
3,100,163,162,255

[TimingPoints]
32658,480,4,2,1,30,1,0
65298,-100,4,2,1,50,0,0
84618,-100,4,2,0,50,0,0
84858,-100,4,2,0,60,0,0
85218,-100,4,2,0,70,0,0
85578,-100,4,2,0,70,0,0
85938,-100,4,2,0,60,0,0
86298,-100,4,2,1,50,0,0
100338,-100,4,2,1,60,0,0
100698,-100,4,2,1,70,0,0
101058,-100,4,2,1,80,0,0
101418,-100,4,2,1,61,0,0
101658,-100,4,2,1,50,0,0
111258,-100,4,2,1,60,0,0
115698,-100,4,2,1,70,0,0
116058,-100,4,2,1,80,0,0
116418,-100,4,2,1,90,0,0
116778,-100,4,2,1,75,0,0
117018,-100,4,2,1,60,0,0
126618,-100,4,2,1,50,0,0
133338,-100,4,2,1,60,0,0
133398,-100,4,2,1,70,0,0
133458,-100,4,2,1,80,0,0
133518,-100,4,2,1,50,0,0
137658,-100,4,2,1,59,0,0
137898,-100,4,2,1,70,0,0
138138,-100,4,2,1,50,0,0
139338,-100,4,2,1,60,0,0
139578,-100,4,2,1,69,0,0
139818,-100,4,2,1,60,0,0
140058,-100,4,2,1,50,0,0
140958,-100,4,2,1,65,0,0
141018,-100,4,2,1,80,0,0
141078,-100,4,2,1,90,0,0
141138,-100,4,2,1,100,0,0
141198,-100,4,2,1,50,0,0
148638,-100,4,2,1,65,0,0
148698,-100,4,2,1,80,0,0
148758,-100,4,2,1,90,0,0
148818,-100,4,2,1,100,0,0
148878,-100,4,2,1,50,0,0
156258,-100,4,2,1,30,0,0
156318,-100,4,2,1,50,0,0
156378,-100,4,2,1,70,0,0
156438,-100,4,2,1,90,0,0
156498,-100,4,2,1,100,0,0
156558,-100,4,2,1,50,0,0

[Colours]
Combo1 : 128,128,192
Combo2 : 219,219,219
Combo3 : 102,179,255
Combo4 : 0,128,255

[HitObjects]
424,104,47298,1,0
336,96,47538,1,8
336,96,47658,2,0,C|328:168|328:224,1,120,0|4
248,248,48258,1,0
192,312,48498,2,0,B|144:272|144:184,2,120,8|0|0
280,328,49458,2,0,C|360:336|456:328,1,160,8|4
368,280,50178,5,0
368,280,50298,1,0
368,280,50418,2,0,B|312:256|248:256,1,120,8|0
251,256,50898,1,2
168,272,51138,1,0
80,256,51378,1,8
88,168,51618,1,2
88,168,51738,1,2
88,168,51858,6,0,C|136:176|192:176,1,80,4|0
216,104,52338,2,0,B|256:152|248:208,2,120,8|0|0
304,80,53298,2,0,B|384:72|464:88,1,160,8|4
448,176,54018,1,4
440,216,54138,1,0
432,256,54258,1,8
424,296,54378,1,0
424,336,54498,1,0
248,328,54978,1,4
256,240,55218,2,0,B|184:216|88:224,1,160,8|4
112,312,55938,5,0
144,232,56178,2,0,C|152:176|160:104,2,120,8|0|0
208,168,57138,2,0,B|288:152|360:184,1,160,8|4
296,120,57858,1,0
208,112,58098,1,8
168,104,58218,1,0
128,104,58338,1,0
88,112,58458,1,4
80,240,58818,1,4
168,216,59058,2,0,B|248:208|328:224,1,160,8|4
240,232,59778,6,0,B|248:320,1,80,0|8
288,288,60138,1,0
328,304,60258,1,0
368,304,60378,1,4
368,176,60738,1,4
296,120,60978,2,0,B|216:104|136:128,1,160,8|4
216,80,61698,6,0,C|312:72,1,80,2|8
384,88,62178,2,0,C|392:176,1,80,2|0
424,248,62658,2,8,C|328:256,1,80
256,192,63138,12,4,65298
424,128,65778,5,8
336,136,66018,2,0,C|248:128,1,80,4|0
264,216,66498,2,0,C|360:224,1,80,4|8
336,312,66978,2,0,C|248:312,1,80,8|4
184,264,67458,1,4
192,176,67698,2,0,B|240:144|320:152,2,120,8|4|4
168,88,68658,1,8
168,88,68778,2,4,B|128:128|104:192,1,120
104,272,69378,5,4
104,272,69498,1,4
104,272,69618,1,8
192,264,69858,1,4
368,248,70338,1,4
368,248,70458,1,4
368,248,70578,2,0,C|360:168|360:144,1,80,8|2
456,208,71058,2,0,C|448:288,1,80,4|4
360,288,71538,2,0,B|304:272|208:272,2,120,8|4|6
368,128,72498,1,12
208,112,72738,1,12
48,120,72978,5,4
40,208,73218,1,0
40,208,73338,1,0
40,208,73458,1,8
120,168,73698,2,4,B|128:248|64:328,1,160
160,280,74418,2,8,C|264:272,1,80,8|2
288,200,74898,6,4,C|184:192,1,80
256,120,75378,2,0,B|320:120|384:168,2,120,8|6|6
336,88,76338,1,8
336,88,76458,2,4,C|328:152|328:216,1,120
376,136,77058,5,4
376,136,77178,1,4
376,136,77298,1,8
368,224,77538,1,4
192,216,78018,1,4
192,216,78138,1,4
192,216,78258,1,8
280,224,78498,1,0
288,136,78738,5,4
200,128,78978,2,0,C|112:120,1,80,8|0
168,48,79458,1,8
168,48,79578,2,0,C|232:40|312:40,1,120,8|8
376,56,80178,1,0
464,64,80418,1,2
424,264,80658,5,4
416,88,81138,1,8
328,96,81378,2,4,B|264:104|272:152|200:160,1,160
256,72,82098,2,0,B|160:56|80:80,1,160,8|4
112,160,82818,1,4
200,152,83058,1,8
288,152,83298,1,2
376,160,83538,1,4
376,160,83658,1,0
376,160,83778,1,4
464,176,84018,2,0,B|440:280,1,80,8|4
360,256,84498,1,4
264,280,84738,5,2
168,296,85098,1,2
112,216,85458,1,2
184,152,85818,1,2
272,192,86178,1,2
144,264,86418,6,0,B|96:280,2,40,4|0|4
176,288,86778,2,0,B|176:344,2,40,0|8|0
216,264,87138,2,0,B|256:280,2,40,0|4|6
184,232,87498,2,0,B|184:184,2,40,0|4|0
176,232,87858,2,0,B|256:216|352:248,1,160,8|4
376,320,88578,6,0,B|472:312,1,80,4|8
424,232,89058,1,4
424,232,89178,2,0,B|432:168|440:128,1,80,2|2
464,184,89538,2,0,B|384:160,1,80,4|8
320,216,90018,1,0
232,224,90258,6,4,B|232:288|240:328,1,80
320,280,90738,2,0,B|328:200|320:144,1,120,8|6
408,176,91338,1,2
408,176,91458,2,0,B|472:176|528:184,1,80,4|12
440,256,91938,1,0
352,240,92178,6,0,B|280:224|184:224,1,160,4|8
104,224,92898,1,6
104,136,93138,1,0
104,136,93258,1,2
88,48,93498,1,6
88,48,93618,1,8
176,40,93858,1,0
264,56,94098,6,4,B|264:104|256:152,2,80,4|4|8
352,64,94818,1,4
352,64,94938,2,0,B|360:120|360:208,1,120,4|4
288,232,95538,1,8
288,232,95658,2,0,B|288:152|304:80,1,120,4|4
248,176,96258,5,0
264,88,96498,2,0,B|216:80|168:120,1,80,8|4
272,128,96978,2,0,B|312:136|368:88,1,80,2|4
280,48,97458,2,0,B|192:48|112:112,1,160,8|4
216,88,98178,5,4
304,80,98418,1,8
392,104,98658,1,0
392,104,98778,1,4
456,168,99018,1,0
456,168,99138,2,0,B|440:232|440:280,1,80,4|8
416,208,99498,2,0,B|352:200|264:200,1,120,4|0
208,224,100098,6,0,B|192:288|200:344,2,120,2|2|2
256,104,101178,1,2
376,48,101538,1,0
384,136,101778,6,0,B|432:128,3,40,4|0|4|0
408,168,102258,2,0,B|416:224,3,40,8|0|0|4
368,192,102738,2,0,B|320:200,3,40,0|0|4|0
336,152,103218,1,8
336,152,103338,2,0,B|264:144|192:144,1,120,4|0
296,104,103938,5,4
208,112,104178,2,0,B|120:104,1,80,8|4
192,40,104658,2,0,B|184:136,1,80,0|4
120,64,105138,2,0,B|216:64|304:80,1,160,8|4
360,112,105858,1,4
400,192,106098,1,8
312,176,106338,5,0
312,176,106458,1,4
384,120,106698,1,0
384,120,106818,1,4
464,152,107058,1,8
464,152,107178,2,4,B|456:192|448:296,1,120
360,280,107778,6,0,B|368:320,2,40,4|4|8
272,264,108258,1,4
272,264,108378,2,0,B|208:264|128:272,1,120,4|4
176,352,108978,2,0,B|184:272|184:160,1,160,8|4
176,104,109698,5,12
176,104,109938,1,12
256,144,110178,2,0,B|296:136,1,40,0|8
320,216,110538,2,0,B|328:264,1,40,8|0
408,224,110898,2,0,B|504:216,1,80,8|8
216,240,111378,5,4
128,264,111618,1,4
40,264,111858,1,8
32,176,112098,1,4
32,176,112218,2,0,B|96:168|136:168,1,80,2|2
80,136,112578,2,0,B|72:80|80:16,1,80,4|8
160,96,113058,1,0
248,96,113298,6,4,B|312:96|352:104,1,80
304,184,113778,2,0,B|224:192|168:184,1,120,8|2
264,232,114378,1,2
264,232,114498,2,0,B|320:240|360:232,1,80,4|8
384,256,114858,2,0,B|392:208|392:128,1,120,4|4
312,96,115458,6,0,B|216:80|168:96,1,120,2|2
104,192,116178,1,2
256,216,116538,1,2
408,200,116898,1,0
336,280,117138,6,0,B|384:272,3,40,4|0|4|0
360,312,117618,2,0,B|368:368,3,40,8|0|0|4
320,336,118098,2,0,B|272:344,3,40,0|0|4|0
288,296,118578,1,8
288,296,118698,2,0,B|216:288|144:288,1,120,4|4
248,248,119298,5,0
184,184,119538,2,0,B|232:168|296:176,1,80,8|4
344,200,120018,2,0,B|368:152|352:96,1,80,0|6
296,64,120498,2,0,B|224:48|120:48,1,160,10|4
88,120,121218,5,4
88,120,121458,2,0,B|72:168|64:248,1,120,8|4
152,224,122058,1,0
152,224,122178,2,0,B|208:216|256:224,1,80,4|8
240,264,122538,2,0,B|248:192|248:128,1,120,4|4
240,56,123138,5,0
320,88,123378,2,0,B|360:112|376:152,1,80,8|4
368,232,123858,1,0
320,304,124098,1,4
280,320,124218,1,4
240,320,124338,2,0,B|184:312|72:320,1,160,8|4
152,264,125058,5,12
240,240,125298,1,12
280,160,125538,1,12
280,160,125658,2,0,B|224:144|168:144,1,80
160,152,126018,1,12
136,64,126258,2,0,B|80:80|56:128,1,80,8|0
232,56,126738,6,4,B|312:56|376:96,2,120
240,96,127578,1,4
232,136,127698,2,0,B|232:184|240:240,1,80,8|2
320,192,128178,2,0,B|400:184|520:192,1,160,0|4
432,112,128898,2,0,B|424:184|432:288,1,160,4|4
344,288,129618,2,0,B|272:280|232:288,1,80,8|0
176,288,130098,2,0,B|184:192|184:96,1,160,2|4
104,232,130938,5,4
88,104,131298,1,4
96,104,131418,1,0
104,104,131538,2,0,B|176:88|208:88,1,80,8|2
264,112,132018,2,0,B|248:168|272:208|248:288,1,160,2|4
288,248,132618,2,0,B|320:200|352:168,1,80,4|4
384,176,132978,6,0,B|416:168,8,20,0|0|0|0|4|4|4|4|8
336,104,133698,1,2
256,72,133938,2,0,B|184:48|80:88,1,160,0|4
144,152,134658,1,2
144,152,134778,6,0,B|128:216|160:272,1,120,4|4
200,256,135258,1,0
240,256,135378,2,0,B|280:256|312:216,1,80,8|2
312,136,135858,2,0,B|408:144|416:240,1,160,0|4
384,152,136578,6,0,B|480:160|488:256,1,160,4|4
488,168,137298,1,8
448,88,137538,1,2
368,64,137778,1,2
280,64,138018,1,2
192,88,138258,6,4,B|128:120|112:216,1,120,4|6
160,192,138738,2,0,B|208:176|224:136,1,80,0|4
288,200,139218,2,0,B|320:248|288:288,2,80,8|2|2
216,152,139938,1,0
128,144,140178,5,4
128,144,140298,2,4,B|88:192|88:248,1,80
136,216,140658,6,0,B|168:208,8,20,0|0|0|0|4|4|4|4|8
176,296,141378,1,0
256,272,141618,2,0,B|264:176|240:104,1,160,2|4
360,56,142458,6,4,B|432:64|496:104,1,120
416,160,143058,1,8
328,176,143298,1,2
240,160,143538,1,2
152,160,143778,1,0
64,168,144018,6,4,B|48:120|64:64,1,80
144,80,144498,1,0
168,160,144738,1,4
152,248,144978,1,8
168,336,145218,1,0
232,280,145458,2,0,B|240:184|256:96,1,160,2|4
312,240,146298,5,4
336,112,146658,1,4
336,112,146778,1,4
336,112,146898,1,8
368,192,147138,1,0
352,280,147378,2,0,B|376:184|376:104,1,160,2|4
360,80,147978,6,4,B|280:64|264:64,1,80
248,96,148338,6,0,B|248:120,8,20,0|0|0|0|4|4|4|4|8
160,80,149058,1,2
72,96,149298,1,0
128,168,149538,1,2
200,112,149778,6,4,B|176:56|96:40,2,120
208,152,150618,1,4
200,192,150738,2,0,B|176:240|216:304,1,80,8|2
280,232,151218,2,0,B|344:224|448:224,1,160,0|6
384,296,151938,5,6
296,280,152178,2,0,B|304:368,1,80,0|2
216,328,152658,2,0,B|200:240|224:160,2,160,8|0|4
152,208,153978,5,4
176,80,154338,1,4
176,80,154458,1,4
176,80,154578,2,0,B|160:128|104:128,1,80,8|0
248,128,155058,2,0,B|336:112|432:136,1,160,0|4
407,130,155658,1,0
368,208,155898,1,4
368,248,156018,6,0,B|368:272,8,20,0|0|0|0|4|4|4|4|8
280,240,156738,1,0
192,248,156978,2,0,B|144:240|64:272|16:240,1,160,2|6
96,88,157938,5,0
96,88,158418,1,2
