osu file format v9

[General]
AudioFilename: Sunrise.mp3
AudioLeadIn: 0
PreviewTime: 20895
Countdown: 0
SampleSet: Soft
StackLeniency: 0.7
Mode: 0
LetterboxInBreaks: 1

[Editor]
Bookmarks: 12547
DistanceSpacing: 1
BeatDivisor: 4
GridSize: 8

[Metadata]
Title:Sunrise
Artist:Natteke ft. tieff
Creator:Strawberry
Version:Standard
Source:osu!stream
Tags:osu stream coiz iphone ipad ios SuzumiyaSama Yumeko Yuki AIR315 Yumeko_Yuki

[Difficulty]
HPDrainRate:4
CircleSize:3
OverallDifficulty:4
ApproachRate:5
SliderMultiplier:1.6
SliderTickRate:2

[Events]
//Background and Video events
0,0,"sunrise2.jpg"
//Break Periods
2,56603,63551
//Storyboard Layer 0 (Background)
//Storyboard Layer 1 (Fail)
//Storyboard Layer 2 (Pass)
//Storyboard Layer 3 (Foreground)
//Storyboard Sound Samples
//Background Colour Transformations
3,100,163,162,255

[TimingPoints]
4230,521.739130434783,4,2,1,40,1,0
6186,-100,4,2,1,20,0,0
6447,-100,4,2,1,40,0,0
8273,-100,4,2,1,20,0,0
8534,-100,4,2,1,40,0,0
18708,-100,4,2,1,50,0,0
19751,-100,4,2,1,60,0,0
54186,-100,4,2,1,50,0,0
54708,-100,4,2,1,60,0,0
55230,-100,4,2,1,50,0,0
55751,-100,4,2,1,60,0,0
56273,-100,4,2,1,50,0,0
84838,-100,4,2,1,70,0,0
85621,-76.9230769230769,4,2,1,70,0,1
118882,-76.9230769230769,4,2,1,70,0,0
119012,-76.9230769230769,4,2,1,70,0,1
119143,-76.9230769230769,4,2,1,70,0,0

[Colours]
Combo1 : 248,240,88
Combo2 : 251,132,125
Combo3 : 245,163,101

[HitObjects]
256,192,4230,1,2
256,72,5012,1,0
176,72,5273,2,0,B|120:136|120:224|176:296,1,240,2|0
256,296,6316,1,4
392,96,7099,5,0
312,112,7360,1,2
248,160,7621,2,0,B|184:216|152:288,1,160
232,304,8403,2,0,B|296:264|392:256|472:296,1,240,4|0
416,360,9447,5,2
456,208,9969,1,2
416,56,10490,2,0,B|336:56|264:120|256:216,1,240,0|2
256,288,11534,1,0
97,267,12056,1,2
136,112,12577,5,4
136,192,12838,1,2
272,280,13360,2,0,B|344:328|432:280,1,160,0|2
368,136,14403,2,0,B|256:136,1,80,0|4
176,184,15056,1,0
176,304,15447,1,4
329,313,15969,2,0,B|392:232|320:160,1,160,0|0
256,136,16751,6,0,B|168:136,2,80,6|0|0
96,200,17795,2,0,B|120:240|176:264,1,80,0|0
128,328,18316,2,0,B|168:350|204:344,1,80,2|2
264,288,18838,2,0,B|304:208|416:200,1,160,6|2
430,131,19621,1,0
400,56,19882,2,0,B|336:8|247:36,1,160,6|2
128,144,20925,5,6
208,288,21447,1,2
208,288,21708,1,0
272,336,21969,2,0,B|336:256|272:160,1,160,0|2
144,120,23012,6,0,B|160:80|232:64,1,80,0|0
256,136,23534,2,0,B|289:109|360:131,1,80,2|0
312,200,24056,2,0,B|352:216|368:288,2,80,0|2|2
192,304,25099,5,6
144,240,25360,1,0
192,176,25621,1,2
392,152,26143,2,0,B|384:96|352:72,1,80,0|0
312,144,26664,2,0,B|232:144,1,80,2|0
168,200,27186,6,0,B|109:155|128:57,2,120,2|0|2
232,248,28230,2,0,B|264:208|304:192,1,80,0|0
320,272,28751,2,0,B|367:253|410:259,1,80,2|0
400,176,29273,6,0,B|304:160|272:72,1,160,6|2
232,152,30056,1,0
232,152,30316,2,0,B|232:328,1,160,0|2
96,232,31360,5,2
192,168,31751,2,0,B|264:160|280:64,1,120
321,26,32403,2,0,B|377:74|393:106,1,80,2|0
427,145,32925,1,2
408,304,33447,5,6
408,304,33708,1,0
336,264,33969,1,2
336,264,34230,2,0,B|276:251|244:291|244:291|172:259,1,160
112,296,35012,2,0,B|104:256|120:208,1,80,2|0
152,144,35534,6,0,B|112:120,2,40,0|0|0
224,184,36056,1,2
296,144,36316,2,0,B|336:120,2,40,0|0|0
224,184,36838,2,0,B|224:280,2,80,0|2|0
152,144,37621,6,0,B|184:88|240:96|264:112|264:112|304:112,1,160,6|2
432,208,38664,1,2
424,288,38925,1,0
360,240,39186,1,2
200,248,39708,6,0,B|200:200|152:160,2,80
72,152,40751,2,0,B|97:48|217:66,1,160,2|2
340,117,41795,6,0,B|360:160|342:194,1,80,6|0
340,275,42316,1,2
171,275,42838,1,2
169,194,43099,2,0,B|152:160|171:117,1,80,0|2
256,64,43882,6,0,B|330:34,2,80,0|2|0
256,224,44925,2,0,B|176:256,2,80,2|0|2
416,256,45969,6,0,B|432:303|399:340|399:340|332:359,1,160,4|2
176,360,47012,2,0,B|109:341|109:341|75:304|92:256,1,160,0|2
176,160,48056,6,0,B|248:136|224:64|296:40,1,160,4|2
352,80,48838,1,0
424,112,49099,2,0,B|456:160|424:216,1,80
360,168,49621,2,0,B|363:225|308:258,1,80,2|0
264,176,50143,5,4
216,256,50403,1,0
120,256,50664,1,2
72,176,50925,1,0
120,96,51186,1,0
216,96,51447,1,0
168,176,51708,2,0,B|264:176,1,80,2|0
256,192,52230,12,0,53795
256,112,54316,6,0,B|256:200,1,80
256,272,54838,2,0,B|256:176,1,80,2|0
176,192,55360,1,2
216,128,55621,1,0
296,128,55882,1,2
336,192,56143,1,0
256,192,56403,1,4
176,128,64751,6,0,B|256:80|336:136,1,160,0|2
320,288,65795,1,2
256,336,66056,1,0
192,288,66316,1,2
256,144,66838,6,0,B|232:184|168:192,1,80,2|0
184,104,67360,2,0,B|208:64|272:56,1,80,0|2
320,96,67882,2,0,B|360:104|389:134,1,80,2|0
337,194,68403,2,0,B|358:216|376:264,1,80,2|2
296,272,68925,6,0,B|275:250|257:202,1,80,0|2
184,224,69447,2,0,B|177:194|184:144,1,80,2|0
264,120,69969,1,2
200,48,70229,1,2
104,72,70490,1,2
88,168,70751,1,2
168,224,71012,6,0,B|232:288|352:272,1,160,4|2
352,184,71795,1,2
384,96,72056,2,0,B|432:104|456:176,1,80
352,184,72577,1,2
216,96,73099,6,0,B|192:160|192:160|160:176|120:232,1,160,2|0
256,320,74143,1,2
256,320,74403,1,0
320,272,74664,1,2
320,272,74925,1,0
384,224,75186,6,0,B|408:176|416:128,1,80,2|0
304,32,75969,2,0,B|288:54|274:106,1,80,0|6
120,104,77273,5,2
80,176,77534,2,0,B|184:184|232:280,1,160,2|0
224,328,78316,2,0,B|294:308|318:208,1,160,4|2
376,56,79360,5,2
256,168,79882,1,0
376,280,80403,1,2
496,168,80925,1,2
376,168,81447,6,0,B|216:168,1,160
88,72,82490,2,0,B|24:144|88:216,1,160,4|4
128,144,83273,1,2
128,144,84838,5,2
200,176,85099,2,0,B|312:176,1,80,4|0
384,168,85621,6,2,B|352:88|272:64,2,155.999997210503,4|2|2
280,184,86664,2,0,B|312:280|440:312,1,207.99999628067,0|6
424,104,87708,2,0,B|360:184,1,103.999998140335,2|0
280,120,88229,2,0,B|208:208,1,103.999998140335,2|0
128,216,88751,1,0
152,296,89012,1,0
232,288,89273,1,6
400,208,89795,6,0,B|424:152|400:104,1,103.999998140335,2|0
320,168,90316,2,0,B|312:56|184:24,1,207.99999628067,2|0
136,104,91099,1,0
80,192,91360,1,2
184,192,91621,1,2
128,280,91882,1,4
256,192,92012,12,4,93447
256,112,93969,5,2
256,320,94490,2,0,B|256:200,1,103.999998140335,2|2
80,104,95273,2,0,B|80:160|136:192,1,103.999998140335,2|6
336,152,96056,6,0,B|368:104|440:112,1,103.999998140335,2|0
416,216,96577,2,0,B|384:264|312:256,1,103.999998140335,2|0
336,360,97099,2,0,B|279:371|234:314,1,103.999998140335,2|0
326,256,97621,1,6
128,208,98143,5,2
128,208,98403,1,0
40,152,98664,2,0,B|120:80|232:80,1,207.99999628067,2|0
256,184,99447,2,0,B|280:232|344:256,2,103.999998140335,0|2|0
256,184,100229,1,6
400,64,100751,6,0,B|344:64,2,51.9999990701676,2|2|2
464,144,101273,2,0,B|424:208|416:288,1,103.999998140335,2|0
328,272,101795,2,0,B|280:256|216:272,1,103.999998140335,2|0
176,176,102316,6,0,B|264:160|352:64,1,207.99999628067,6|2
248,56,103099,1,0
152,88,103360,2,0,B|176:192|136:320,1,207.99999628067,0|4
352,312,104403,6,0,B|312:232|336:160,2,155.999997210503,0|2|0
424,240,105447,1,2
456,144,105708,1,0
424,48,105969,1,6
216,64,106490,5,2
128,112,106751,1,0
216,168,107012,2,0,B|320:184|384:312,1,207.99999628067,2|0
280,336,107795,1,0
184,288,108056,2,0,B|256:272|312:216,1,103.999998140335,2|0
294,144,108577,5,2
392,184,108838,1,2
400,80,109099,2,0,B|472:96|512:176,1,103.999998140335,0|0
464,240,109621,2,0,B|424:144|288:144,1,207.99999628067,2|4
88,168,110664,6,0,B|88:224|136:264,1,103.999998140335,0|2
208,192,111186,1,2
208,192,111447,1,0
280,264,111708,2,0,B|322:228|322:172,1,103.999998140335,0|2
208,192,112230,1,2
208,192,112490,1,0
136,112,112751,6,0,B|352:112,1,207.99999628067,0|2
440,152,113534,2,0,B|416:256|304:320,1,207.99999628067,0|0
296,208,114316,2,0,B|288:152|232:120,1,103.999998140335,2|0
176,208,114838,5,6
96,144,115099,1,0
176,208,115360,1,2
80,240,115621,1,0
160,312,115882,2,0,B|272:312,1,103.999998140335,2|0
336,240,116403,2,0,B|440:240,1,103.999998140335,2|0
408,144,116925,6,2,B|376:104|304:88,1,103.999998140335,6|2
224,136,117447,2,0,B|173:130|121:77,1,103.999998140335,2|0
88,184,117969,1,2
160,256,118230,1,0
256,288,118490,1,2
352,256,118751,1,2
424,184,119012,1,6
