osu file format v9

[General]
AudioFilename: Sunrise.mp3
AudioLeadIn: 0
PreviewTime: 20895
Countdown: 0
SampleSet: Soft
StackLeniency: 0.7
Mode: 0
LetterboxInBreaks: 1

[Editor]
DistanceSpacing: 1.4
BeatDivisor: 4
GridSize: 8

[Metadata]
Title:Sunrise
Artist:Natteke ft. tieff
Creator:Strawberry
Version:Expert
Source:osu!stream
Tags:osu stream coiz iphone ipad ios SuzumiyaSama Yumeko Yuki AIR315 Yumeko_Yuki

[Difficulty]
HPDrainRate:7
CircleSize:4
OverallDifficulty:8
ApproachRate:8
SliderMultiplier:2.1
SliderTickRate:2

[Events]
//Background and Video events
0,0,"BG.jpg"
//Break Periods
//Storyboard Layer 0 (Background)
//Storyboard Layer 1 (Fail)
//Storyboard Layer 2 (Pass)
//Storyboard Layer 3 (Foreground)
//Storyboard Sound Samples
//Background Colour Transformations
3,100,163,162,255

[TimingPoints]
4230,521.739130434783,4,2,1,40,1,0
6186,-100,4,2,1,20,0,0
6447,-100,4,2,1,40,0,0
8273,-100,4,2,1,20,0,0
8534,-100,4,2,1,40,0,0
10621,-100,4,2,1,20,0,0
10882,-100,4,2,1,40,0,0
20730,-100,4,2,1,55,0,0
20860,-100,4,2,1,60,0,0
54251,-100,4,2,1,50,0,0
54773,-100,4,2,1,60,0,0
55295,-100,4,2,1,50,0,0
55816,-100,4,2,1,60,0,0
56338,-100,4,2,1,50,0,0
56795,-100,4,2,1,40,0,0
84838,-100,4,2,1,50,0,0
85621,-76.9230769230769,4,2,1,70,0,1
118882,-76.9230769230769,4,2,1,70,0,0
119012,-76.9230769230769,4,2,1,70,0,1
119143,-76.9230769230769,4,2,1,70,0,0

[Colours]
Combo1 : 248,240,88
Combo2 : 251,132,125
Combo3 : 245,163,101

[HitObjects]
256,192,4230,1,2
160,72,5012,5,0
96,136,5273,1,2
152,216,5534,2,0,B|256:264|384:208,1,210
408,136,6316,1,4
184,336,7099,5,0
112,272,7360,1,2
192,224,7621,2,0,B|104:120|200:32,1,210,0|0
264,104,8403,1,4
424,336,9186,5,0
352,272,9447,2,0,B|304:320|232:304,1,105,2|0
162,272,9969,2,0,B|210:320|282:304,1,105,0|2
257,202,10490,2,0,B|257:314,1,105
80,192,11273,5,2
192,160,11534,2,0,B|96:88,1,105,2|0
312,120,12056,2,0,B|408:192,1,105,2|0
384,312,12577,5,4
256,312,12838,1,0
56,160,13360,2,0,B|152:88|256:160,1,210,0|2
432,312,14403,1,0
304,312,14664,6,0,B|240:232|304:168,2,157.5,4|0|4
80,192,15969,1,2
304,72,16490,1,2
200,96,16751,6,0,B|200:160|288:184,1,105,4|0
352,224,17273,1,0
432,288,17534,2,0,B|336:360|224:288,1,210,2|0
96,136,18577,1,0
96,136,18838,6,0,B|184:144|256:64,2,157.5,4|0|2
168,216,19882,2,0,B|240:216|296:272,1,105,4|0
365,216,20403,2,0,B|293:216|237:272,1,105,4|0
268,247,20795,1,0
268,247,20925,5,6
168,128,21316,1,0
168,128,21447,2,0,B|168:16,1,105,2|0
88,88,21969,1,0
88,104,22099,1,0
88,120,22230,2,0,B|88:248,1,105,0|2
168,296,22751,1,0
272,296,23012,6,0,B|232:248|272:200,1,105
311,166,23403,1,0
360,146,23534,2,0,B|400:98|360:50,1,105,2|0
152,80,24056,1,0
184,120,24186,1,0
200,168,24316,1,0
96,184,24577,2,0,B|104:248|176:288,1,105,2|0
256,272,25099,5,0
304,64,25360,1,0
464,200,25621,1,2
360,176,25882,5,0
352,176,26012,1,2
344,176,26143,1,0
336,176,26273,1,2
328,176,26403,2,0,B|184:176,1,105,0|2
120,176,26925,1,0
160,272,27186,6,0,B|264:312,1,105
304,288,27577,1,0
352,264,27708,2,0,B|456:304,1,105,2|0
448,200,28230,5,0
416,160,28360,1,0
448,120,28490,1,0
416,80,28621,1,0
368,56,28751,1,2
320,80,28882,1,2
280,48,29012,1,0
240,80,29143,1,2
216,128,29273,6,0,B|261:182|206:236,1,105,6|0
164,227,29664,1,0
111,224,29795,2,0,B|66:170|121:116,1,105,2|0
272,256,30316,1,0
272,256,30447,1,0
272,256,30577,1,0
288,48,30838,1,2
472,152,31099,1,0
344,160,31360,6,0,B|408:216|408:304,1,157.5,6|0
360,312,31882,2,0,B|304:280|232:320,1,105,2|0
88,176,32403,1,0
104,192,32534,1,0
120,208,32664,2,0,B|232:208,2,105,0|2|0
280,72,33447,5,0
384,104,33708,1,0
312,184,33969,1,2
416,216,34229,1,0
312,184,34490,2,0,B|240:152,1,52.5
216,184,34751,2,0,B|104:128,1,105,0|2
122,137,35273,1,0
64,280,35534,5,2
64,280,35664,1,0
64,280,35795,1,0
224,288,36056,1,2
272,136,36316,1,2
272,136,36447,1,0
272,136,36577,2,0,B|160:128,1,105,0|2
312,64,37099,2,0,B|432:72,1,105,2|0
416,70,37490,1,0
416,72,37621,5,0
416,184,37882,1,0
400,232,38012,1,0
368,272,38143,2,0,B|328:312|240:304,1,105,2|0
160,128,38664,1,0
128,168,38795,1,0
104,216,38925,2,0,B|72:256|96:328,1,105,0|2
92,316,39447,1,0
199,319,39708,6,0,B|257:328|307:280,1,105
216,216,40230,2,0,B|255:177|313:185,1,105,2|0
360,200,40621,1,0
400,167,40751,2,0,B|447:133|450:64,1,105
352,48,41273,2,0,B|232:48,1,105,2|0
144,48,41795,5,0
144,48,42056,1,0
80,136,42316,2,0,B|192:136,1,105,2|0
288,136,42838,1,0
288,136,42969,1,0
288,136,43099,1,0
288,240,43360,2,0,B|288:352,1,105,2|0
152,296,43882,6,0,B|88:272|80:216,1,105
80,192,44273,1,0
80,160,44403,2,0,B|88:104|176:72,1,105,2|0
272,192,44925,1,2
240,192,45056,1,0
208,192,45186,1,2
368,192,45447,1,2
368,192,45708,1,0
304,104,45969,6,0,B|240:96|208:176,1,105,2|0
304,280,46490,2,0,B|240:288|208:208,1,105,2|0
120,272,47012,1,0
144,320,47143,1,0
192,336,47273,1,0
219,231,47534,2,0,B|267:191|267:191|355:191,1,105,2|0
464,40,48056,6,0,B|416:96|416:96|280:96,1,210,0|2
176,96,48838,1,0
248,176,49099,1,0
208,176,49229,1,0
168,176,49360,1,0
88,248,49621,2,0,B|128:296|128:296|200:296,1,105,2|0
320,296,50143,5,0
448,224,50403,1,0
448,80,50664,1,2
320,8,50925,1,2
192,80,51186,1,0
192,224,51447,1,0
320,296,51708,1,2
320,152,51969,1,0
448,224,52229,5,2
456,176,52360,1,0
465,128,52490,1,2
474,80,52621,1,2
280,128,53012,5,2
280,128,53143,1,0
280,128,53273,1,2
152,80,53534,5,0
144,128,53664,1,0
144,176,53795,2,0,B|136:240|200:296,1,105,2|0
328,312,54316,6,0,B|328:200,3,105,2|0|2|0
440,96,55360,2,0,B|384:48,3,52.5
360,96,55882,2,0,B|304:48,3,52.5
280,96,56403,1,6
128,280,56925,5,2
128,280,57056,1,0
128,280,57186,1,0
72,192,57447,2,0,B|112:160|184:160,1,105,2|0
152,56,57969,2,0,B|201:44|266:76,1,105,2|0
376,128,58490,1,0
456,240,58751,1,2
440,272,58882,2,0,B|400:328|400:328|304:328,1,157.5
232,256,59534,2,0,B|176:272|120:240,1,105,2|0
28,256,60056,2,0,B|84:272|140:240,1,105,2|0
128,112,60577,5,0
256,64,60838,1,2
256,64,60969,1,0
352,160,61229,1,0
352,160,61360,1,2
264,264,61621,2,0,B|144:232,3,105,4|0|0|0
120,208,62534,1,0
76,179,62664,1,2
280,120,62925,6,0,B|232:136|232:136|176:120,1,105,2|0
392,88,63447,1,2
408,136,63577,1,2
392,184,63708,2,0,B|352:232|352:232|352:296,1,105,4|0
304,296,64099,1,0
256,280,64230,2,0,B|256:237|256:237|216:189,1,105,6|0
104,64,64751,6,0,B|56:120|56:120|56:264,1,210,2|0
64,256,65403,1,0
72,256,65534,2,0,B|200:256,1,105,2|6
256,192,66056,1,2
256,88,66316,2,0,B|328:32|424:104,1,157.5,0|2
408,144,66838,6,0,B|384:192|416:256,1,105
411,245,67229,1,0
411,246,67360,2,0,B|364:218|298:246,1,105,2|0
216,192,67882,2,0,B|192:248|224:304,1,105,4|0
128,232,68403,1,2
128,200,68534,1,0
128,168,68664,1,0
296,40,68925,6,0,B|384:48|408:152,1,157.5,2|0
408,192,69447,1,2
288,232,69708,1,0
208,328,69969,2,0,B|144:320|120:256,1,105,2|0
200,192,70490,2,0,B|176:136|118:130,1,105,2|0
80,128,70882,1,0
48,144,71012,1,2
112,232,71273,6,0,B|112:344,1,105,0|2
216,312,71795,1,2
312,264,72056,1,2
312,160,72316,1,0
216,112,72577,1,2
216,112,72708,1,0
216,112,72838,2,0,B|104:112,1,105,2|6
144,320,73621,6,0,B|88:320,2,52.5,0|0|0
248,320,74143,2,0,B|360:320,1,105,2|0
296,232,74664,2,0,B|192:232,1,105,2|2
112,160,75186,2,0,B|152:120|200:104,1,105,2|0
256,96,75577,1,0
336,160,75838,1,0
336,216,75969,2,0,B|320:296|264:336,1,105,2|4
80,312,76751,2,0,B|80:256,2,52.5
240,304,77273,5,2
184,176,77534,1,2
184,176,77664,1,0
312,120,77925,1,0
312,120,78056,1,2
368,248,78316,2,0,B|464:304,3,105,4|0|0|0
488,256,79229,1,2
504,208,79360,6,0,B|392:144,1,105,2|0
312,176,79882,2,0,B|248:288,1,105,2|0
216,288,80273,1,0
168,272,80403,2,0,B|56:208,1,105,2|0
96,168,80795,1,0
120,120,80925,1,2
144,72,81056,1,0
192,88,81186,1,0
240,112,81316,1,0
288,136,81447,1,0
256,192,81577,12,4,82490
312,192,83012,2,2,B|207:192,1,105,6|2
256,192,83403,8,0,84577
204,104,84838,6,4,B|324:104,1,105,4|4
256,192,85360,1,2
112,224,85621,6,0,B|136:288|216:312,1,136.49999755919,6|0
256,320,86012,1,0
304,312,86143,2,0,B|379:289|403:225,1,136.49999755919,2|0
344,104,86664,2,0,B|288:160,1,68.2499987795949,0|0
248,144,86925,2,0,B|184:208,1,68.2499987795949,2|0
152,200,87186,2,4,B|96:256|96:256|96:336,1,136.49999755919,2|0
368,312,87708,5,6
432,120,88099,1,2
432,120,88229,1,2
304,80,88490,1,0
208,176,88751,1,2
208,176,88882,1,0
208,176,89012,1,2
128,288,89273,2,0,B|53:263|59:174,1,136.49999755919,2|0
280,296,89795,5,6
392,216,90056,1,0
392,248,90186,1,0
392,280,90316,1,2
312,168,90577,1,0
284,184,90708,1,0
256,200,90838,1,2
168,96,91099,1,2
168,128,91229,1,0
168,160,91360,2,0,B|168:304,1,136.49999755919,2|0
424,192,91882,5,6
312,112,92143,1,0
312,112,92273,1,0
312,112,92403,1,2
200,192,92664,1,0
312,272,92925,2,0,B|256:328|256:328|168:328,1,136.49999755919,2|2
168,328,93316,1,0
136,328,93447,1,2
168,56,93708,1,2
424,160,93969,6,0,B|376:112|376:112|280:112,1,136.49999755919,2|0
184,168,94490,2,0,B|232:216|232:216|328:216,1,136.49999755919,2|0
392,272,95012,1,0
312,352,95273,1,0
200,352,95534,1,2
120,272,95795,1,0
256,240,96056,5,6
160,144,96316,1,0
160,144,96447,1,0
160,144,96577,1,2
256,48,96838,1,0
352,144,97099,1,2
352,144,97230,1,0
352,144,97360,1,0
256,240,97621,2,0,B|208:304|208:304|136:304,1,136.49999755919,2|2
80,160,98143,5,6
168,56,98403,1,0
256,160,98664,1,2
136,224,98925,1,0
136,224,99056,1,0
136,224,99186,1,2
216,112,99447,1,0
296,224,99708,1,2
376,112,99969,1,0
408,296,100230,5,4
352,296,100360,1,0
296,296,100490,1,0
104,296,100751,5,2
160,296,100882,1,0
216,296,101012,1,0
136,176,101273,5,0
160,120,101403,1,0
200,80,101534,1,2
256,64,101664,1,0
312,80,101795,1,0
352,120,101926,1,0
376,176,102056,1,2
256,264,102316,5,4
128,312,102577,1,0
128,312,102708,2,0,B|76:267,1,68.2499987795949,0|2
120,136,103099,1,0
256,120,103360,2,0,B|136:16,1,136.49999755919,0|2
288,40,103882,2,0,B|400:136,1,136.49999755919,2|0
320,320,104403,5,6
392,200,104664,1,0
392,200,104795,1,0
392,200,104925,2,0,B|320:264|248:184,1,136.49999755919,2|0
144,144,105447,1,0
144,144,105577,1,0
144,144,105708,2,0,B|216:80|288:168,1,136.49999755919,2|2
264,280,106230,1,0
136,328,106490,6,0,B|80:288|80:288|80:208,1,136.49999755919,6|0
200,256,107012,2,0,B|200:188|200:188|144:148,1,136.49999755919,2|0
240,72,107534,1,2
272,96,107664,1,0
304,120,107795,1,2
423,116,108056,2,0,B|368:156|368:156|368:224,1,136.49999755919,2|0
272,304,108577,5,4
152,272,108838,1,0
128,296,108969,1,0
104,320,109099,1,2
24,224,109360,1,2
80,120,109621,2,0,B|80:48,2,68.2499987795949,2|0|0
168,56,110143,2,0,B|208:120|208:120|304:120,1,136.49999755919,2|0
384,120,110664,5,4
456,240,110925,1,0
336,304,111186,1,2
256,192,111447,1,0
256,192,111577,1,0
256,192,111708,1,2
176,80,111969,1,2
56,144,112230,2,0,B|56:224|56:224|96:272,1,136.49999755919,0|2
408,227,112751,6,0,B|328:288|328:288|224:288,1,204.749996338785,4|0
200,288,113273,1,2
272,168,113534,1,0
168,72,113795,2,0,B|160:112|176:144,2,68.2499987795949,2|0|0
64,160,114316,2,0,B|112:256|80:312,1,136.49999755919,2|0
256,312,114838,5,6
368,256,115099,1,0
256,72,115360,1,2
144,128,115621,1,0
312,192,115882,5,2
256,72,116143,1,0
200,192,116403,1,2
256,312,116664,1,2
432,144,116925,5,6
432,144,117056,1,0
432,144,117186,2,0,B|328:48,1,136.49999755919,2|2
80,240,117708,6,0,B|184:336,1,136.49999755919,0|2
180,332,118099,1,0
180,332,118230,1,2
216,192,118490,5,2
256,232,118621,1,0
296,192,118751,1,2
256,152,118882,1,0
256,96,119012,1,4
