osu file format v7

[General]
AudioFilename: Tabi no Tochuu (TV size).mp3
AudioLeadIn: 3000
PreviewTime: 53317
Countdown: 0
SampleSet: Soft
StackLeniency: 0.7
Mode: 0
LetterboxInBreaks: 1

[Editor]
DistanceSpacing: 0.800000011920929
BeatDivisor: 4
GridSize: 8

[Metadata]
Title:Tabi no Tochuu (TV Size)
Artist:Natsumi Kiyoura
Creator:Kuroneko-sHerald
Version:Wolf
Source:Spice and Wolf
Tags:Spice & Wolf TV animation OST Music of Wolf and Travel

[Difficulty]
HPDrainRate:7
CircleSize:4
OverallDifficulty:7
SliderMultiplier:1
SliderTickRate:1

[Events]
//Background and Video events
Video,0,"Spice and Wolf BDRIP.avi"
0,0,"Spice_and_wolf 1.jpg"
//Break Periods
//Storyboard Layer 0 (Background)
//Storyboard Layer 1 (Fail)
//Storyboard Layer 2 (Pass)
//Storyboard Layer 3 (Foreground)
//Storyboard Sound Samples
//Background Colour Transformations
3,100,163,162,255

[TimingPoints]
695,348.837209302326,3,2,0,100,1,0
19421,-100,4,1,0,70,0,0
19595,-100,4,2,0,70,0,0
23607,-100,4,1,0,70,0,0
23781,-100,4,2,0,70,0,0
27793,-100,4,1,0,70,0,0
27967,-100,4,2,0,70,0,0
31979,-100,4,1,0,70,0,0
32153,-100,4,2,0,70,0,0
36165,-100,4,1,0,70,0,0
36339,-100,4,2,0,70,0,0
44537,-100,4,1,0,70,0,0
44711,-100,4,2,0,70,0,0
52909,-100,4,1,0,70,0,0
53083,-100,4,2,0,70,0,0
53349,-100,4,2,0,70,0,1
63374,-100,4,1,0,70,0,1
63549,-100,4,2,0,70,0,1
65467,-100,4,1,0,70,0,1
65642,-100,4,2,0,70,0,1
65820,-100,4,2,0,30,0,1
69701,-100,4,2,0,70,0,1
84304,-100,4,1,0,70,0,1
84479,-100,4,2,0,70,0,1
85351,-100,4,2,0,0,0,1
87884,-100,4,2,0,0,0,0

[Colours]
Combo1 : 214,211,206
Combo2 : 159,202,236
Combo3 : 215,132,88
Combo4 : 10,62,136

[HitObjects]
256,192,1043,1,0
176,144,1392,1,0
96,192,1741,2,0,B|152:264|192:256|240:232|256:208|256:184,1,200
336,192,2788,1,4
336,192,3136,2,0,B|288:288,1,100
211,281,3834,1,0
450,281,4881,1,4
320,80,5927,5,0
320,80,6276,1,0
288,160,6625,1,0
320,240,6974,2,0,B|392:192|392:136|344:80|312:80,1,200,0|0
320,80,8020,1,2
96,168,9067,1,4
96,232,9415,1,0
160,232,9764,1,0
160,168,10113,5,0
392,232,11160,1,4
328,232,11508,1,0
328,168,11857,1,0
392,168,12206,1,0
160,104,13253,1,4
336,264,14299,6,0,B|408:216|408:160|360:104|328:104,1,200,0|0
336,104,15346,1,0
200,192,16043,1,0
200,192,16392,1,0
408,312,17439,1,4
408,312,17788,2,0,B|408:200,1,100,0|2
408,212,18485,5,2
168,216,19532,1,4
104,216,19881,2,0,B|104:272|168:288|192:280,1,100
232,280,20578,1,0
472,280,21625,1,4
344,80,22671,5,0
280,80,23020,1,0
216,80,23369,1,0
152,80,23718,2,0,B|152:152|152:152|288:152,1,200
344,152,24764,1,0
152,296,25811,1,4
216,296,26160,2,0,B|280:296,2,50
216,296,26857,5,0
456,296,27904,1,4
456,232,28253,2,0,B|456:128,1,100
456,131,28950,2,0,B|368:131|368:131|368:259,1,200
368,244,29997,1,4
128,248,31043,6,0,B|144:328|216:344|248:352|304:344,1,200,0|0
280,344,32090,2,0,B|313:349|345:341|417:325|433:245,1,200,0|0
433,247,33136,1,0
256,88,34183,1,4
256,328,35229,5,2
256,264,35578,1,2
256,200,35927,1,2
224,144,36276,1,0
288,144,36625,1,2
288,80,36974,1,2
224,80,37322,2,0,B|136:80|104:56|112:192,1,200,2|2
112,248,38369,1,4
256,192,39415,12,2,41508
456,312,42555,5,2
456,312,42904,1,0
456,312,43253,1,0
392,312,43601,6,0,B|168:312,1,200,2|2
128,312,44648,1,0
128,248,44997,1,2
128,184,45346,1,2
128,120,45694,1,2
128,56,46043,2,0,B|232:56,1,100,2|2
288,56,46741,1,2
256,216,47439,6,0,B|320:200|328:248|336:272|336:304|304:320|296:352|248:352|200:344|144:328|120:304|120:240|112:200|120:160|184:96|224:104|272:104|312:120,1,600,0|2
256,192,49881,12,0,53020
96,304,53369,5,2
96,240,53718,1,2
96,176,54067,2,0,B|88:64|104:80|232:80,1,200,2|2
376,80,55462,1,2
376,144,55811,1,2
376,208,56160,2,0,B|384:320|368:304|240:304,1,200,2|2
256,143,57555,5,2
224,88,57904,1,2
288,88,58253,2,0,B|400:80|384:96|384:224,1,200,2|2
256,304,59648,1,2
288,248,59997,1,2
224,248,60346,2,0,B|112:256|128:240|128:112,1,200,2|2
256,40,61741,5,0
216,88,62090,1,0
176,136,62439,1,0
136,184,62788,1,0
176,232,63136,1,0
216,280,63485,1,0
256,328,63834,5,0
296,280,64183,1,0
336,232,64532,1,0
376,184,64881,1,0
336,136,65229,1,0
296,88,65578,1,0
256,192,65927,12,4,69764
464,296,70113,6,0,B|432:352|328:368|296:304|288:280,1,200
296,296,71508,1,0
136,296,72206,1,0
136,296,72555,1,0
136,232,72904,2,0,B|80:200|64:96|128:64|152:56,1,200
272,152,74299,6,0,B|480:152,1,200
376,280,75695,1,0
376,280,76392,2,0,B|176:280,1,200
40,192,77788,1,0
176,104,78485,5,2
240,104,78834,1,2
304,104,79183,2,0,B|336:64|336:64|368:104|368:104|400:64|400:64|432:112,1,200,2|2
424,264,80578,1,2
360,264,80927,1,2
296,264,81276,2,0,B|264:224|264:224|232:264|232:264|200:224|200:224|168:272,1,200,2|2
192,104,82671,5,0
256,104,83020,1,0
256,40,83369,2,0,B|328:72|336:96|328:128|320:152|248:168,1,200
256,168,84415,2,0,B|184:200|176:224|184:256|192:280|264:296,1,200
256,192,85462,12,0,87904
