osu file format v7

[General]
AudioFilename: Tabi no Tochuu (TV size).mp3
AudioLeadIn: 3000
PreviewTime: 53317
Countdown: 1
SampleSet: Soft
StackLeniency: 0.7
Mode: 0
LetterboxInBreaks: 1

[Editor]
DistanceSpacing: 0.800000011920929
BeatDivisor: 4
GridSize: 8

[Metadata]
Title:Tabi no Tochuu (TV Size)
Artist:Natsumi Kiyoura
Creator:Kuroneko-sHerald
Version:Lawrence
Source:Spice and Wolf
Tags:Spice & Wolf TV animation OST Music of Wolf and Travel

[Difficulty]
HPDrainRate:7
CircleSize:4
OverallDifficulty:7
SliderMultiplier:1.4
SliderTickRate:1

[Events]
//Background and Video events
Video,0,"Spice and Wolf BDRIP.avi"
0,0,"Spice_and_wolf 1.jpg"
//Break Periods
//Storyboard Layer 0 (Background)
//Storyboard Layer 1 (Fail)
//Storyboard Layer 2 (Pass)
//Storyboard Layer 3 (Foreground)
//Storyboard Sound Samples
//Background Colour Transformations
3,100,163,162,255

[TimingPoints]
695,348.837209302326,3,2,0,70,1,0
19421,-100,4,1,0,70,0,0
19595,-100,4,2,0,70,0,0
23607,-100,4,1,0,70,0,0
23781,-100,4,2,0,70,0,0
27793,-100,4,1,0,70,0,0
27967,-100,4,2,0,70,0,0
31979,-100,4,1,0,70,0,0
32153,-100,4,2,0,70,0,0
36165,-100,4,1,0,70,0,0
36339,-100,4,2,0,70,0,0
44537,-100,4,1,0,70,0,0
44711,-100,4,2,0,70,0,0
48727,-100,4,1,0,70,0,0
48901,-100,4,2,0,70,0,0
52909,-100,4,1,0,70,0,0
53083,-100,4,2,0,70,0,0
53349,-100,4,2,0,70,0,1
55002,-100,4,1,0,70,0,1
55176,-100,4,2,0,70,0,1
57095,-100,4,1,0,70,0,1
57270,-100,4,2,0,70,0,1
59188,-100,4,1,0,70,0,1
59363,-100,4,2,0,70,0,1
61281,-100,4,1,0,70,0,1
61456,-100,4,2,0,70,0,1
63374,-100,4,1,0,70,0,1
63549,-100,4,2,0,70,0,1
65467,-100,4,1,0,70,0,1
65642,-100,4,2,0,70,0,1
71746,-100,4,1,0,70,0,1
71921,-100,4,2,0,70,0,1
73839,-100,4,1,0,70,0,1
74014,-100,4,2,0,70,0,1
75932,-100,4,1,0,70,0,1
76107,-100,4,2,0,70,0,1
78025,-100,4,1,0,70,0,1
78200,-100,4,2,0,70,0,1
80118,-100,4,1,0,70,0,1
80293,-100,4,2,0,70,0,1
82211,-100,4,1,0,70,0,1
82386,-100,4,2,0,70,0,1
84304,-100,4,1,0,70,0,1
84479,-100,4,2,0,70,0,1
85351,-100,4,2,0,0,0,1
87895,-100,4,2,0,0,0,0

[Colours]
Combo1 : 214,211,206
Combo2 : 159,202,236
Combo3 : 215,132,88
Combo4 : 10,62,136

[HitObjects]
64,200,1043,1,0
176,200,1392,1,0
64,200,1741,2,0,B|16:88|144:80|192:96|208:160|168:208,1,280
288,200,2788,1,4
400,200,3136,2,0,B|304:96,1,140
305,97,3834,2,0,B|248:160,2,70,0|0|0
256,312,4881,1,4
472,56,5927,5,0
472,168,6276,1,0
472,280,6625,1,0
376,224,6974,2,0,B|376:320|320:312|304:320|256:312|208:328|208:200,1,280
296,152,8020,1,2
296,152,9067,1,4
184,152,9415,5,0
72,152,9764,1,0
128,56,10113,1,0
128,56,10288,1,0
128,56,10462,2,0,B|352:56,1,210
338,56,11160,1,4
400,152,11508,1,0
288,152,11857,1,0
344,248,12206,1,0
344,248,12381,1,0
344,248,12555,2,0,B|112:248,1,210
136,192,13253,1,4
440,328,14299,6,0,B|360:240|512:304|424:192,1,140,0|0
416,96,14997,1,0
304,96,15346,2,0,B|216:16|280:168|168:80,1,140,0|0
80,96,16043,1,0
80,208,16392,2,0,B|120:168|120:168|160:208|160:208|200:168|200:168|240:208|240:208|280:168,1,280
392,168,17439,1,4
392,56,17788,6,0,B|240:56,1,140,0|2
136,56,18485,1,2
136,56,18660,1,2
136,56,18834,1,2
40,256,19532,1,4
152,256,19881,2,0,B|152:312|216:328|272:312,1,140
368,312,20578,2,0,B|368:240,2,70
368,88,21625,1,4
368,88,22671,5,0
256,88,23020,1,0
144,88,23369,1,0
144,88,23718,2,0,B|176:152|248:184|312:176|368:112|368:80,1,280
368,200,24764,2,0,B|336:264|264:296|200:288|144:224|144:192,1,280
72,288,25811,1,4
72,176,26160,6,0,B|72:88,2,70
168,232,26857,2,0,B|264:232,2,70
376,320,27904,1,4
448,232,28253,2,0,B|448:80,1,140
336,88,28950,1,0
336,88,29125,1,0
336,88,29299,2,0,B|336:232,1,140
336,344,29997,1,4
40,192,31043,6,0,B|48:288|88:312|160:296|256:296,1,280,0|0
257,296,32090,2,0,B|352:296|424:312|464:288|472:192,1,280,0|0
470,191,33136,2,0,B|462:96|422:72|350:88|256:88,1,280,0|0
254,87,34183,2,2,B|160:88|88:72|48:96|40:192,1,280,4|0
256,304,35229,5,0
256,192,35578,1,0
256,80,35927,1,0
352,136,36276,1,0
352,248,36625,1,0
256,192,36974,1,0
160,248,37322,1,0
160,136,37671,1,0
64,192,38020,1,0
64,192,38194,2,0,B|288:192,1,210
256,192,39415,12,2,41508
56,48,42555,5,2
168,48,42904,1,0
280,48,43253,1,0
392,48,43601,6,0,B|336:184,1,140
224,176,44299,1,0
112,176,44648,2,0,B|56:40,1,140
168,48,45346,1,0
200,152,45694,5,0
240,256,46043,1,0
288,152,46392,1,2
288,152,46567,2,0,B|344:240|344:240|400:144,1,210,2|0
472,232,47439,1,0
400,320,47788,5,0
288,320,48136,1,0
176,320,48485,1,0
112,232,48834,1,0
224,232,49183,1,0
336,232,49532,1,0
256,192,49881,12,0,53020
440,296,53369,5,0
328,296,53718,1,0
216,296,54067,2,0,B|264:176|256:248|400:216|432:256|448:160,1,280
440,72,55113,1,0
328,64,55462,5,0
216,64,55811,1,0
104,64,56160,2,0,B|152:184|144:112|288:144|320:104|336:200,1,280
336,288,57206,1,0
224,288,57555,5,0
112,288,57904,1,0
112,176,58253,2,0,B|112:104,4,70
224,176,59299,1,0
224,288,59648,5,0
312,224,59997,1,0
400,160,60346,2,0,B|400:264,4,70
312,88,61392,1,0
200,88,61741,5,2
96,136,62090,1,2
160,232,62439,1,2
264,184,62788,2,0,B|160:240|136:224|104:128|112:120|152:104|200:88,1,280,2|0
304,64,63834,5,0
360,160,64183,2,0,B|400:248|312:280,1,140
208,280,64881,2,0,B|120:320|88:232,1,140
80,128,65578,1,0
192,128,65927,2,0,B|328:128|376:136|376:264|376:304|368:312,1,280,0|4
256,192,66974,12,4,69764
80,72,70113,6,0,B|104:24|144:24|224:64|200:112|168:168|120:176|72:136|72:96,1,280
256,320,71508,1,0
256,192,71857,1,0
344,72,72206,2,0,B|368:24|408:24|488:64|464:112|432:168|384:176|336:136|336:96,1,280
256,320,73601,1,0
136,320,73950,1,0
72,224,74299,6,0,B|40:160|56:64|144:40|224:48,1,280
312,256,75695,1,0
392,336,76043,1,0
472,256,76392,1,0
392,176,76741,1,0
312,96,77090,2,0,B|248:64|152:80|128:168|136:248,1,280
184,336,78136,1,0
296,336,78485,5,2
240,240,78834,1,2
152,168,79183,2,0,B|192:104|192:104|216:168|216:168|248:104|248:104|272:168|272:168|304:104|304:104|336:168,1,420,2|0
448,168,80578,1,2
448,280,80927,1,2
336,280,81276,2,0,B|296:344|296:344|272:280|272:280|240:344|240:344|216:280|216:280|184:344|184:344|152:280,1,420,2|0
96,192,82671,5,0
208,192,83020,1,0
320,192,83369,2,0,B|424:192|424:192|440:192|440:128|424:128|424:128|312:128,1,280
224,192,84415,2,0,B|120:192|120:192|104:192|104:128|120:128|120:128|232:128,1,280
256,192,85462,12,0,87904
