osu file format v7

[General]
AudioFilename: Tabi no Tochuu (TV size).mp3
AudioLeadIn: 3000
PreviewTime: 53317
Countdown: 1
SampleSet: Soft
StackLeniency: 0.7
Mode: 0
LetterboxInBreaks: 1

[Editor]
DistanceSpacing: 0.800000011920929
BeatDivisor: 4
GridSize: 8

[Metadata]
Title:Tabi no Tochuu (TV Size)
Artist:Natsumi Kiyoura
Creator:Kuroneko-sHerald
Version:Lawrence and Horo
Source:Spice and Wolf
Tags:Spice & Wolf TV animation OST Music of Wolf and Travel

[Difficulty]
HPDrainRate:9
CircleSize:4
OverallDifficulty:8
SliderMultiplier:1.6
SliderTickRate:1

[Events]
//Background and Video events
0,0,"Spice_and_wolf 1.jpg"
Video,0,"Spice and Wolf BDRIP.avi"
//Break Periods
//Storyboard Layer 0 (Background)
//Storyboard Layer 1 (Fail)
//Storyboard Layer 2 (Pass)
//Storyboard Layer 3 (Foreground)
//Storyboard Sound Samples
//Background Colour Transformations
3,100,163,162,255

[TimingPoints]
695,348.837209302326,3,2,0,70,1,0
19421,-100,4,1,0,70,0,0
19595,-100,4,2,0,70,0,0
23607,-100,4,1,0,70,0,0
23781,-100,4,2,0,70,0,0
27793,-100,4,1,0,70,0,0
27967,-100,4,2,0,70,0,0
31979,-100,4,1,0,70,0,0
32153,-100,4,2,0,70,0,0
36165,-100,4,1,0,70,0,0
36339,-100,4,2,0,70,0,0
40351,-100,4,1,0,70,0,0
40525,-100,4,2,0,70,0,0
44537,-100,4,1,0,70,0,0
44711,-100,4,2,0,70,0,0
48727,-100,4,1,0,70,0,0
48901,-100,4,2,0,70,0,0
52909,-100,4,1,0,70,0,0
53083,-100,4,1,0,70,0,0
53349,-100,4,2,0,70,0,1
55002,-100,4,1,0,70,0,1
55176,-100,4,2,0,70,0,1
57095,-100,4,1,0,70,0,1
57270,-100,4,2,0,70,0,1
59188,-100,4,1,0,70,0,1
59363,-100,4,2,0,70,0,1
61281,-100,4,1,0,70,0,1
61456,-100,4,2,0,70,0,1
63374,-100,4,1,0,70,0,1
63549,-100,4,2,0,70,0,1
65467,-100,4,1,0,70,0,1
65642,-100,4,2,0,70,0,1
67560,-100,4,1,0,70,0,1
67735,-100,4,2,0,70,0,1
71746,-100,4,1,0,70,0,1
71921,-100,4,2,0,70,0,1
73839,-100,4,1,0,70,0,1
74014,-100,4,2,0,70,0,1
75932,-100,4,1,0,70,0,1
76107,-100,4,2,0,70,0,1
78025,-100,4,1,0,70,0,1
78200,-100,4,2,0,70,0,1
80118,-100,4,1,0,70,0,1
80293,-100,4,2,0,70,0,1
82211,-100,4,1,0,70,0,1
82386,-100,4,2,0,70,0,1
84304,-100,4,1,0,70,0,1
84479,-100,4,2,0,70,0,1
85351,-100,4,2,0,0,0,1
87895,-100,4,2,0,0,0,0

[Colours]
Combo1 : 214,211,206
Combo2 : 159,202,236
Combo3 : 215,132,88
Combo4 : 10,62,136

[HitObjects]
192,48,1043,1,0
320,48,1392,1,0
320,176,1741,2,0,B|312:136|248:128|184:144|192:184,2,160
256,288,2788,1,4
192,176,3136,5,0
320,176,3485,1,0
320,48,3834,2,0,B|312:88|248:96|184:80|192:40,2,160
432,112,4881,1,4
432,240,5229,1,2
320,304,5578,1,2
192,304,5927,5,0
80,240,6276,1,0
72,112,6625,2,0,B|104:160|144:112|144:88,1,80
136,110,6974,2,0,B|160:56|232:56|248:88|264:112,1,160
264,112,7671,1,0
392,112,8020,5,0
296,200,8369,2,0,B|328:248|368:200|368:176,2,80
328,328,9067,1,4
216,272,9415,5,0
152,272,9590,1,0
88,272,9764,2,0,B|56:232|48:152|104:104,1,160
152,120,10288,1,0
215,120,10462,2,0,B|247:160|255:240|199:288,1,160
152,192,11160,1,4
152,320,11508,6,0,B|248:352|344:312|344:304,1,160
296,192,12206,1,0
232,192,12381,1,0
168,192,12555,1,0
232,80,12904,1,0
360,80,13253,2,0,B|400:56|434:75|448:88,4,80,4|0|0|0|0
440,184,14299,5,0
408,240,14474,1,0
368,288,14648,1,0
328,240,14822,1,0
296,184,14997,1,0
296,56,15346,2,0,B|336:96|376:96|400:96|456:48|464:32,1,160
376,168,16043,1,0
440,168,16218,1,0
408,224,16392,6,0,B|425:213|369:261|345:261|305:261|265:221,1,160
216,192,16915,1,0
216,256,17090,1,0
160,224,17264,1,0
120,296,17439,2,0,B|130:313|82:257|82:233|82:193|122:153,1,160
118,158,17962,1,2
118,158,18136,1,2
192,56,18485,5,2
224,112,18660,1,2
256,56,18834,1,2
384,56,19183,2,0,B|374:39|422:95|422:119|422:159|382:199,1,160,0|4
320,304,19881,5,0
192,304,20229,1,0
256,192,20578,1,0
256,128,20753,1,0
256,64,20927,1,0
144,128,21276,1,0
144,256,21625,2,0,B|200:336|176:360|128:352|80:328,2,160,4|0|0
144,256,22671,6,0,B|88:176|112:152|160:160|208:184,2,160
185,174,23718,2,0,B|248:344|248:344|336:200,1,320
458,174,24764,2,0,B|394:344|394:344|306:200,1,320
321,95,25811,1,4
200,48,26160,5,0
80,96,26508,1,0
40,216,26857,2,0,B|80:240|138:209|136:200,2,80
168,200,27555,1,0
120,320,27904,1,4
224,248,28253,6,0,B|184:344,2,80
240,184,28776,2,0,B|192:96,2,80
288,232,29299,2,0,B|328:144,1,80,0|0
321,160,29648,5,0
449,160,29997,1,4
385,160,30171,1,0
321,160,30346,1,0
193,160,30694,1,0
64,160,31043,5,0
88,216,31218,1,0
120,272,31392,1,0
120,272,31741,1,0
232,336,32090,2,0,B|240:272|192:272,2,80
184,216,32788,1,0
160,160,32962,1,0
160,160,33136,5,0
160,160,33311,1,0
136,104,33485,2,0,B|200:112|200:64,2,80
256,160,34183,1,4
352,272,34532,1,4
456,160,34881,1,4
352,48,35229,6,0,B|288:80|256:8|184:64,1,160,0|0
199,54,35753,1,0
135,54,35927,2,0,B|167:118|95:150|151:222,1,160,0|0
142,209,36450,1,0
206,209,36625,2,0,B|270:241|302:169|374:225,1,160,0|0
360,216,37148,1,0
424,216,37322,2,0,B|456:152|384:120|440:48,1,160,0|0
120,248,38020,1,2
144,304,38194,1,2
208,312,38369,1,4
256,192,38718,2,0,B|320:224|352:152|424:208,1,160,0|0
256,48,39415,5,0
200,80,39590,1,0
160,128,39764,1,0
160,192,39939,1,0
160,256,40113,1,0
200,304,40288,1,0
256,336,40462,1,0
312,304,40636,1,0
352,256,40811,1,0
352,192,40985,1,0
352,128,41160,1,0
312,80,41334,1,0
256,192,41508,12,2,42555
256,64,42904,5,2
256,192,43253,1,2
128,192,43601,2,2,B|67:151|72:96|128:64|152:48,1,160
256,64,44299,1,2
384,64,44648,2,0,B|444:104|440:160|384:192|360:208,1,160,0|2
256,192,45346,1,2
320,304,45694,2,2,B|279:364|224:360|192:304|176:280,1,160,0|2
256,192,46392,2,2,B|256:96,2,80
472,48,47439,5,2
416,72,47613,1,2
384,128,47788,1,2
256,128,48136,1,2
224,72,48311,1,2
168,48,48485,1,2
112,72,48660,1,2
80,128,48834,1,0
80,256,49183,5,2
112,312,49357,1,0
168,336,49532,1,2
224,312,49706,1,0
256,256,49881,1,0
256,192,50055,12,0,53020
320,64,53369,5,0
192,64,53718,1,0
192,192,54067,2,0,B|224:240|264:248|304:232|328:176,1,160
256,304,54764,1,0
256,304,54939,1,0
256,304,55113,1,0
192,192,55462,5,0
192,64,55811,1,0
320,64,56160,2,0,B|368:96|376:136|360:176|304:200,1,160
432,128,56857,1,0
432,128,57032,1,0
432,128,57206,1,0
384,248,57555,6,0,B|352:296|312:304|272:288|248:232,1,160
256,248,58253,2,0,B|224:296|184:304|144:288|120:232,1,160
128,248,58776,1,0
128,248,58950,1,0
128,248,59125,1,0
128,248,59299,1,0
128,120,59648,6,0,B|160:72|200:64|240:80|264:136,1,160
256,120,60346,2,0,B|288:72|328:64|368:80|392:136,1,160
384,120,60869,1,0
384,120,61043,1,0
384,120,61218,1,0
384,120,61392,1,0
256,192,61741,12,0,63485
256,320,63834,5,0
224,264,64008,1,0
256,208,64183,1,0
288,152,64357,1,0
256,96,64532,2,0,B|200:56|112:80|96:104,1,160
72,152,65055,1,0
104,208,65229,1,0
136,264,65404,1,0
104,320,65578,1,0
232,320,65927,6,0,B|320:320,3,80
376,320,66625,2,0,B|416:264|392:176|368:160,1,160
312,168,67148,2,0,B|232:168,2,80
344,112,67671,2,0,B|288:72|200:96|184:120,1,160
168,168,68369,2,0,B|128:224|152:312|176:328,1,160,0|0
272,248,69067,5,2
312,200,69241,1,0
368,232,69415,1,2
368,296,69590,1,0
304,304,69764,1,4
176,304,70113,5,0
48,304,70462,1,0
112,192,70811,2,0,B|112:344,1,140
176,208,71508,1,0
48,208,71857,1,0
336,304,72206,5,0
464,304,72555,1,0
400,192,72904,2,0,B|400:344,1,140
336,208,73601,1,0
464,208,73950,1,0
400,96,74299,5,0
272,96,74648,1,0
160,160,74997,2,0,B|96:120|96:56|168:32|176:32,2,160
272,96,76043,1,0
144,96,76392,5,0
272,96,76741,1,0
385,158,77090,2,0,B|447:119|447:55|375:31|381:35,2,160
272,96,78136,1,0
144,96,78485,6,2,B|144:184,1,80
208,176,78834,2,2,B|208:88,1,80
272,96,79183,2,2,B|272:184,1,80
336,176,79532,2,2,B|336:88,1,80
400,96,79881,1,2
400,160,80055,1,0
400,224,80229,1,0
288,288,80578,5,0
256,344,80753,1,0
224,288,80927,1,0
256,232,81101,1,0
320,224,81276,2,0,B|288:168|216:168|192:216|184:240,1,160,0|0
128,224,81799,1,0
96,168,81974,1,0
144,128,82148,1,0
192,160,82322,1,0
256,48,82671,5,0
320,56,82846,1,0
344,112,83020,1,0
296,152,83195,1,0
248,112,83369,1,0
128,336,84067,1,0
192,336,84241,1,0
256,336,84415,2,0,B|256:240,4,80
256,192,85462,12,0,87904
