osu file format v7

[General]
AudioFilename: Tabi no Tochuu (TV size).mp3
AudioLeadIn: 3000
PreviewTime: 53317
Countdown: 0
SampleSet: Soft
StackLeniency: 0.7
Mode: 0
LetterboxInBreaks: 1

[Editor]
DistanceSpacing: 0.800000011920929
BeatDivisor: 4
GridSize: 8

[Metadata]
Title:Tabi no Tochuu (TV Size)
Artist:Natsumi Kiyoura
Creator:Kuroneko-sHerald
Version:Apple
Source:Spice and Wolf
Tags:Spice & Wolf TV animation OST Music of Wolf and Travel

[Difficulty]
HPDrainRate:4
CircleSize:3
OverallDifficulty:3
SliderMultiplier:0.8
SliderTickRate:1

[Events]
//Background and Video events
0,0,"Spice_and_wolf 1.jpg"
Video,0,"Spice and Wolf BDRIP.avi"
//Break Periods
//Storyboard Layer 0 (Background)
//Storyboard Layer 1 (Fail)
//Storyboard Layer 2 (Pass)
//Storyboard Layer 3 (Foreground)
//Storyboard Sound Samples
//Background Colour Transformations
3,100,163,162,255

[TimingPoints]
695,348.837209302326,3,2,0,70,1,0
19421,-100,4,1,0,70,0,0
19595,-100,4,2,0,70,0,0
23607,-100,4,1,0,70,0,0
23781,-100,4,2,0,70,0,0
27793,-100,4,1,0,70,0,0
27967,-100,4,2,0,70,0,0
31979,-100,4,1,0,70,0,0
32153,-100,4,2,0,70,0,0
36169,-100,4,1,0,70,0,0
36339,-100,4,2,0,70,0,0
48727,-100,4,1,0,70,0,0
48901,-100,4,2,0,70,0,0
52909,-100,4,1,0,70,0,0
53083,-100,4,2,0,70,0,0
53349,-100,4,2,0,70,0,1
65820,-100,4,2,0,30,0,1
69701,-100,4,2,0,70,0,1
84304,-100,4,1,0,70,0,1
84479,-100,4,2,0,70,0,1
85351,-100,4,2,0,0,0,1
87884,-100,4,2,0,0,0,0

[Colours]
Combo1 : 214,211,206
Combo2 : 159,202,236
Combo3 : 215,132,88
Combo4 : 10,62,136

[HitObjects]
256,272,1043,1,0
256,272,1741,1,0
120,136,2788,1,4
120,328,3834,1,0
120,136,4881,1,4
256,272,5927,5,0
256,272,6974,2,0,B|224:240|216:176|232:128|280:112,1,160,2|0
255,127,8020,1,2
440,192,9067,1,4
256,256,10113,5,0
72,192,11160,1,4
256,128,12206,1,0
176,304,13253,1,4
368,304,14299,6,0,B|400:272|408:208|392:160|344:144,1,160,0|0
370,159,15346,1,0
176,160,16392,1,0
272,328,17439,1,4
368,160,18485,5,2
464,328,19532,1,0
280,288,20578,1,0
408,144,21625,1,4
216,144,22671,5,0
136,320,23718,2,0,B|336:320,1,160
296,320,24764,1,2
384,144,25811,1,4
464,320,26857,5,0
280,280,27904,1,4
112,192,28950,1,0
112,192,29997,1,4
304,160,31043,5,0
224,336,32090,2,0,B|416:336,1,160
383,336,33136,1,0
408,144,34183,1,4
256,256,35229,5,0
104,144,36276,1,0
168,328,37322,2,0,B|360:328,1,160
329,328,38369,1,4
168,224,39415,6,2,B|296:256|344:216|360:176|360:112|328:64|312:40|248:32|192:64|168:88|176:144|192:152|240:160|256:152,1,480,0|2
376,272,42555,1,2
256,128,43601,6,0,B|168:128|128:128|128:128|72:128|24:192|48:256|104:272|128:272|128:272|264:272,1,480,2|2
256,272,46741,1,2
256,144,47439,6,0,B|256:40,4,80
256,144,49183,1,0
256,144,49532,1,0
256,192,49881,12,0,53020
144,192,54067,6,0,B|160:96|232:104|296:104,1,160
360,104,55462,1,0
256,192,56160,2,0,B|240:288|168:280|104:280,1,160
256,344,57555,1,0
256,344,58253,6,0,B|352:328|344:256|344:192,1,160,0|0
344,104,59648,1,0
344,104,60346,2,0,B|319:104|247:96|231:192,1,160
168,304,61741,1,0
168,176,62439,5,0
256,80,63136,1,0
344,176,63834,1,0
344,304,64532,2,0,B|248:288|256:216|256:152,1,160
256,192,65927,12,4,69764
112,48,70113,6,0,B|152:88|216:88|264:56|272:24,1,160
257,49,71508,1,0
384,48,72206,1,0
384,48,72904,2,0,B|424:88|424:152|392:200|360:208,1,160
256,192,74299,6,0,B|216:152|152:152|104:184|96:216,1,160
112,192,75695,1,0
168,304,76392,2,0,B|368:304,1,160
328,304,77788,1,0
408,208,78485,5,0
456,88,79183,1,0
328,88,79881,1,0
328,216,80578,1,0
200,216,81276,1,0
200,88,81974,5,0
328,88,82671,1,0
328,88,83020,1,0
392,88,83369,2,0,B|392:272,1,160
392,248,84415,2,0,B|200:248,1,160
256,192,85462,12,0,87904
