osu file format v13

[General]
AudioFilename: 1.mp3
AudioLeadIn: 1000
PreviewTime: 56439
Countdown: 0
SampleSet: Soft
StackLeniency: 0.4
Mode: 0
LetterboxInBreaks: 0
EpilepsyWarning: 1
WidescreenStoryboard: 1

[Editor]
DistanceSpacing: 0.5
BeatDivisor: 4
GridSize: 4
TimelineZoom: 1

[Metadata]
Title:Sentimental na Aiboshin
TitleUnicode:センチメンタルな愛慕心
Artist:Natsume Chiaki
ArtistUnicode:なつめ千秋
Creator:Natsu
Version:Insane
Source:
Tags:Love Heart GUMI vocaloid megpoid gero
BeatmapID:553362
BeatmapSetID:239374

[Difficulty]
HPDrainRate:7
CircleSize:4
OverallDifficulty:7.5
ApproachRate:8.5
SliderMultiplier:1.8
SliderTickRate:2

[Events]
//Background and Video events
0,0,"KSHRisMrdokidoki.jpg",0,0
//Break Periods
2,79139,90864
2,133539,142864
//Storyboard Layer 0 (Background)
//Storyboard Layer 1 (Fail)
//Storyboard Layer 2 (Pass)
//Storyboard Layer 3 (Foreground)
//Storyboard Sound Samples

[TimingPoints]
2139,400,4,2,2,40,1,0
2139,-133.333333333333,4,2,2,40,0,0
2739,-133.333333333333,4,2,1,50,0,0
13339,-133.333333333333,4,2,1,55,0,0
14939,-100,4,2,1,55,0,0
27539,-111.111111111111,4,2,1,55,0,0
38939,-133.333333333333,4,2,1,50,0,0
40339,-111.111111111111,4,2,1,55,0,0
50139,-111.111111111111,4,2,1,60,0,0
55339,-111.111111111111,4,2,1,20,0,0
55539,-111.111111111111,4,2,1,50,0,0
56539,-100,4,2,1,80,0,1
56739,-100,4,2,1,65,0,1
78139,-133.333333333333,4,2,1,55,0,1
78939,-133.333333333333,4,2,1,80,0,0
91539,-111.111111111111,4,2,1,55,0,0
101339,-111.111111111111,4,2,1,60,0,0
106139,-111.111111111111,4,2,1,50,0,0
106539,-111.111111111111,4,2,1,20,0,0
106739,-111.111111111111,4,2,1,60,0,0
107739,-100,4,2,1,80,0,1
107939,-100,4,2,1,65,0,1
129339,-133.333333333333,4,2,1,50,0,1
130139,-100,4,2,1,80,0,0
130239,-100,4,2,1,55,0,0
143539,-133.333333333333,4,2,1,50,0,0
145539,-133.333333333333,4,2,1,20,0,0
145739,-133.333333333333,4,2,1,50,0,0
146739,-133.333333333333,4,2,1,20,0,0
146939,-133.333333333333,4,2,1,50,0,0
148139,-133.333333333333,4,2,1,20,0,0
148339,-133.333333333333,4,2,1,50,0,0
150339,-133.333333333333,4,2,1,20,0,0
150539,-133.333333333333,4,2,1,50,0,0
151939,-133.333333333333,4,2,1,20,0,0
152139,-133.333333333333,4,2,1,50,0,0
152739,-133.333333333333,4,2,1,20,0,0
152939,-133.333333333333,4,2,1,50,0,0
153139,-133.333333333333,4,2,1,20,0,0
153339,-133.333333333333,4,2,1,50,0,0
153539,-133.333333333333,4,2,1,20,0,0
153739,-133.333333333333,4,2,1,50,0,0
153939,-133.333333333333,4,2,1,20,0,0
154139,-133.333333333333,4,2,1,50,0,0
154539,-133.333333333333,4,2,1,20,0,0
154739,-133.333333333333,4,2,1,50,0,0
156339,-111.111111111111,4,2,1,55,0,0
157339,-111.111111111111,4,2,1,57,0,0
165339,-111.111111111111,4,2,1,60,0,0
165939,-133.333333333333,4,2,1,55,0,0
166739,-133.333333333333,4,2,1,55,0,0
167339,-100,4,2,1,80,0,1
167539,-100,4,2,1,65,0,1
188539,-133.333333333333,4,2,1,45,0,1
189339,-100,4,2,1,50,0,0
189439,-100,4,2,1,30,0,0
191739,-100,4,2,1,20,0,0
194139,-100,4,2,1,10,0,0

[Colours]
Combo1 : 245,175,186
Combo2 : 240,175,245
Combo3 : 186,117,255
Combo4 : 233,88,211
Combo5 : 184,67,102
Combo6 : 233,171,141
Combo7 : 244,191,91

[HitObjects]
116,328,2139,6,0,P|176:328|224:276,1,135.000005149842,6|0,0:0|0:0,0:0:0:0:
256,192,2739,1,2,0:0:0:0:
236,108,2939,1,2,0:0:0:0:
236,108,3539,5,2,0:0:0:0:
108,46,3739,1,2,0:0:0:0:
173,172,3939,1,2,0:0:0:0:
196,32,4139,1,2,0:0:0:0:
94,132,4339,2,0,P|88:200|132:252,1,135.000005149842,2|2,0:0|0:0,0:0:0:0:
384,249,5139,6,0,P|424:197|418:132,1,135.000005149842,2|0,0:0|0:0,0:0:0:0:
344,80,5739,2,0,L|268:60,1,67.5000025749208,2|0,0:0|0:0,0:0:0:0:
268,152,6139,2,0,L|190:165,1,67.5000025749208,2|0,0:0|0:0,0:0:0:0:
240,244,6539,2,0,L|175:289,1,67.5000025749208,2|0,0:0|0:0,0:0:0:0:
48,352,6939,6,0,L|12:288,1,67.5000025749208,2|0,0:0|0:0,0:0:0:0:
132,208,7339,2,0,L|98:266,1,67.5000025749208,2|0,0:0|0:0,0:0:0:0:
44,180,7739,2,0,L|8:116,1,67.5000025749208,2|0,0:0|0:0,0:0:0:0:
128,36,8139,2,0,L|94:94,1,67.5000025749208,2|0,0:0|0:0,0:0:0:0:
204,264,8539,6,0,L|170:322,2,67.5000025749208,6|0|8,0:0|0:0|0:0,0:0:0:0:
256,192,9139,1,2,0:0:0:0:
308,120,9339,2,0,L|342:62,1,67.5000025749208,2|0,0:0|0:0,0:0:0:0:
448,64,9739,2,0,L|414:122,1,67.5000025749208,8|0,0:0|0:0,0:0:0:0:
254,335,10139,5,2,0:0:0:0:
183,263,10339,1,2,0:0:0:0:
256,192,10539,1,10,0:0:0:0:
327,263,10739,2,0,B|352:284|352:284|408:296|440:232,1,135.000005149842,2|2,0:0|0:0,0:0:0:0:
185,121,11539,6,0,B|160:100|160:100|104:88|72:152,1,135.000005149842,2|0,0:0|0:0,0:0:0:0:
52,228,12139,2,0,L|36:304,1,67.5000025749208,8|0,0:0|0:0,0:0:0:0:
124,272,12539,2,0,L|142:347,1,67.5000025749208,2|0,0:0|0:0,0:0:0:0:
204,276,12939,2,0,L|252:336,1,67.5000025749208,8|0,0:0|0:0,0:0:0:0:
392,360,13339,5,6,0:0:0:0:
460,276,13539,1,0,1:0:0:0:
460,276,13639,1,0,1:0:0:0:
460,276,13739,1,8,3:0:0:0:
392,192,13939,1,0,1:0:0:0:
392,192,14039,1,0,1:0:0:0:
392,192,14139,1,4,3:0:0:0:
460,108,14339,2,0,L|424:68,1,33.7500012874604,0|0,1:0|1:0,0:0:0:0:
370,117,14539,2,0,L|348:92,1,33.7500012874604,8|0,0:0|1:0,0:0:0:0:
292,140,14739,2,0,L|269:114,1,33.7500012874604,0|0,1:0|1:0,0:0:0:0:
292,140,14939,6,0,P|256:216|160:212,1,180,6|8,0:0|0:0,0:0:0:0:
80,68,15539,1,2,0:0:0:0:
47,298,15739,2,0,P|132:296|170:220,1,180,2|8,0:0|0:0,0:0:0:0:
80,68,16339,5,2,0:0:0:0:
80,68,16439,1,0,0:0:0:0:
80,68,16539,1,2,0:0:0:0:
92,228,16739,1,2,0:0:0:0:
216,152,16939,1,8,0:0:0:0:
44,168,17139,1,2,0:0:0:0:
44,168,17239,1,0,0:0:0:0:
44,168,17339,1,0,0:0:0:0:
204,236,17539,2,0,P|248:232|284:200,1,90,2|8,0:0|0:0,0:0:0:0:
301,25,17939,6,0,P|225:66|222:165,1,180,2|0,0:0|0:0,0:0:0:0:
308,308,18539,2,0,B|348:316|348:316|396:304,2,90,8|0|0,0:0|0:0|0:0,0:0:0:0:
204,308,19139,2,0,B|164:316|164:316|116:304,2,90,2|8|0,0:0|0:0|0:0,0:0:0:0:
256,128,19739,5,2,0:0:0:0:
300,40,19939,2,0,P|256:28|212:40,1,90,0|8,0:0|0:0,0:0:0:0:
137,192,20339,1,0,0:0:0:0:
140,236,20439,1,0,0:0:0:0:
159,277,20539,1,8,0:0:0:0:
191,308,20639,1,0,0:0:0:0:
233,324,20739,1,0,0:0:0:0:
277,324,20839,1,0,0:0:0:0:
319,308,20939,1,8,0:0:0:0:
352,278,21039,1,0,0:0:0:0:
371,237,21139,1,0,0:0:0:0:
374,193,21239,1,0,0:0:0:0:
348,156,21339,6,0,P|311:80|353:0,1,180,6|8,0:0|0:0,0:0:0:0:
408,80,21939,1,2,0:0:0:0:
212,76,22139,2,0,B|80:76|80:76|128:128,1,180,2|8,0:0|0:0,0:0:0:0:
256,192,22739,5,2,0:0:0:0:
256,192,22839,1,0,0:0:0:0:
256,192,22939,1,2,0:0:0:0:
368,256,23139,1,2,0:0:0:0:
252,316,23339,1,8,0:0:0:0:
256,192,23539,2,0,B|236:160|232:128|276:88|284:56|256:16,1,180,2|2,0:0|0:0,0:0:0:0:
168,56,24139,5,8,0:0:0:0:
336,152,24339,1,0,0:0:0:0:
336,152,24439,1,0,0:0:0:0:
336,152,24539,1,6,0:0:0:0:
168,56,24739,1,0,0:0:0:0:
168,56,24839,1,0,0:0:0:0:
168,56,24939,1,8,0:0:0:0:
168,248,25139,1,4,0:0:0:0:
336,152,25339,5,8,0:0:0:0:
358,190,25439,1,0,0:0:0:0:
362,234,25539,1,0,0:0:0:0:
346,276,25639,1,0,0:0:0:0:
313,306,25739,1,8,0:0:0:0:
270,319,25839,1,0,0:0:0:0:
226,313,25939,1,0,0:0:0:0:
190,287,26039,1,0,0:0:0:0:
168,248,26139,5,6,0:0:0:0:
168,56,26339,1,2,0:0:0:0:
336,152,26539,1,8,0:0:0:0:
168,248,26739,2,0,P|120:260|64:232,1,90,6|0,0:0|0:0,0:0:0:0:
20,128,27139,1,0,0:0:0:0:
20,128,27239,1,0,0:0:0:0:
20,128,27339,1,8,0:0:0:0:
168,56,27539,5,0,0:0:0:0:
257,111,27739,1,6,0:0:0:0:
164,161,27939,1,0,0:0:0:0:
182,50,28139,1,0,0:0:0:0:
254,126,28339,1,0,0:0:0:0:
151,150,28539,1,2,0:0:0:0:
198,48,28739,1,8,3:0:0:0:
248,141,28939,1,8,3:0:0:0:
142,137,29139,1,0,0:0:0:0:
296,52,29339,5,6,0:0:0:0:
360,112,29539,2,0,P|368:152|356:192,1,80.9999975280763,0|8,0:0|0:0,0:0:0:0:
296,52,29939,1,2,0:0:0:0:
296,52,30039,1,0,0:0:0:0:
296,52,30139,2,0,P|368:28|436:72,1,161.999995056153,2|8,0:0|0:0,0:0:0:0:
420,268,30739,5,0,0:0:0:0:
385,366,30939,1,2,0:0:0:0:
286,332,31139,1,0,0:0:0:0:
320,233,31339,1,8,0:0:0:0:
420,268,31539,1,2,0:0:0:0:
420,268,31639,1,0,0:0:0:0:
420,268,31739,1,2,0:0:0:0:
454,169,31939,1,0,0:0:0:0:
355,135,32139,1,8,0:0:0:0:
320,233,32339,1,0,0:0:0:0:
184,348,32539,5,2,0:0:0:0:
104,312,32739,2,0,P|80:280|76:232,1,80.9999975280763,2|8,0:0|0:0,0:0:0:0:
96,152,33139,2,0,P|55:150|20:168,1,80.9999975280763,2|0,0:0|0:0,0:0:0:0:
156,248,33539,2,0,P|196:249|231:231,1,80.9999975280763,2|8,0:0|0:0,0:0:0:0:
220,32,33939,1,0,0:0:0:0:
220,32,34039,1,8,0:0:0:0:
220,32,34139,2,0,P|172:100|196:200,1,161.999995056153,2|8,0:0|0:0,0:0:0:0:
256,360,34739,5,2,0:0:0:0:
344,344,34939,1,0,0:0:0:0:
284,276,35139,2,0,L|260:188,1,80.9999975280763,0|8,0:0|0:0,0:0:0:0:
232,112,35539,1,0,0:0:0:0:
188,188,35739,2,0,P|264:196|316:136,1,161.999995056153,2|8,0:0|0:0,0:0:0:0:
200,44,36339,5,2,0:0:0:0:
188,188,36539,1,0,0:0:0:0:
316,136,36739,1,0,0:0:0:0:
156,112,36939,1,8,0:0:0:0:
272,204,37139,1,0,0:0:0:0:
284,60,37339,6,0,P|368:72|396:144,1,161.999995056153,2|8,0:0|0:0,0:0:0:0:
304,280,37939,1,2,0:0:0:0:
304,280,38039,1,0,0:0:0:0:
304,280,38139,2,0,P|220:268|192:196,1,161.999995056153,2|8,0:0|0:0,0:0:0:0:
191,203,38639,1,0,0:0:0:0:
191,203,38739,1,0,0:0:0:0:
256,24,38939,6,0,B|284:8|284:8|288:116,1,135.000005149842,2|2,0:0|0:0,0:0:0:0:
292,184,39539,1,2,0:0:0:0:
296,260,39739,2,0,L|300:332,2,67.5000025749208,2|2|2,0:0|0:0|0:0,0:0:0:0:
292,184,40339,5,0,0:0:0:0:
256,24,40539,1,6,0:0:0:0:
220,184,40739,1,0,0:0:0:0:
256,312,40939,1,8,0:0:0:0:
356,212,41139,1,0,0:0:0:0:
256,116,41339,1,2,0:0:0:0:
155,214,41539,1,0,0:0:0:0:
256,312,41739,1,8,0:0:0:0:
356,212,41939,1,0,0:0:0:0:
256,116,42139,5,2,0:0:0:0:
168,104,42339,2,0,L|84:96,1,80.9999975280763,0|8,0:0|0:0,0:0:0:0:
218,177,42739,1,2,0:0:0:0:
218,177,42839,1,0,0:0:0:0:
218,177,42939,2,0,P|258:109|222:33,1,161.999995056153,2|8,0:0|0:0,0:0:0:0:
96,192,43539,5,0,0:0:0:0:
29,334,43739,1,2,0:0:0:0:
168,258,43939,1,0,0:0:0:0:
11,239,44139,1,8,0:0:0:0:
125,346,44339,1,2,0:0:0:0:
96,192,44539,1,0,0:0:0:0:
56,96,44739,1,0,0:0:0:0:
152,52,44939,1,8,0:0:0:0:
193,149,45139,1,0,0:0:0:0:
96,192,45339,5,2,0:0:0:0:
56,96,45539,2,0,L|16:4,1,80.9999975280763,0|8,0:0|0:0,0:0:0:0:
152,52,45939,1,2,0:0:0:0:
152,52,46039,1,0,0:0:0:0:
152,52,46139,1,0,0:0:0:0:
193,149,46339,2,0,P|232:160|272:152,1,80.9999975280763,2|8,0:0|0:0,0:0:0:0:
232,52,46739,1,8,0:0:0:0:
232,52,46839,1,8,0:0:0:0:
232,52,46939,2,0,L|232:232,1,161.999995056153,2|8,0:0|0:0,0:0:0:0:
232,368,47539,5,2,0:0:0:0:
232,368,47639,1,0,0:0:0:0:
232,368,47739,1,0,0:0:0:0:
320,356,47939,1,0,0:0:0:0:
372,284,48139,1,8,0:0:0:0:
380,196,48339,1,0,0:0:0:0:
372,284,48539,2,0,P|440:264|464:176,1,161.999995056153,2|8,0:0|0:0,0:0:0:0:
412,28,49139,5,2,0:0:0:0:
412,28,49239,1,0,0:0:0:0:
412,28,49339,1,0,0:0:0:0:
312,108,49539,2,0,L|296:152,1,40.4999987640381,0|0,0:0|0:0,0:0:0:0:
236,104,49739,2,0,L|202:137,1,40.4999987640381,8|0,0:0|0:0,0:0:0:0:
164,72,49939,2,0,L|120:88,1,40.4999987640381,0|0,0:0|0:0,0:0:0:0:
52,116,50139,6,0,P|16:176|88:176,1,161.999995056153,6|8,0:0|0:0,0:0:0:0:
236,104,50739,1,0,0:0:0:0:
236,104,50839,1,0,0:0:0:0:
236,104,50939,2,0,P|303:114|266:172,1,161.999995056153,2|8,0:0|0:0,0:0:0:0:
84,184,51539,1,2,0:0:0:0:
164,72,51739,2,0,P|220:24|308:24,1,161.999995056153,2|8,0:0|0:0,0:0:0:0:
464,152,52339,5,0,0:0:0:0:
340,200,52539,1,2,0:0:0:0:
468,178,52739,1,0,0:0:0:0:
335,173,52939,1,8,0:0:0:0:
472,212,53139,1,8,0:0:0:0:
472,212,53239,1,8,0:0:0:0:
472,212,53339,6,0,P|472:252|448:288,1,80.9999975280763,6|0,0:0|0:0,0:0:0:0:
340,320,53739,1,8,0:0:0:0:
236,268,53939,2,0,P|196:260|156:272,2,80.9999975280763,0|2|0,0:0|0:0|0:0,0:0:0:0:
340,320,54539,2,0,P|352:280|344:236,1,80.9999975280763,8|0,0:0|0:0,0:0:0:0:
200,340,54939,2,0,P|124:344|80:276,1,161.999995056153,6|0,0:0|0:0,0:0:0:0:
92,124,55539,5,0,0:0:0:0:
160,64,55739,1,2,0:0:0:0:
248,60,55939,2,0,L|300:44,1,40.4999987640381,0|0,1:0|1:0,0:0:0:0:
312,116,56139,2,0,L|365:123,1,40.4999987640381,8|0,0:0|1:0,0:0:0:0:
364,192,56339,2,0,L|409:221,1,40.4999987640381,0|0,1:0|1:0,0:0:0:0:
412,292,56539,5,6,0:0:0:0:
256,300,56739,1,0,0:0:0:0:
364,192,56939,1,8,0:0:0:0:
297,367,57139,1,0,0:0:0:0:
297,367,57239,1,0,0:0:0:0:
297,367,57339,2,0,P|245:379|197:347,1,90,2|0,0:0|0:0,0:0:0:0:
144,252,57739,1,8,0:0:0:0:
256,96,57939,5,0,0:0:0:0:
256,96,58039,1,0,0:0:0:0:
256,96,58139,2,0,L|348:72,1,90,2|0,0:0|0:0,0:0:0:0:
248,184,58539,2,0,P|188:152|172:76,1,135,8|0,0:0|0:0,0:0:0:0:
140,20,58939,2,0,P|112:36|90:64,1,45,2|0,0:0|0:0,0:0:0:0:
56,104,59139,1,0,0:0:0:0:
24,224,59339,1,8,0:0:0:0:
36,352,59539,5,0,0:0:0:0:
36,352,59639,1,0,0:0:0:0:
36,352,59739,2,0,B|132:323|72:264|168:230,1,180,2|8,0:0|0:0,0:0:0:0:
352,232,60339,1,0,0:0:0:0:
352,232,60439,1,0,0:0:0:0:
352,232,60539,2,0,B|440:263|381:322|477:350,2,180,2|8|2,0:0|0:0|0:0,0:0:0:0:
256,168,61539,2,0,P|228:136|224:84,1,90,2|8,0:0|0:0,0:0:0:0:
400,32,61939,6,0,L|444:20,1,45,2|0,0:0|1:0,0:0:0:0:
400,108,62139,2,0,L|356:120,1,45,8|0,0:0|1:0,0:0:0:0:
400,188,62339,2,0,L|444:176,1,45,0|0,1:0|1:0,0:0:0:0:
400,264,62539,2,0,L|356:276,1,45,8|0,0:0|1:0,0:0:0:0:
284,292,62739,1,0,1:0:0:0:
284,292,62839,1,0,1:0:0:0:
284,292,62939,5,6,0:0:0:0:
128,332,63139,1,0,0:0:0:0:
172,176,63339,1,8,0:0:0:0:
284,292,63539,2,0,L|304:344,1,45
372,320,63739,2,0,L|392:372,2,45,2|0|0,0:0|0:0|0:0,0:0:0:0:
320,168,64139,1,8,0:0:0:0:
176,64,64339,1,0,0:0:0:0:
106,226,64539,6,0,P|150:210|174:174,1,90,2|0,0:0|0:0,0:0:0:0:
20,232,64939,2,0,P|48:292|120:312,1,135,8|0,0:0|0:0,0:0:0:0:
184,312,65339,2,0,L|232:308,2,45,2|0|0,0:0|0:0|0:0,0:0:0:0:
292,368,65739,2,0,P|312:304|280:240,1,135,8|0,0:0|0:0,0:0:0:0:
216,208,66139,6,0,P|301:203|352:128,1,180,6|8,0:0|0:0,0:0:0:0:
284,24,66739,1,0,0:0:0:0:
284,24,66839,1,0,0:0:0:0:
284,24,66939,2,0,P|198:28|148:104,1,180,2|8,0:0|0:0,0:0:0:0:
88,220,67539,2,0,L|68:272,2,45,0|0|2,0:0|0:0|0:0,0:0:0:0:
12,312,67939,2,0,P|44:336|104:332,1,90,2|8,0:0|0:0,0:0:0:0:
256,268,68339,6,0,L|276:228,1,45,2|0,0:0|1:0,0:0:0:0:
352,216,68539,2,0,L|337:173,1,45,8|0,0:0|1:0,0:0:0:0:
384,112,68739,1,0,1:0:0:0:
384,112,68839,1,0,1:0:0:0:
384,112,68939,2,0,L|344:91,1,45,8|0,0:0|1:0,0:0:0:0:
320,20,69139,2,0,L|277:34,1,45,0|0,1:0|1:0,0:0:0:0:
204,64,69339,2,0,P|116:80|52:8,1,180,6|8,0:0|0:0,0:0:0:0:
48,152,69939,6,0,L|60:220,1,45,2|0,0:0|0:0,0:0:0:0:
80,268,70139,2,0,P|124:280|176:264,2,90,0|0|8,0:0|0:0|0:0,0:0:0:0:
176,160,70739,1,0,0:0:0:0:
176,160,70839,1,0,0:0:0:0:
176,160,70939,2,0,P|256:128|343:164,1,180,2|8,0:0|0:0,0:0:0:0:
424,336,71539,6,0,L|376:348,1,45,2|0,0:0|0:0,0:0:0:0:
308,368,71739,1,0,0:0:0:0:
308,368,71839,2,0,P|264:364|228:328,1,90
231,334,72139,1,8,0:0:0:0:
176,160,72339,1,0,0:0:0:0:
176,160,72439,1,0,0:0:0:0:
176,160,72539,2,0,P|220:164|256:200,1,90,2|0,0:0|0:0,0:0:0:0:
308,368,72939,5,8,0:0:0:0:
424,336,73139,2,0,L|440:268,1,45,0|0,0:0|0:0,0:0:0:0:
372,244,73339,2,0,L|388:176,2,45,2|0|0,0:0|0:0|0:0,0:0:0:0:
308,368,73739,1,8,0:0:0:0:
236,252,73939,1,0,0:0:0:0:
236,252,74039,1,0,0:0:0:0:
236,252,74139,1,2,0:0:0:0:
372,244,74339,2,0,P|416:228|472:244,1,90,2|8,0:0|0:0,0:0:0:0:
308,368,74739,5,2,0:0:0:0:
263,375,74839,1,0,0:0:0:0:
223,358,74939,1,8,0:0:0:0:
197,322,75039,1,0,0:0:0:0:
171,285,75139,1,0,0:0:0:0:
135,259,75239,1,0,0:0:0:0:
91,252,75339,1,8,0:0:0:0:
48,265,75439,1,0,0:0:0:0:
18,298,75539,1,0,0:0:0:0:
11,341,75639,1,0,0:0:0:0:
40,376,75739,6,0,P|88:380|124:352,1,90,6|0,0:0|0:0,0:0:0:0:
196,208,76139,1,8,0:0:0:0:
304,80,76339,2,0,P|340:55|384:60,2,90,0|2|0,0:0|0:0|0:0,0:0:0:0:
196,208,76939,2,0,L|160:248,1,45,8|0,0:0|1:0,0:0:0:0:
212,304,77139,2,0,L|242:270,1,45,0|0,1:0|1:0,0:0:0:0:
272,200,77339,6,0,P|248:152|216:136,1,90,6|0,0:0|0:0,0:0:0:0:
96,172,77739,2,0,P|48:148|32:116,1,90,8|0,0:0|0:0,0:0:0:0:
140,56,78139,5,0,0:0:0:0:
140,56,78339,1,0,0:0:0:0:
140,56,78539,2,0,B|204:88|204:32|276:64,1,135.000005149842,0|6,0:0|0:0,0:0:0:0:
53,148,91539,5,0,0:0:0:0:
9,55,91739,1,6,0:0:0:0:
104,12,91939,1,0,0:0:0:0:
147,105,92139,1,0,0:0:0:0:
148,208,92339,1,0,0:0:0:0:
102,301,92539,1,2,0:0:0:0:
177,372,92739,1,0,0:0:0:0:
268,324,92939,1,0,0:0:0:0:
250,222,93139,1,0,0:0:0:0:
148,208,93339,5,2,0:0:0:0:
48,176,93539,2,0,P|28:140|36:88,1,80.9999975280763
112,36,93939,1,0,0:0:0:0:
112,36,94139,2,0,B|192:16|192:72|276:32,1,161.999995056153,2|8,0:0|0:0,0:0:0:0:
420,20,94739,5,0,0:0:0:0:
509,75,94939,1,2,0:0:0:0:
416,125,95139,1,0,0:0:0:0:
332,189,95339,1,0,0:0:0:0:
431,228,95539,1,0,0:0:0:0:
416,125,95739,1,2,0:0:0:0:
316,84,95939,1,0,0:0:0:0:
332,189,96139,1,0,0:0:0:0:
416,125,96339,1,0,0:0:0:0:
316,84,96539,5,2,0:0:0:0:
216,48,96739,2,0,P|176:40|128:52,1,80.9999975280763
52,108,97139,2,0,P|36:72|36:28,1,80.9999975280763,0|2,0:0|0:0,0:0:0:0:
176,120,97539,2,0,L|176:208,1,80.9999975280763,0|8,0:0|0:0,0:0:0:0:
108,340,97939,1,0,0:0:0:0:
108,340,98039,1,0,0:0:0:0:
108,340,98139,2,0,P|180:372|252:336,1,161.999995056153,2|0,0:0|0:0,0:0:0:0:
316,152,98739,5,0,0:0:0:0:
432,84,98939,1,2,0:0:0:0:
328,72,99139,1,0,0:0:0:0:
422,166,99339,1,0,0:0:0:0:
316,152,99539,1,0,0:0:0:0:
316,152,99639,1,0,0:0:0:0:
316,152,99739,2,0,P|236:152|168:200,1,161.999995056153,2|0,0:0|0:0,0:0:0:0:
256,368,100339,6,0,L|280:316,1,40.4999987640381,2|0,0:0|1:0,0:0:0:0:
344,312,100539,2,0,L|327:275,1,40.4999987640381,8|0,0:0|1:0,0:0:0:0:
256,248,100739,2,0,L|280:196,1,40.4999987640381,0|0,1:0|1:0,0:0:0:0:
344,192,100939,2,0,L|327:155,1,40.4999987640381,8|0,0:0|1:0,0:0:0:0:
256,136,101139,2,0,L|280:84,1,40.4999987640381,0|0,1:0|1:0,0:0:0:0:
343,73,101339,6,0,P|280:24|207:65,1,161.999995056153,6|8,0:0|0:0,0:0:0:0:
186,169,101939,1,0,0:0:0:0:
186,169,102039,1,0,0:0:0:0:
186,169,102139,2,0,P|249:218|322:177,1,161.999995056153,2|8,0:0|0:0,0:0:0:0:
84,88,102939,2,0,P|33:144|40:228,1,161.999995056153,2|8,0:0|0:0,0:0:0:0:
168,312,103539,5,0,0:0:0:0:
260,360,103739,1,2,0:0:0:0:
364,352,103939,1,0,0:0:0:0:
440,280,104139,1,8,0:0:0:0:
472,180,104339,5,0,0:0:0:0:
472,180,104439,1,0,0:0:0:0:
472,180,104539,2,0,L|480:92,1,80.9999975280763,6|0,0:0|0:0,0:0:0:0:
404,28,104939,1,8,0:0:0:0:
332,104,105139,2,0,P|292:112|244:100,2,80.9999975280763,0|2|0,0:0|0:0|0:0,0:0:0:0:
292,20,105739,1,8,0:0:0:0:
300,192,105939,1,0,0:0:0:0:
300,192,106039,1,0,0:0:0:0:
300,192,106139,2,0,P|340:192|392:176,2,80.9999975280763,2|0|0,0:0|0:0|0:0,0:0:0:0:
196,220,106739,5,0,0:0:0:0:
188,252,106939,1,2,0:0:0:0:
164,272,107139,1,0,0:0:0:0:
132,280,107339,1,8,0:0:0:0:
100,272,107539,1,0,0:0:0:0:
20,148,107739,5,6,0:0:0:0:
176,52,107939,1,0,0:0:0:0:
88,208,108139,1,8,0:0:0:0:
220,128,108339,1,0,0:0:0:0:
220,128,108439,1,0,0:0:0:0:
220,128,108539,2,0,P|272:116|320:148,1,90,2|0,0:0|0:0,0:0:0:0:
396,232,108939,1,8,0:0:0:0:
260,196,109139,1,0,0:0:0:0:
398,210,109339,5,2,0:0:0:0:
257,217,109539,1,0,0:0:0:0:
344,64,109739,2,0,P|404:44|476:72,1,135,8|0,0:0|0:0,0:0:0:0:
488,136,110139,2,0,L|492:192,1,45,2|0,0:0|0:0,0:0:0:0:
500,252,110339,1,0,0:0:0:0:
440,364,110539,1,8,0:0:0:0:
348,264,110739,5,0,0:0:0:0:
348,264,110839,1,0,0:0:0:0:
348,264,110939,2,0,P|320:184|344:88,1,180,2|8,0:0|0:0,0:0:0:0:
172,96,111539,1,0,0:0:0:0:
172,96,111639,1,0,0:0:0:0:
172,96,111739,2,0,P|192:182|164:266,2,180,2|8|2,0:0|0:0|0:0,0:0:0:0:
60,92,112739,2,0,P|48:152|64:192,1,90,2|8,0:0|0:0,0:0:0:0:
256,256,113139,6,0,L|300:244,1,45,2|0,0:0|1:0,0:0:0:0:
360,288,113339,2,0,L|383:248,1,45,8|0,0:0|1:0,0:0:0:0:
456,232,113539,2,0,L|444:187,1,45,0|0,1:0|1:0,0:0:0:0:
476,120,113739,2,0,L|436:96,1,45,8|0,0:0|1:0,0:0:0:0:
408,28,113939,2,0,L|363:39,1,45,0|0,1:0|1:0,0:0:0:0:
292,56,114139,5,6,0:0:0:0:
156,76,114339,1,0,0:0:0:0:
240,184,114539,1,8,0:0:0:0:
292,56,114739,2,0,L|336:44,1,45
388,100,114939,2,0,L|432:88,2,45,2|0|0,0:0|0:0|0:0,0:0:0:0:
232,108,115339,1,8,0:0:0:0:
212,260,115539,1,0,0:0:0:0:
356,200,115739,6,0,P|400:184|444:196,1,90,2|0,0:0|0:0,0:0:0:0:
308,268,116139,2,0,P|276:220|296:144,1,135,8|0,0:0|0:0,0:0:0:0:
352,104,116539,2,0,L|388:72,2,45,2|0|0,0:0|0:0|0:0,0:0:0:0:
212,260,116939,2,0,P|156:256|104:196,1,135,8|0,0:0|0:0,0:0:0:0:
96,128,117339,6,0,L|76:320,1,180,6|8,0:0|0:0,0:0:0:0:
432,304,117939,1,0,0:0:0:0:
432,304,118039,1,0,0:0:0:0:
432,304,118139,2,0,L|413:124,1,180,2|8,0:0|0:0,0:0:0:0:
256,64,118739,2,0,L|256:12,2,45,0|0|2,0:0|0:0|0:0,0:0:0:0:
256,164,119139,2,0,L|256:260,1,90,2|8,0:0|0:0,0:0:0:0:
196,356,119539,6,0,L|152:344,1,45,2|0,0:0|1:0,0:0:0:0:
88,280,119739,2,0,L|132:268,1,45,8|0,0:0|1:0,0:0:0:0:
204,212,119939,2,0,L|160:200,1,45,0|0,1:0|1:0,0:0:0:0:
96,136,120139,2,0,L|140:124,1,45,8|0,0:0|1:0,0:0:0:0:
212,68,120339,2,0,L|168:56,1,45,0|0,1:0|1:0,0:0:0:0:
212,68,120539,2,0,P|296:84|356:12,1,180,6|8,0:0|0:0,0:0:0:0:
384,156,121139,6,0,L|396:224,1,45
408,272,121339,2,0,P|360:284|312:272,2,90,2|0|8,0:0|0:0|0:0,0:0:0:0:
460,104,121939,1,0,0:0:0:0:
460,104,122039,1,0,0:0:0:0:
460,104,122139,2,0,P|380:64|304:116,1,180,2|8,0:0|0:0,0:0:0:0:
256,232,122739,6,0,L|248:276,1,45,2|0,0:0|0:0,0:0:0:0:
264,348,122939,1,0,0:0:0:0:
264,348,123039,2,0,P|220:344|184:308,1,90
187,314,123339,1,8,0:0:0:0:
244,152,123539,1,0,0:0:0:0:
244,152,123639,1,0,0:0:0:0:
244,152,123739,2,0,P|288:156|324:192,1,90,2|0,0:0|0:0,0:0:0:0:
376,352,124139,5,8,0:0:0:0:
464,272,124339,2,0,L|480:204,1,45,0|0,0:0|0:0,0:0:0:0:
412,192,124539,2,0,L|428:124,2,45,2|0|0,0:0|0:0|0:0,0:0:0:0:
376,352,124939,1,8,0:0:0:0:
256,236,125139,1,0,0:0:0:0:
256,236,125239,1,0,0:0:0:0:
256,236,125339,1,2,0:0:0:0:
136,352,125539,2,0,P|80:352|44:328,1,90,2|8,0:0|0:0,0:0:0:0:
24,184,125939,5,0,1:0:0:0:
33,140,126039,1,0,1:0:0:0:
67,112,126139,1,8,0:0:0:0:
110,102,126239,1,0,1:0:0:0:
154,110,126339,1,0,1:0:0:0:
193,132,126439,1,0,1:0:0:0:
228,161,126539,1,8,0:0:0:0:
265,186,126639,1,0,1:0:0:0:
309,189,126739,1,0,1:0:0:0:
346,165,126839,1,0,1:0:0:0:
367,126,126939,6,0,L|380:24,1,90,6|0,0:0|0:0,0:0:0:0:
292,108,127339,1,8,0:0:0:0:
268,280,127539,2,0,L|257:369,2,90,0|2|0,0:0|0:0|0:0,0:0:0:0:
292,108,128139,2,0,L|296:56,1,45,8|0,0:0|1:0,0:0:0:0:
224,32,128339,2,0,L|220:84,1,45,0|0,1:0|1:0,0:0:0:0:
210,148,128539,6,0,P|170:132|150:92,1,90,6|0,0:0|0:0,0:0:0:0:
292,108,128939,2,0,L|396:112,1,90,8|0,0:0|0:0,0:0:0:0:
500,120,129339,5,0,0:0:0:0:
500,120,129539,1,0,0:0:0:0:
500,120,129739,2,0,B|504:172|484:192|484:192|484:256,1,135.000005149842,0|6,0:0|0:0,0:0:0:0:
256,192,130239,12,4,133339,0:0:0:0:
215,247,143539,5,0,0:0:0:0:
190,170,143739,1,0,0:0:0:0:
256,123,143939,1,0,0:0:0:0:
321,170,144139,1,0,0:0:0:0:
296,247,144339,1,0,0:0:0:0:
216,248,144539,5,2,0:0:0:0:
135,248,144739,1,0,0:0:0:0:
110,325,144939,1,0,0:0:0:0:
175,372,145139,1,0,0:0:0:0:
241,325,145339,2,0,P|276:324|308:340,1,67.5000025749208
480,344,145739,5,0,0:0:0:0:
509,268,145939,1,0,0:0:0:0:
434,237,146139,1,2,0:0:0:0:
403,313,146339,1,0,0:0:0:0:
332,356,146539,2,0,P|299:357|264:344,1,67.5000025749208
116,232,146939,5,2,0:0:0:0:
57,176,147139,1,0,0:0:0:0:
111,115,147339,1,0,0:0:0:0:
172,172,147539,1,0,0:0:0:0:
256,296,147739,6,0,P|320:324|388:292,1,135.000005149842,2|0,0:0|0:0,0:0:0:0:
320,240,148339,1,0,0:0:0:0:
244,203,148539,2,0,P|318:111|392:204,1,270.000010299683,0|2,0:0|0:0,0:0:0:0:
392,202,149939,5,0,0:0:0:0:
412,124,150139,2,0,L|424:48,1,67.5000025749208,2|0,0:0|0:0,0:0:0:0:
344,80,150539,1,0,0:0:0:0:
264,88,150739,1,0,0:0:0:0:
204,36,150939,5,2,0:0:0:0:
264,88,151139,1,0,0:0:0:0:
188,116,151339,1,0,0:0:0:0:
204,36,151539,1,0,0:0:0:0:
264,88,151739,2,0,L|280:164,1,67.5000025749208,2|0,0:0|0:0,0:0:0:0:
320,336,152139,5,0,0:0:0:0:
244,364,152339,1,0,0:0:0:0:
164,348,152539,2,0,L|112:296,1,67.5000025749208,2|0,0:0|0:0,0:0:0:0:
116,196,152939,2,0,L|172:140,1,67.5000025749208
248,88,153339,2,0,L|300:140,1,67.5000025749208,2|0,0:0|0:0,0:0:0:0:
296,240,153739,2,0,L|240:296,1,67.5000025749208,2|0,0:0|0:0,0:0:0:0:
56,360,154139,6,0,P|32:296|52:212,1,135.000005149842,2|0,0:0|0:0,0:0:0:0:
116,196,154739,1,0,0:0:0:0:
188,232,154939,2,0,B|260:256|280:160|280:160|328:244|392:208,1,270.000010299683,0|2,0:0|0:0,0:0:0:0:
386,210,156339,5,2,0:0:0:0:
436,128,156539,2,0,P|480:188|448:284,1,161.999995056153,2|0,0:0|0:0,0:0:0:0:
387,211,157139,1,0,0:0:0:0:
336,128,157339,2,0,P|291:192|309:268,1,161.999995056153,2|8,0:0|0:0,0:0:0:0:
384,64,157939,5,0,0:0:0:0:
384,64,158139,2,0,P|288:48|228:72,1,161.999995056153,2|8,0:0|0:0,0:0:0:0:
96,204,158739,1,0,0:0:0:0:
96,204,158939,2,0,P|192:220|252:196,1,161.999995056153,2|8,0:0|0:0,0:0:0:0:
384,64,159539,5,0,0:0:0:0:
440,144,159739,2,0,P|448:184|440:228,1,80.9999975280763,2|0,0:0|0:0,0:0:0:0:
384,300,160139,1,8,0:0:0:0:
324,224,160339,2,0,P|317:184|325:144,2,80.9999975280763,0|2|0,0:0|0:0|0:0,0:0:0:0:
384,300,160939,5,8,0:0:0:0:
288,316,161139,2,0,L|208:330,2,80.9999975280763,0|2|0,0:0|0:0|0:0,0:0:0:0:
384,300,161739,1,8,0:0:0:0:
456,236,161939,1,0,0:0:0:0:
476,140,162139,2,0,B|472:72|424:40|368:48|368:48|344:88|352:116|376:144,2,242.999992584229,2|2|8,0:0|0:0|0:0,0:0:0:0:
456,236,163539,5,0,0:0:0:0:
384,300,163739,2,0,P|344:312|296:292,1,80.9999975280763,2|0,0:0|0:0,0:0:0:0:
256,220,164139,1,8,0:0:0:0:
204,301,164339,2,0,P|166:311|128:300,2,80.9999975280763,0|2|0,0:0|0:0|0:0,0:0:0:0:
256,220,164939,1,8,0:0:0:0:
256,124,165139,1,0,0:0:0:0:
96,76,165339,5,6,0:0:0:0:
416,76,165739,1,6,0:0:0:0:
256,124,165939,5,0,0:0:0:0:
256,204,166139,2,0,L|256:256,3,33.7500012874604,8|0|0|0,0:0|1:0|1:0|1:0,0:0:0:0:
256,280,166539,1,12,0:0:0:0:
200,328,166739,1,0,0:0:0:0:
128,340,166939,1,0,0:0:0:0:
64,304,167139,1,0,0:0:0:0:
20,104,167339,5,12,0:0:0:0:
104,48,167539,1,0,0:0:0:0:
172,120,167739,2,0,P|212:124|264:92,1,90,2|0,0:0|0:0,0:0:0:0:
316,24,168139,1,8,0:0:0:0:
352,116,168339,5,0,0:0:0:0:
352,116,168439,1,0,0:0:0:0:
352,116,168539,1,2,0:0:0:0:
356,216,168739,1,0,0:0:0:0:
304,300,168939,2,0,B|256:348|256:348|224:324|180:336,1,135,8|0,0:0|0:0,0:0:0:0:
124,360,169339,2,0,L|100:312,1,45,2|0,0:0|0:0,0:0:0:0:
72,256,169539,1,0,0:0:0:0:
208,168,169739,1,8,0:0:0:0:
336,276,169939,5,0,0:0:0:0:
336,276,170039,1,0,0:0:0:0:
336,276,170139,2,0,P|256:312|174:281,1,180,2|8,0:0|0:0,0:0:0:0:
176,108,170739,1,0,0:0:0:0:
176,108,170839,1,0,0:0:0:0:
176,108,170939,2,0,P|256:72|338:103,2,180,2|8|2,0:0|0:0|0:0,0:0:0:0:
256,192,171939,2,0,L|352:192,1,90,2|8,0:0|0:0,0:0:0:0:
464,304,172339,6,0,L|400:296,1,45,2|0,0:0|1:0,0:0:0:0:
380,360,172539,2,0,L|332:316,1,45,8|0,0:0|1:0,0:0:0:0:
280,360,172739,2,0,L|265:297,1,45,0|0,1:0|1:0,0:0:0:0:
200,296,172939,2,0,L|224:236,1,45,8|0,0:0|1:0,0:0:0:0:
164,204,173139,2,0,L|218:168,1,45,0|0,1:0|1:0,0:0:0:0:
156,108,173339,5,6,0:0:0:0:
316,16,173539,1,0,0:0:0:0:
192,16,173739,1,8,0:0:0:0:
256,128,173939,2,0,L|288:172,1,45
244,228,174139,2,0,L|276:272,2,45,2|0|0,0:0|0:0|0:0,0:0:0:0:
160,100,174539,1,8,0:0:0:0:
92,236,174739,1,0,0:0:0:0:
244,228,174939,6,0,P|288:212|332:224,1,90,2|0,0:0|0:0,0:0:0:0:
345,342,175339,2,0,P|313:294|333:218,1,135,8|0,0:0|0:0,0:0:0:0:
388,276,175739,2,0,L|444:272,2,45,2|0|0,0:0|0:0|0:0,0:0:0:0:
216,292,176139,2,0,L|72:300,1,135,8|0,0:0|0:0,0:0:0:0:
104,368,176539,6,0,P|152:312|88:228,1,180,6|8,0:0|0:0,0:0:0:0:
24,104,177139,1,0,0:0:0:0:
24,104,177239,1,0,0:0:0:0:
24,104,177339,2,0,B|60:72|60:72|128:60|196:104,1,180,2|8,0:0|0:0,0:0:0:0:
320,248,177939,5,0,0:0:0:0:
456,184,178139,1,6,0:0:0:0:
312,140,178339,2,0,L|300:48,1,90,2|8,0:0|0:0,0:0:0:0:
248,204,178739,5,0,1:0:0:0:
283,230,178839,1,0,1:0:0:0:
327,238,178939,1,8,0:0:0:0:
370,225,179039,1,0,1:0:0:0:
402,194,179139,1,0,1:0:0:0:
416,151,179239,1,0,1:0:0:0:
409,107,179339,1,8,0:0:0:0:
384,71,179439,1,0,1:0:0:0:
344,50,179539,1,0,1:0:0:0:
300,50,179639,1,0,1:0:0:0:
260,80,179739,2,0,P|192:136|104:108,1,180,6|8,0:0|0:0,0:0:0:0:
20,20,180339,6,0,L|16:92,1,45
20,136,180539,2,0,P|36:176|80:200,2,90,2|0|8,0:0|0:0|0:0,0:0:0:0:
184,48,181139,1,0,0:0:0:0:
184,48,181239,1,0,0:0:0:0:
184,48,181339,2,0,P|264:8|340:60,1,180,2|8,0:0|0:0,0:0:0:0:
344,196,181939,6,0,L|336:240,1,45,2|0,0:0|0:0,0:0:0:0:
324,315,182139,1,0,0:0:0:0:
324,315,182239,2,0,P|368:311|404:275,1,90
401,281,182539,1,8,0:0:0:0:
356,120,182739,1,0,0:0:0:0:
356,120,182839,1,0,0:0:0:0:
356,120,182939,2,0,P|312:124|276:160,1,90,2|0,0:0|0:0,0:0:0:0:
260,364,183339,5,8,0:0:0:0:
172,316,183539,2,0,L|104:304,1,45,0|0,0:0|0:0,0:0:0:0:
104,240,183739,2,0,L|36:228,2,45,2|0|0,0:0|0:0|0:0,0:0:0:0:
256,268,184139,1,8,0:0:0:0:
200,144,184339,1,0,0:0:0:0:
200,144,184439,1,0,0:0:0:0:
200,144,184539,1,2,0:0:0:0:
104,240,184739,2,0,P|80:276|16:288,1,90,2|8,0:0|0:0,0:0:0:0:
16,124,185139,5,0,1:0:0:0:
52,97,185239,1,0,1:0:0:0:
96,91,185339,1,8,0:0:0:0:
138,104,185439,1,0,1:0:0:0:
177,127,185539,1,0,1:0:0:0:
217,147,185639,1,0,1:0:0:0:
261,146,185739,1,8,0:0:0:0:
290,113,185839,1,0,1:0:0:0:
288,69,185939,1,0,1:0:0:0:
256,40,186039,1,0,1:0:0:0:
212,43,186139,6,0,P|168:52|120:28,1,90,6|0,0:0|0:0,0:0:0:0:
16,20,186539,1,8,0:0:0:0:
40,132,186739,2,0,P|58:172|46:225,2,90,0|2|0,0:0|0:0|0:0,0:0:0:0:
136,156,187339,2,0,L|180:148,1,45,8|0,0:0|1:0,0:0:0:0:
216,212,187539,2,0,L|260:204,1,45,0|0,1:0|1:0,0:0:0:0:
320,160,187739,6,0,P|332:212|312:256,1,90,6|0,0:0|0:0,0:0:0:0:
200,108,188139,2,0,P|188:56|208:12,1,90,8|0,0:0|0:0,0:0:0:0:
408,156,188539,5,0,0:0:0:0:
408,156,188739,1,0,0:0:0:0:
408,156,188939,2,0,P|428:212|396:292,1,135.000005149842,0|2,0:0|0:0,0:0:0:0:
256,192,189439,12,0,194139,0:0:0:0:
