osu file format v13

[General]
AudioFilename: 1.mp3
AudioLeadIn: 1000
PreviewTime: 56439
Countdown: 0
SampleSet: Soft
StackLeniency: 0.4
Mode: 0
LetterboxInBreaks: 0
EpilepsyWarning: 1
WidescreenStoryboard: 1

[Editor]
DistanceSpacing: 1
BeatDivisor: 4
GridSize: 4
TimelineZoom: 1

[Metadata]
Title:Sentimental na Aiboshin
TitleUnicode:センチメンタルな愛慕心
Artist:Natsume Chiaki
ArtistUnicode:なつめ千秋
Creator:Natsu
Version:Easy
Source:
Tags:Love Heart GUMI vocaloid megpoid gero
BeatmapID:586443
BeatmapSetID:239374

[Difficulty]
HPDrainRate:2
CircleSize:3
OverallDifficulty:2
ApproachRate:3
SliderMultiplier:0.9
SliderTickRate:2

[Events]
//Background and Video events
0,0,"KSHRisMrdokidoki.jpg",0,0
//Break Periods
2,79139,90299
2,133539,142099
//Storyboard Layer 0 (Background)
//Storyboard Layer 1 (Fail)
//Storyboard Layer 2 (Pass)
//Storyboard Layer 3 (Foreground)
//Storyboard Sound Samples

[TimingPoints]
2139,400,4,2,2,30,1,0
2739,-100,4,2,1,50,0,0
13339,-100,4,2,1,55,0,0
38939,-100,4,2,1,50,0,0
40339,-100,4,2,1,55,0,0
50139,-100,4,2,1,60,0,0
56539,-100,4,2,1,80,0,1
56739,-100,4,2,1,65,0,1
78139,-100,4,2,1,55,0,1
78939,-100,4,2,1,80,0,0
91539,-100,4,2,1,55,0,0
101339,-100,4,2,1,60,0,0
106139,-100,4,2,1,50,0,0
107739,-100,4,2,1,80,0,1
107939,-100,4,2,1,65,0,1
129339,-100,4,2,1,50,0,1
130139,-100,4,2,1,80,0,0
130239,-100,4,2,1,55,0,0
143539,-100,4,2,1,50,0,0
156339,-100,4,2,1,55,0,0
157339,-100,4,2,1,57,0,0
165339,-100,4,2,1,60,0,0
165939,-100,4,2,1,55,0,0
167339,-100,4,2,1,80,0,1
167539,-100,4,2,1,65,0,1
188539,-100,4,2,1,45,0,1
189339,-100,4,2,1,50,0,0
189439,-100,4,2,1,30,0,0
191739,-100,4,2,1,20,0,0
194139,-100,4,2,1,10,0,0

[Colours]
Combo1 : 245,175,186
Combo2 : 240,175,245
Combo3 : 186,117,255
Combo4 : 233,88,211
Combo5 : 184,67,102
Combo6 : 233,171,141
Combo7 : 244,191,91

[HitObjects]
64,308,2139,6,0,P|148:324|208:252,1,180,6|2,0:0|0:0,0:0:0:0:
244,84,3739,2,0,P|288:44|372:68,1,135,2|2,0:0|0:0,0:0:0:0:
412,128,4739,1,2,0:0:0:0:
428,216,5139,6,0,L|440:356,1,135,2|0,0:0|0:0,0:0:0:0:
352,364,6139,2,0,L|344:268,1,90,2|0,0:0|0:0,0:0:0:0:
256,256,6939,2,0,L|248:160,2,90,2|0|2,0:0|0:0|0:0,0:0:0:0:
264,344,8139,1,0,0:0:0:0:
176,368,8539,6,0,P|104:372|52:324,2,135,6|2|8,0:0|0:0|0:0,0:0:0:0:
264,344,10139,2,0,P|336:340|388:388,2,135,2|2|8,0:0|0:0|0:0,0:0:0:0:
176,368,11739,6,0,L|160:260,1,90,2|8,0:0|0:0,0:0:0:0:
232,220,12539,2,0,L|216:112,1,90,2|8,0:0|0:0,0:0:0:0:
208,40,13339,1,6,0:0:0:0:
288,84,13739,2,0,P|332:84|380:56,2,90,8|4|8,3:0|3:0|0:0,0:0:0:0:
208,40,14939,6,0,P|136:24|76:72,2,135,6|2|8,0:0|0:0|0:0,0:0:0:0:
156,116,16539,2,0,L|184:252,1,135,2|2,0:0|0:0,0:0:0:0:
208,336,17539,1,2,0:0:0:0:
256,192,17939,12,2,19739,0:0:0:0:
256,192,21339,6,0,L|256:48,2,135,6|2|8,0:0|0:0|0:0,0:0:0:0:
256,284,22939,2,0,P|196:308|128:280,2,135,2|2|8,0:0|0:0|0:0,0:0:0:0:
336,240,24539,6,0,B|408:228|456:288|456:288|468:140,1,270,6|8,0:0|0:0,0:0:0:0:
376,140,26139,2,0,P|404:80|480:64,2,135,6|6|8,0:0|0:0|0:0,0:0:0:0:
372,232,27739,6,0,P|328:236|300:200,1,90,6|0,0:0|0:0,0:0:0:0:
211,203,28539,2,0,P|183:236|140:232,1,90,2|8,0:0|3:0,0:0:0:0:
76,168,29339,2,0,L|52:32,2,135,6|2|8,0:0|0:0|0:0,0:0:0:0:
100,256,30939,5,2,0:0:0:0:
180,300,31339,2,0,P|224:308|272:296,2,90,8|2|8,0:0|0:0|0:0,0:0:0:0:
223,219,32539,2,0,L|224:80,2,135,2|2|8,0:0|0:0|0:0,0:0:0:0:
304,260,34139,6,0,L|304:160,1,90,2|8,0:0|0:0,0:0:0:0:
388,136,34939,2,0,L|388:226,1,90,2|8,0:0|0:0,0:0:0:0:
384,316,35739,2,0,P|324:356|256:348,2,135,2|2|8,0:0|0:0|0:0,0:0:0:0:
304,272,37339,6,0,P|237:269|183:307,2,135,2|2|8,0:0|0:0|0:0,0:0:0:0:
384,316,38939,1,2,0:0:0:0:
408,228,39339,2,0,L|432:128,2,90,2|2|2,0:0|0:0|0:0,0:0:0:0:
384,316,40539,5,6,0:0:0:0:
296,324,40939,2,0,B|240:312|204:344|204:344|176:252,1,180,8|8,0:0|0:0,0:0:0:0:
144,184,42139,2,0,P|80:176|24:216,2,135,2|2|8,0:0|0:0|0:0,0:0:0:0:
232,192,43739,5,2,0:0:0:0:
252,104,44139,2,0,L|276:8,2,90,8|2|8,0:0|0:0|0:0,0:0:0:0:
232,192,45339,2,0,P|176:156|164:92,2,135,2|2|8,0:0|0:0|0:0,0:0:0:0:
320,180,46939,2,0,P|364:168|416:188,1,90,2|8,0:0|0:0,0:0:0:0:
408,272,47739,6,0,P|364:284|312:264,1,90,2|8,0:0|0:0,0:0:0:0:
244,224,48539,2,0,P|201:211|158:223,1,90,2|8,0:0|0:0,0:0:0:0:
80,272,49339,1,2,0:0:0:0:
160,312,49739,1,8,0:0:0:0:
159,224,50139,6,0,L|155:72,2,135,6|2|8,0:0|0:0|0:0,0:0:0:0:
244,248,51739,2,0,L|240:144,1,90,2|8,0:0|0:0,0:0:0:0:
324,120,52539,2,0,L|327:209,1,90,2|8,0:0|0:0,0:0:0:0:
320,300,53339,6,0,P|384:312|448:268,2,135,6|2|8,0:0|0:0|0:0,0:0:0:0:
240,260,54939,2,0,P|192:248|148:268,1,90,6|0,0:0|0:0,0:0:0:0:
4,40,56539,6,0,P|44:24|104:32,2,90,6|8|2,0:0|0:0|0:0,0:0:0:0:
60,112,57739,1,8,0:0:0:0:
136,160,58139,2,0,L|228:148,1,90,2|8,0:0|0:0,0:0:0:0:
308,184,58939,2,0,L|400:172,1,90,2|8,0:0|0:0,0:0:0:0:
424,260,59739,6,0,L|328:272,1,90,2|8,0:0|0:0,0:0:0:0:
244,256,60539,2,0,P|156:200|256:120,1,270,2|8,0:0|0:0,0:0:0:0:
328,168,62139,5,8,0:0:0:0:
332,80,62539,1,8,0:0:0:0:
256,36,62939,2,0,P|208:32|160:48,2,90,6|8|2,0:0|0:0|0:0,0:0:0:0:
332,80,64139,1,8,0:0:0:0:
392,148,64539,6,0,L|436:240,1,90,2|8,0:0|0:0,0:0:0:0:
376,300,65339,2,0,L|337:218,1,90,2|8,0:0|0:0,0:0:0:0:
248,220,66139,2,0,L|286:301,1,90,6|8,0:0|0:0,0:0:0:0:
220,364,66939,2,0,B|168:252|168:252|152:200|176:144|240:136,1,270,2|8,0:0|0:0,0:0:0:0:
320,144,68539,6,0,P|376:144|408:116,1,90,8|8,0:0|0:0,0:0:0:0:
376,40,69339,2,0,P|320:40|288:68,1,90,6|8,0:0|0:0,0:0:0:0:
240,132,70139,2,0,L|208:224,1,90,2|8,0:0|0:0,0:0:0:0:
184,304,70939,2,0,P|232:344|312:328,2,135,2|2|8,0:0|0:0|0:0,0:0:0:0:
124,236,72539,5,2,0:0:0:0:
80,156,72939,2,0,B|36:136|0:152|0:152|8:52,1,180,8|8,0:0|0:0,0:0:0:0:
92,28,74139,2,0,P|156:16|224:24,2,135,2|2|8,0:0|0:0|0:0,0:0:0:0:
92,118,75739,6,0,P|156:130|224:122,2,135,6|2|8,0:0|0:0|0:0,0:0:0:0:
12,76,77339,2,0,L|0:184,1,90,6|8,0:0|0:0,0:0:0:0:
88,200,78139,2,0,L|78:289,2,90,0|0|6,0:0|0:0|0:0,0:0:0:0:
68,152,91739,6,0,P|104:132|160:132,1,90,6|0,0:0|0:0,0:0:0:0:
228,180,92539,2,0,P|272:178|311:157,1,90,2|0,0:0|0:0,0:0:0:0:
401,169,93339,2,0,P|389:104|334:67,2,135,2|2|8,0:0|0:0|0:0,0:0:0:0:
348,244,94939,6,0,L|272:296,1,90,2|0,0:0|0:0,0:0:0:0:
196,248,95739,2,0,L|270:197,1,90,2|0,0:0|0:0,0:0:0:0:
344,144,96539,2,0,P|336:72|276:52,1,135,2|0,0:0|0:0,0:0:0:0:
196,52,97539,2,0,L|92:56,2,90,2|4|0,0:0|3:0|0:0,0:0:0:0:
220,140,98739,6,0,L|80:148,1,135,2|0,0:0|0:0,0:0:0:0:
52,232,99739,2,0,L|186:224,2,135,2|2|8,0:0|0:0|0:0,0:0:0:0:
7,154,101339,6,0,P|-4:111|3:68,1,90,6|8,0:0|0:0,0:0:0:0:
91,67,102139,2,0,P|98:112|88:156,2,90,2|8|2,0:0|0:0|0:0,0:0:0:0:
268,36,103739,2,0,L|368:16,1,90,2|8,0:0|0:0,0:0:0:0:
356,108,104539,6,0,L|492:72,2,135,6|2|8,0:0|0:0|0:0,0:0:0:0:
268,132,106139,1,2,0:0:0:0:
76,352,107739,6,0,P|32:364|-16:340,2,90,6|8|2,0:0|0:0|0:0,0:0:0:0:
124,276,108939,1,8,0:0:0:0:
192,216,109339,2,0,P|236:204|284:228,2,90,2|8|2,0:0|0:0|0:0,0:0:0:0:
124,276,110539,1,8,0:0:0:0:
104,188,110939,6,0,L|84:80,1,90,2|8,0:0|0:0,0:0:0:0:
72,12,111739,2,0,B|121:7|161:35|170:73|170:73|320:48,1,270,2|8,0:0|0:0,0:0:0:0:
396,28,113339,6,0,P|432:60|436:104,1,90,8|8,0:0|0:0,0:0:0:0:
400,184,114139,2,0,P|444:192|496:168,2,90,6|8|2,0:0|0:0|0:0,0:0:0:0:
340,116,115339,1,8,0:0:0:0:
264,68,115739,6,0,P|220:56|168:72,1,90,2|8,0:0|0:0,0:0:0:0:
132,144,116539,2,0,P|176:156|228:140,1,90,2|8,0:0|0:0,0:0:0:0:
264,68,117339,2,0,P|308:56|360:72,1,90,6|8,0:0|0:0,0:0:0:0:
388,148,118139,2,0,B|416:256|416:256|328:220|272:296,1,270,2|8,0:0|0:0,0:0:0:0:
208,352,119739,6,0,P|152:352|120:324,1,90,8|8,0:0|0:0,0:0:0:0:
104,244,120539,2,0,L|112:152,1,90,6|8,0:0|0:0,0:0:0:0:
124,64,121339,2,0,P|161:40|205:44,1,90,2|8,0:0|0:0,0:0:0:0:
284,88,122139,2,0,P|348:104|416:68,2,135,2|2|8,0:0|0:0|0:0,0:0:0:0:
204,44,123739,5,2,0:0:0:0:
180,132,124139,2,0,L|136:320,1,180,8|8,0:0|0:0,0:0:0:0:
68,252,125339,2,0,L|100:112,2,135,2|2|8,0:0|0:0|0:0,0:0:0:0:
52,340,126939,6,0,P|104:368|184:352,2,135,6|2|8,0:0|0:0|0:0,0:0:0:0:
124,288,128539,2,0,P|168:272|220:284,1,90,6|8,0:0|0:0,0:0:0:0:
280,332,129339,2,0,P|324:338|365:322,2,90,0|0|6,0:0|0:0|0:0,0:0:0:0:
256,192,130339,12,4,133339,0:0:0:0:
92,144,143539,6,0,P|140:104|208:140,1,135,0|0,0:0|0:0,0:0:0:0:
256,200,144539,2,0,L|256:304,2,90,2|0|0,0:0|0:0|0:0,0:0:0:0:
256,112,145739,5,0,0:0:0:0:
256,24,146139,2,0,P|304:36|332:68,1,90,2|0,0:0|0:0,0:0:0:0:
344,156,146939,2,0,P|375:187|418:196,1,90,2|0,0:0|0:0,0:0:0:0:
500,156,147739,2,0,P|500:240|424:288,2,180,2|0|2,0:0|0:0|0:0,0:0:0:0:
372,32,150139,6,0,P|316:36|300:76,1,90,2|0,0:0|0:0,0:0:0:0:
211,61,150939,2,0,P|183:28|140:32,2,90,2|0|2,0:0|0:0|0:0,0:0:0:0:
256,140,152139,5,0,0:0:0:0:
212,220,152539,2,0,P|196:264|220:312,1,90,2|0,0:0|0:0,0:0:0:0:
301,302,153339,2,0,P|316:261|300:220,1,90,2|2,0:0|0:0,0:0:0:0:
256,140,154139,2,0,P|212:100|280:32,2,180,2|0|2,0:0|0:0|0:0,0:0:0:0:
420,216,156539,6,0,L|488:292,1,90,2|0,0:0|0:0,0:0:0:0:
412,344,157339,2,0,L|344:268,1,90,2|8,0:0|0:0,0:0:0:0:
288,212,158139,2,0,P|220:196|164:228,2,135,2|2|8,0:0|0:0|0:0,0:0:0:0:
232,284,159739,6,0,P|196:308|140:308,2,90,2|8|2,0:0|0:0|0:0,0:0:0:0:
288,212,160939,2,0,P|380:196|444:260,1,180,8|8,0:0|0:0,0:0:0:0:
420,336,162139,2,0,P|328:352|264:288,1,180,2|2,0:0|0:0,0:0:0:0:
184,140,163739,2,0,L|120:16,2,135,2|2|8,0:0|0:0|0:0,0:0:0:0:
224,220,165339,5,6,0:0:0:0:
224,308,165739,2,0,P|292:276|300:176,1,180,6|12,0:0|0:0,0:0:0:0:
212,24,167339,6,0,P|167:17|124:29,2,90,12|2|8,0:0|0:0|0:0,0:0:0:0:
300,24,168539,2,0,P|344:17|387:29,2,90,2|8|2,0:0|0:0|0:0,0:0:0:0:
256,104,169739,1,8,0:0:0:0:
256,192,170139,6,0,L|256:292,1,90,2|8,0:0|0:0,0:0:0:0:
336,324,170939,2,0,P|248:372|172:248,1,270,2|8,0:0|0:0,0:0:0:0:
192,164,172539,6,0,L|200:56,1,90,2|8,0:0|0:0,0:0:0:0:
280,116,173339,2,0,L|286:26,2,90,6|8|2,0:0|0:0|0:0,0:0:0:0:
272,204,174539,1,8,0:0:0:0:
228,284,174939,6,0,P|272:296|324:280,1,90,2|8,0:0|0:0,0:0:0:0:
359,206,175739,2,0,P|315:194|263:210,1,90,2|8,0:0|0:0,0:0:0:0:
228,284,176539,2,0,L|188:368,1,90,6|8,0:0|0:0,0:0:0:0:
100,348,177339,2,0,L|138:266,1,90,2|8,0:0|0:0,0:0:0:0:
172,184,178139,6,0,P|116:156|40:172,2,135,6|0|8,0:0|1:0|0:0,0:0:0:0:
204,268,179739,2,0,L|212:360,1,90,6|8,0:0|0:0,0:0:0:0:
300,357,180539,2,0,L|308:268,1,90,2|8,0:0|0:0,0:0:0:0:
320,180,181339,2,0,P|384:164|452:200,2,135,2|2|8,0:0|0:0|0:0,0:0:0:0:
308,268,182939,5,2,0:0:0:0:
236,324,183339,2,0,P|152:344|88:272,1,180,8|8,0:0|0:0,0:0:0:0:
176,260,184539,2,0,L|208:120,2,135,2|2|8,0:0|0:0|0:0,0:0:0:0:
248,316,186139,6,0,L|280:176,2,135,6|2|8,0:0|0:0|0:0,0:0:0:0:
324,364,187739,2,0,P|370:361|413:330,1,90,6|8,0:0|0:0,0:0:0:0:
420,248,188539,2,0,P|457:224|502:223,2,90,0|0|2,0:0|0:0|0:0,0:0:0:0:
256,192,189539,12,0,194139,0:0:0:0:
