osu file format v12

[General]
AudioFilename: CAAHRH0C.mp3
AudioLeadIn: 0
PreviewTime: 71310
Countdown: 0
SampleSet: Soft
StackLeniency: 0.7
Mode: 0
LetterboxInBreaks: 1
WidescreenStoryboard: 1

[Editor]
DistanceSpacing: 0.8
BeatDivisor: 4
GridSize: 4

[Metadata]
Title:Hikarakuyo
TitleUnicode:飛花落葉
Artist:Natsume Chiaki
ArtistUnicode:なつめ千秋
Creator:rinsukir
Version:Normal
Source:
Tags:thousands of gifts megpoid gumi niconico douga vocaloid o_k_a_y_u okayu flying flowers falling leaves
BeatmapID:295852
BeatmapSetID:113813

[Difficulty]
HPDrainRate:4
CircleSize:3
OverallDifficulty:4
ApproachRate:4
SliderMultiplier:1.2
SliderTickRate:2

[Events]
//Background and Video events
0,0,"ochiba.png",0,0
//Break Periods
2,41320,42838
//Storyboard Layer 0 (Background)
//Storyboard Layer 1 (Fail)
//Storyboard Layer 2 (Pass)
//Storyboard Layer 3 (Foreground)
//Storyboard Sound Samples
//Background Colour Transformations
3,100,163,162,255

[TimingPoints]
1627,379.746835443038,4,2,2,50,1,0
7702,-100,4,2,2,80,0,0
12259,-100,4,2,1,90,0,0
13778,-100,4,2,1,100,0,1
24411,-100,4,2,1,100,0,0
25930,-100,4,2,1,100,0,1
35709,-100,4,2,3,100,0,1
35899,-100,4,2,1,100,0,1
36563,-100,4,2,1,100,0,0
38082,-100,4,2,2,85,0,1
38106,-100,4,2,2,85,0,0
69221,-100,4,2,3,85,0,0
69316,-100,4,2,2,85,0,0
69981,-100,4,2,1,85,0,0
71500,-100,4,2,1,100,0,1
82133,-100,4,2,1,100,0,0
83652,-100,4,2,1,100,0,1
93525,-100,4,2,3,100,0,1
93620,-100,4,2,1,100,0,1
94285,-100,4,2,1,100,0,0
95804,-100,4,2,1,100,0,1
95827,-100,4,2,1,100,0,0
98842,-100,4,2,2,20,0,0

[Colours]
Combo1 : 254,226,133
Combo2 : 89,89,255
Combo3 : 255,244,244
Combo4 : 255,117,117

[HitObjects]
192,28,1627,2,0,B|160:84|120:88|120:88|116:132|160:164,1,180,8|0,0:0|0:0,0:0:0:0:
296,188,2766,1,8,0:0:0:0:
376,132,3145,6,0,B|408:188|447:192|447:192|451:236|414:263,1,180,8|0,0:0|0:0,0:0:0:0:
300,344,4285,1,8,0:0:0:0:
208,324,4664,6,0,P|152:356|52:304,1,180,8|0,0:0|0:0,0:0:0:0:
52,164,5804,1,8,0:0:0:0:
0,84,6183,6,0,P|84:72|140:140,1,180,8|0,0:0|0:0,0:0:0:0:
188,276,7323,1,8,0:0:0:0:
276,308,7702,6,0,B|320:308|320:308|424:368|512:324,1,240,2|2,0:0|0:0,0:0:0:0:
488,232,8842,1,0,0:0:0:0:
488,232,9221,2,0,P|424:248|372:228,1,120,2|0,0:0|0:0,0:0:0:0:
432,152,9981,1,2,0:0:0:0:
336,152,10361,1,0,0:0:0:0:
288,236,10740,6,0,P|224:148|300:60,1,240,2|2,0:0|0:0,0:0:0:0:
392,60,11880,1,0,0:0:0:0:
392,60,12259,6,0,B|440:40|480:72|480:72|488:112|452:152,1,180,2|2,0:0|0:0,0:0:0:0:
392,284,13399,1,2,0:0:0:0:
300,260,13778,6,0,B|260:332|192:340|192:340|176:288|112:272,1,240,6|2,0:0|0:0,0:0:0:0:
52,208,14918,1,0,0:0:0:0:
120,140,15297,2,0,P|130:29|241:23,1,240,2|2,0:0|0:0,0:0:0:0:
328,60,16437,1,0,0:0:0:0:
416,96,16816,6,0,P|440:204|336:244,1,240,2|2,0:0|0:0,0:0:0:0:
244,232,17956,1,0,0:0:0:0:
152,256,18335,1,2,0:0:0:0:
68,212,18715,1,0,0:0:0:0:
40,120,19095,2,0,L|4:56,2,60,2|0|0,0:0|0:0|0:0,0:0:0:0:
136,120,19854,6,0,B|251:148|251:76|371:116,1,240,6|2,0:0|0:0,0:0:0:0:
460,288,21373,2,0,B|345:260|345:332|225:292,1,240,2|2,0:0|0:0,0:0:0:0:
72,176,22892,2,0,P|56:116|88:56,1,120,2|0,0:0|0:0,0:0:0:0:
176,56,23652,2,0,P|229:79|287:67,1,120,2|0,0:0|0:0,0:0:0:0:
376,104,24411,6,0,P|396:160|368:212,1,120,2|0,0:0|0:0,0:0:0:0:
304,280,25171,2,0,B|248:304|248:304|200:252|144:296|144:296|92:260,1,240,2|6,0:0|0:0,0:0:0:0:
32,188,26310,5,0,0:0:0:0:
36,92,26690,2,0,P|92:76|152:96,1,120,2|0,0:0|0:0,0:0:0:0:
236,140,27449,1,2,0:0:0:0:
308,204,27829,1,0,0:0:0:0:
336,296,28209,2,0,L|392:344,2,60,2|0|0,0:0|0:0|0:0,0:0:0:0:
254,346,28968,6,0,P|219:298|157:266,1,120,2|0,0:0|0:0,0:0:0:0:
81,223,29728,2,0,P|34:189|31:131,1,120,2|0,0:0|0:0,0:0:0:0:
72,44,30487,1,2,0:0:0:0:
168,48,30867,2,0,B|220:48|220:48|228:52|228:52|228:44|228:44|236:48|236:48|288:48,1,120,0|2,0:0|0:0,0:0:0:0:
412,184,32006,6,0,P|422:242|395:294,1,120,6|0,0:0|0:0,0:0:0:0:
320,356,32766,2,0,P|276:315|218:304,1,120,2|0,0:0|0:0,0:0:0:0:
144,244,33525,2,0,P|112:194|116:135,1,120,6|0,0:0|0:0,0:0:0:0:
164,52,34285,2,0,P|224:72|284:52,1,120,2|0,0:0|0:0,0:0:0:0:
372,56,35044,6,0,B|430:126|376:205|376:205|376:183|349:150|315:98|261:162|215:142|221:247|256:267|256:267|198:296,1,480,6|6,0:0|0:0,0:0:0:0:
27,332,37323,1,0,0:0:0:0:
256,192,38082,12,4,41120,0:0:0:0:
256,192,44158,12,2,46816,0:0:0:0:
280,152,47196,5,6,0:0:0:0:
348,220,47576,1,0,0:0:0:0:
284,292,47956,2,0,P|236:328|176:320,1,120,2|0,0:0|0:0,0:0:0:0:
92,284,48715,2,0,P|55:238|61:179,1,120,2|0,0:0|0:0,0:0:0:0:
96,88,49475,2,0,L|32:64,2,60,2|0|0,0:0|0:0|0:0,0:0:0:0:
192,84,50234,5,2,0:0:0:0:
288,68,50614,1,0,0:0:0:0:
380,100,50994,1,2,0:0:0:0:
440,176,51373,1,0,0:0:0:0:
376,248,51753,6,0,P|316:260|256:248,1,120,2|0,0:0|0:0,0:0:0:0:
172,208,52513,1,2,0:0:0:0:
144,116,52892,2,0,P|86:100|28:112,1,120,0|6,0:0|0:0,0:0:0:0:
0,204,53652,5,0,0:0:0:0:
30,295,54032,2,0,B|91:296|141:245,1,120,2|0,0:0|0:0,0:0:0:0:
200,176,54791,2,0,P|228:128|292:120,1,120,2|0,0:0|0:0,0:0:0:0:
384,136,55551,2,0,L|448:248,1,120,2|0,0:0|0:0,0:0:0:0:
500,316,56310,6,0,B|476:368|424:320|400:368,1,120,2|0,0:0|0:0,0:0:0:0:
304,368,57070,1,2,0:0:0:0:
224,316,57449,1,0,0:0:0:0:
184,228,57829,2,0,B|184:176|152:144|144:68|200:32|252:56|260:112|236:132|212:124,1,240,2|6,0:0|0:0,0:0:0:0:
328,136,58968,1,0,0:0:0:0:
424,136,59348,6,0,L|468:260,1,120,2|0,0:0|0:0,0:0:0:0:
496,340,60108,1,2,0:0:0:0:
400,356,60487,1,0,0:0:0:0:
328,292,60867,2,0,P|351:237|349:177,1,120,2|0,0:0|0:0,0:0:0:0:
264,136,61627,2,0,P|262:76|285:21,1,120,2|0,0:0|0:0,0:0:0:0:
380,28,62386,6,0,B|408:84|408:84|384:116|376:148|376:148|416:192|412:244,1,240,2|2,0:0|0:0,0:0:0:0:
416,340,63525,2,0,B|357:308|357:368|301:336,1,120,0|2,0:0|0:0,0:0:0:0:
224,280,64285,2,0,B|204:308|185:315|185:315|116:328,2,120,0|2|0,0:0|0:0|0:0,0:0:0:0:
140,224,65424,6,0,B|176:184|220:168|268:188|268:188|288:204|288:204|370:188,1,240,2|2,0:0|0:0,0:0:0:0:
452,176,66563,1,0,0:0:0:0:
400,96,66943,2,0,P|342:103|288:68,1,120,2|0,0:0|0:0,0:0:0:0:
212,16,67702,2,0,L|96:52,1,120,2|0,0:0|0:0,0:0:0:0:
20,108,68462,6,0,B|60:160|36:200|36:200|64:228|64:228|68:276|68:276|104:284|104:284|116:320|116:320|152:348|212:328,1,360,2|0,0:0|0:0,0:0:0:0:
260,248,69981,6,0,P|280:212|312:200,1,60,2|0,0:0|0:0,0:0:0:0:
388,232,70551,2,0,P|428:208|444:176,1,60,2|0,0:0|0:0,0:0:0:0:
360,136,71120,1,6,0:0:0:0:
276,88,71500,6,0,B|232:64|232:64|216:76|216:76|176:44|112:64,1,180,2|0,0:0|0:0,0:0:0:0:
72,92,72259,2,0,P|37:142|54:197,1,120,2|0,0:0|0:0,0:0:0:0:
88,284,73019,6,0,B|122:320|122:320|141:313|141:313|169:356|236:357,1,180,2|0,0:0|0:0,0:0:0:0:
280,340,73778,2,0,P|328:303|329:245,1,120,2|0,0:0|0:0,0:0:0:0:
292,160,74538,6,0,P|328:92|196:60,1,240,2|2,0:0|0:0,0:0:0:0:
128,96,75677,1,0,0:0:0:0:
88,184,76057,2,0,B|222:202|161:286|294:294,1,240,2|2,0:0|0:0,2:0:0:0:
388,304,77196,5,0,0:0:0:0:
420,212,77576,2,0,P|476:200|496:144,1,120,6|0,0:0|0:0,0:0:0:0:
408,116,78335,1,2,0:0:0:0:
332,56,78715,5,0,0:0:0:0:
236,48,79095,2,0,B|176:48|176:48|136:100,1,120,6|0,0:0|0:0,0:0:0:0:
96,180,79854,1,2,0:0:0:0:
120,272,80234,1,0,0:0:0:0:
212,248,80614,6,0,B|240:280|240:280|252:324|284:352|332:348|360:320|360:320|401:311,1,240,6|2,0:0|0:0,0:0:0:0:
480,256,81753,1,0,0:0:0:0:
464,160,82133,2,0,L|360:64,1,120,2|0,0:0|0:0,0:0:0:0:
288,44,82892,1,2,0:0:0:0:
196,72,83272,1,0,0:0:0:0:
192,168,83652,6,0,B|164:160|164:160|152:176|152:176|88:144|32:208,1,180,6|0,0:0|0:0,0:0:0:0:
24,252,84411,1,2,0:0:0:0:
84,328,84791,1,0,0:0:0:0:
180,316,85171,6,8,B|186:344|186:344|209:336|209:336|267:387|323:330,1,180,2|0,0:0|0:0,0:0:0:0:
360,308,85930,1,2,0:0:0:0:
440,256,86310,1,0,0:0:0:0:
464,164,86690,6,0,P|471:107|424:73,1,120,2|0,0:0|0:0,0:0:0:0:
328,68,87449,1,2,0:0:0:0:
240,104,87829,1,0,0:0:0:0:
172,168,88209,2,0,P|121:139|71:168,1,120,2|0,0:0|0:0,0:0:0:0:
52,264,88968,2,0,L|181:264,1,120,2|0,0:0|0:0,0:0:0:0:
260,308,89728,6,0,P|340:308|376:288,1,120,6|0,0:0|0:0,0:0:0:0:
440,220,90487,2,0,P|432:144|404:96,1,120,2|0,0:0|0:0,0:0:0:0:
344,40,91247,2,0,P|287:57|228:49,1,120,6|0,0:0|0:0,0:0:0:0:
144,96,92006,2,0,P|104:148|116:216,1,120,2|0,0:0|0:0,0:0:0:0:
156,284,92766,6,0,B|216:316|216:316|256:270|330:230|375:305|384:368|384:368|463:329|481:276|451:224,1,480,6|6,0:0|0:0,0:0:0:0:
348,76,95044,1,0,0:0:0:0:
256,192,95804,12,4,98842,0:0:0:0:
