osu file format v12

[General]
AudioFilename: CAAHRH0C.mp3
AudioLeadIn: 0
PreviewTime: 71310
Countdown: 0
SampleSet: Soft
StackLeniency: 0.7
Mode: 0
LetterboxInBreaks: 1
WidescreenStoryboard: 1

[Editor]
DistanceSpacing: 1.1
BeatDivisor: 4
GridSize: 4

[Metadata]
Title:Hikarakuyo
TitleUnicode:飛花落葉
Artist:Natsume Chiaki
ArtistUnicode:なつめ千秋
Creator:rinsukir
Version:Easy
Source:
Tags:thousands of gifts megpoid gumi niconico douga vocaloid o_k_a_y_u okayu flying flowers falling leaves
BeatmapID:340946
BeatmapSetID:113813

[Difficulty]
HPDrainRate:2
CircleSize:3
OverallDifficulty:2
ApproachRate:3
SliderMultiplier:0.8
SliderTickRate:2

[Events]
//Background and Video events
0,0,"ochiba.png",0,0
//Break Periods
2,41320,42718
//Storyboard Layer 0 (Background)
//Storyboard Layer 1 (Fail)
//Storyboard Layer 2 (Pass)
//Storyboard Layer 3 (Foreground)
//Storyboard Sound Samples
//Background Colour Transformations
3,100,163,162,255

[TimingPoints]
1627,379.746835443038,4,2,2,50,1,0
7702,-100,4,2,2,80,0,0
12259,-100,4,2,1,90,0,0
13778,-100,4,2,1,100,0,1
24411,-100,4,2,1,100,0,0
25930,-100,4,2,1,100,0,1
35709,-100,4,2,3,100,0,1
35899,-100,4,2,1,100,0,1
36563,-100,4,2,1,100,0,0
38082,-100,4,2,2,85,0,1
38106,-100,4,2,2,85,0,0
69981,-100,4,2,1,85,0,0
71500,-100,4,2,1,100,0,1
82133,-100,4,2,1,100,0,0
83652,-100,4,2,1,100,0,1
93525,-100,4,2,3,100,0,1
93620,-100,4,2,1,100,0,1
94285,-100,4,2,1,100,0,0
95804,-100,4,2,1,100,0,1
95827,-100,4,2,1,100,0,0
98842,-100,4,2,2,20,0,0

[Colours]
Combo1 : 254,226,133
Combo2 : 89,89,255
Combo3 : 255,244,244
Combo4 : 255,117,117

[HitObjects]
64,196,1627,2,0,P|40:132|176:84,1,240,8|8,0:0|0:0,0:0:0:0:
244,116,3145,2,0,B|284:128|284:128|292:160|292:160|392:120|436:208,1,240,8|8,0:0|0:0,0:0:0:0:
452,288,4664,6,0,B|410:370|310:330|310:330|302:362|302:362|262:374,1,240,8|8,0:0|0:0,0:0:0:0:
176,364,6183,2,0,P|78:316|127:216,1,240,8|8,0:0|0:0,0:0:0:0:
200,172,7702,5,2,0:0:0:0:
256,56,8462,2,0,B|338:78|299:139|392:158,1,160,2|2,0:0|0:0,0:0:0:0:
484,300,9981,1,2,0:0:0:0:
316,344,10740,5,2,0:0:0:0:
148,292,11500,1,2,0:0:0:0:
72,132,12259,6,0,P|148:140|196:108,1,120,2|2,0:0|0:0,0:0:0:0:
292,44,13399,1,2,0:0:0:0:
380,28,13778,6,0,B|380:52|380:52|396:52|396:52|388:128|456:144,1,160,6|2,0:0|0:0,0:0:0:0:
488,224,14918,1,2,0:0:0:0:
465,308,15297,2,0,B|441:314|441:314|437:299|437:299|366:327|332:266,1,160,2|2,0:0|0:0,0:0:0:0:
232,124,16816,6,0,P|240:201|200:276,1,160,2|2,0:0|0:0,0:0:0:0:
28,248,18335,2,0,P|20:171|60:96,1,160,2|2,0:0|0:0,0:0:0:0:
220,32,19854,5,6,0:0:0:0:
396,60,20614,2,0,P|446:117|432:193,1,160,2|2,0:0|0:0,0:0:0:0:
332,340,22133,1,2,0:0:0:0:
324,164,22892,6,0,L|244:164,1,80,2|2,0:0|0:0,0:0:0:0:
156,160,23652,2,0,P|112:144|92:40,1,160,2|2,0:0|0:0,0:0:0:0:
268,36,25171,1,2,0:0:0:0:
436,92,25930,6,0,B|420:124|420:124|464:188|396:236,1,160,6|2,0:0|0:0,0:0:0:0:
356,308,27070,1,2,0:0:0:0:
268,304,27449,2,0,P|191:282|112:294,1,160,2|2,0:0|0:0,0:0:0:0:
60,124,28968,6,0,P|137:146|216:134,1,160,2|2,0:0|0:0,0:0:0:0:
368,48,30487,2,0,B|400:108|400:108|424:124|424:124|456:180,1,160,2|2,0:0|0:0,0:0:0:0:
500,256,31627,1,2,0:0:0:0:
428,308,32006,6,0,P|328:284|296:232,1,160,6|2,0:0|0:0,0:0:0:0:
276,68,33525,2,0,B|244:44|244:44|224:64|224:64|156:44|140:80,1,160,6|2,0:0|0:0,0:0:0:0:
72,240,35044,6,0,B|0:244|11:366|11:366|128:384|148:304,1,320,6|6,0:0|0:0,0:0:0:0:
264,180,37323,1,0,0:0:0:0:
256,192,38082,12,4,41120,0:0:0:0:
256,192,44158,12,6,47196,0:0:0:0:
288,72,47956,6,0,B|264:76|264:76|248:96|248:96|192:80|152:136,1,160,2|2,0:0|0:0,0:0:0:0:
144,312,49475,2,0,L|219:337,1,80,2|2,0:0|0:0,0:0:0:0:
308,348,50234,6,0,P|376:328|392:244,1,160,2|2,0:0|0:0,0:0:0:0:
320,196,51373,1,2,0:0:0:0:
232,192,51753,2,0,B|196:192|196:192|140:236|76:200,2,160,2|2|6,0:0|0:0|0:0,0:0:0:0:
388,112,54032,6,0,P|364:80|359:41,1,80,2|2,0:0|0:0,0:0:0:0:
448,44,54791,2,0,P|488:98|447:177,2,160,2|2|2,0:0|0:0|0:0,0:0:0:0:
276,80,57070,5,2,0:0:0:0:
320,248,57829,2,0,B|236:316|188:232|188:232|112:296|52:208,1,320,2|2,0:0|0:0,0:0:0:0:
8,40,60108,5,2,0:0:0:0:
180,36,60867,2,0,P|256:50|292:118,1,160,2|2,0:0|0:0,0:0:0:0:
332,292,62386,6,0,P|368:360|452:372,2,160,2|2|2,0:0|0:0|0:0,0:0:0:0:
324,116,64664,2,0,L|244:116,1,80,2|0,0:0|0:0,0:0:0:0:
156,112,65424,5,2,0:0:0:0:
44,248,66183,2,0,B|56:332|128:344|128:344|96:368,2,160,2|2|2,0:0|0:0|0:0,0:0:0:0:
28,72,68462,6,0,P|144:56|212:160,1,240,2|0,0:0|0:0,0:0:0:0:
228,232,69981,6,0,P|240:296|288:336,1,120,2|2,0:0|0:0,0:0:0:0:
408,352,71120,1,6,0:0:0:0:
460,280,71500,6,0,B|488:229|488:229|491:203|471:172|420:149,1,160,6|2,0:0|0:0,0:0:0:0:
356,104,72639,1,2,0:0:0:0:
276,68,73019,2,0,P|204:33|136:78,1,160,2|2,0:0|0:0,0:0:0:0:
48,220,74538,6,0,P|48:264|64:296,1,80,2|0,0:0|0:0,0:0:0:0:
140,344,75297,2,0,P|176:352|225:348,1,80,2|0,0:0|0:0,0:0:0:0:
306,338,76057,2,0,P|346:336|400:347,2,80,2|0|2,0:0|0:0|0:0,0:0:0:0:
208,192,77576,6,0,B|226:126|194:106|194:106|178:78|210:46,1,160,6|2,0:0|0:0,0:0:0:0:
380,20,79095,2,0,B|398:86|366:106|366:106|350:134|382:166,1,160,6|2,0:0|0:0,0:0:0:0:
484,308,80614,5,6,0:0:0:0:
312,268,81373,1,2,0:0:0:0:
140,308,82133,1,2,0:0:0:0:
68,148,82892,2,0,B|80:156|80:156|84:144|84:144|128:196|208:160,1,160,2|6,0:0|0:0,0:0:0:0:
364,84,84411,6,0,L|416:152,1,80,2|2,0:0|0:0,0:0:0:0:
452,228,85171,2,0,B|400:244|388:300|388:300|336:328,2,160,2|2|2,0:0|0:0|0:0,0:0:0:0:
452,52,87449,5,2,0:0:0:0:
284,104,88209,2,0,B|261:186|261:186|201:230,1,160,2|2,0:0|0:0,0:0:0:0:
124,272,89348,1,0,0:0:0:0:
100,188,89728,5,6,0:0:0:0:
180,32,90487,2,0,P|232:24|268:44,1,80,2|0,0:0|0:0,0:0:0:0:
340,60,91247,1,6,0:0:0:0:
484,164,92006,2,0,P|477:203|454:235,1,80,2|0,0:0|0:0,0:0:0:0:
392,296,92766,6,0,B|316:324|316:324|252:272|164:308|164:308|107:254,1,320,6|6,0:0|0:0,0:0:0:0:
28,96,95044,1,0,0:0:0:0:
256,192,95804,12,4,98842,0:0:0:0:
