osu file format v13

[General]
AudioFilename: zz.mp3
AudioLeadIn: 0
PreviewTime: 57555
Countdown: 0
SampleSet: Soft
StackLeniency: 0.7
Mode: 0
LetterboxInBreaks: 0
WidescreenStoryboard: 0

[Editor]
Bookmarks: 14533,25083,35632,46182,58050,68599,81786,87061,97610,109479,120028,133215,143764,155632,166182,179369
DistanceSpacing: 0.8
BeatDivisor: 2
GridSize: 32
TimelineZoom: 1

[Metadata]
Title:Hanairo Biyori
TitleUnicode:花色日和
Artist:Natsume Chiaki
ArtistUnicode:なつめ千秋
Creator:rinsukir
Version:Easy
Source:
Tags:thousands of gifts vocaloid2 hatsune miku niconico douga mei awaken kawaiwkyik
BeatmapID:532217
BeatmapSetID:143397

[Difficulty]
HPDrainRate:2
CircleSize:3
OverallDifficulty:2
ApproachRate:3
SliderMultiplier:0.699999999999999
SliderTickRate:1

[Events]
//Background and Video events
0,0,"hiyorii.jpg",0,0
Video,-160,"hanairo.flv"
//Break Periods
2,84628,85625
2,135397,142328
//Storyboard Layer 0 (Background)
//Storyboard Layer 1 (Fail)
//Storyboard Layer 2 (Pass)
//Storyboard Layer 3 (Foreground)
//Storyboard Sound Samples
//Background Colour Transformations
3,100,163,162,255

[TimingPoints]
14538,329.67032967033,4,2,1,70,1,0
14620,-100,4,2,3,70,0,0
25087,-100,4,2,3,60,0,0
35636,-100,4,2,3,70,0,0
46186,-100,4,2,3,60,0,0
58054,-100,4,2,1,80,0,1
58136,-100,4,2,3,80,0,1
67285,-100,4,2,3,80,0,0
68603,-100,4,2,1,80,0,1
68686,-100,4,2,3,80,0,1
79153,-100,4,1,1,80,0,1
81790,-100,4,1,1,80,0,0
84428,-100,4,1,2,50,0,0
87065,-100,4,2,3,50,0,0
92340,-100,4,2,1,60,0,0
92999,-100,4,2,3,60,0,0
97614,-100,4,2,3,70,0,0
109483,-100,4,2,1,80,0,1
109565,-100,4,2,3,80,0,1
118713,-100,4,2,3,80,0,0
120032,-100,4,2,1,80,0,1
120114,-100,4,2,3,80,0,1
130581,-100,4,1,1,80,0,1
133219,-100,4,1,2,80,0,0
134538,-100,4,1,2,40,0,0
143768,-100,4,1,1,60,0,0
149043,-100,4,1,1,70,0,0
152999,-100,4,1,1,80,0,0
154235,-100,4,1,1,5,0,0
155636,-100,4,2,1,90,0,1
155719,-100,4,2,3,90,0,1
166165,-100,4,2,3,90,0,0
166186,-100,4,2,1,90,0,1
166268,-100,4,2,3,90,0,1
176735,-100,4,2,1,90,0,1
176818,-100,4,2,3,90,0,1
178054,-100,4,2,1,90,0,1
178136,-100,4,2,3,90,0,1
179352,-100,4,2,3,90,0,0
179373,-100,4,2,3,90,0,1
179393,-100,4,2,3,90,0,0
182010,-100,4,1,2,70,0,0

[Colours]
Combo1 : 189,158,254
Combo2 : 255,247,185
Combo3 : 255,140,198
Combo4 : 254,166,129

[HitObjects]
66,64,14537,6,0,P|49:131|162:157,1,210,4|8,0:0|0:0,0:0:0:0:
205,125,15856,2,0,B|254:132|284:110|284:110|332:107|374:129|374:129|412:114,1,210,0|8,0:0|0:0,0:0:0:0:
448,80,17175,6,0,P|499:164|449:263,1,210,0|8,0:0|0:0,0:0:0:0:
400,254,18494,2,0,L|255:254,1,140
205,239,19483,1,8,0:0:0:0:
155,265,19812,6,0,B|111:293|111:293|53:237|78:148,1,210,2|8,0:0|0:0,0:0:0:0:
70,91,21131,2,0,B|115:77|137:45|137:45|192:37|266:54,1,210,0|8,0:0|0:0,0:0:0:0:
320,56,22450,6,0,P|377:71|464:45,2,140,2|2|8,0:0|0:0|0:0,0:0:0:0:
238,133,24428,2,0,L|244:209,1,69.9999999999999,8|8,0:0|0:0,0:0:0:0:
251,258,25087,6,0,P|262:326|326:363,1,140,4|0,0:0|0:0,0:0:0:0:
429,346,26406,1,0,0:0:0:0:
494,255,27065,1,2,0:0:0:0:
453,150,27724,6,0,P|434:102|451:13,2,140,0|0|0,0:0|0:0|0:0,0:0:0:0:
393,244,29702,1,2,0:0:0:0:
336,340,30362,6,0,B|295:346|295:346|272:341|272:341|231:353|191:342,1,140
85,342,31680,2,0,P|41:312|28:219,1,140,0|2,0:0|0:0,0:0:0:0:
56,123,32999,5,0,0:0:0:0:
151,65,33658,1,0,0:0:0:0:
263,69,34318,2,0,P|334:58|404:79,1,140,0|2,0:0|0:0,0:0:0:0:
440,114,35307,1,0,0:0:0:0:
466,163,35636,6,0,B|461:221|461:221|460:238|476:273|476:273|464:303,2,140,4|2|2,0:0|0:0|0:0,0:0:0:0:
355,143,37614,2,0,L|213:147,1,140,2|2,0:0|0:0,0:0:0:0:
104,166,38933,5,2,0:0:0:0:
74,274,39592,1,2,0:0:0:0:
160,345,40252,2,0,P|203:343|244:347,1,69.9999999999999,2|0,0:0|0:0,0:0:0:0:
285,349,40911,6,0,P|353:352|380:285,2,140,2|2|2,0:0|0:0|0:0,0:0:0:0:
258,240,42889,2,0,L|247:87,1,140,2|2,0:0|0:0,0:0:0:0:
153,40,44208,5,2,0:0:0:0:
64,109,44867,2,0,L|50:190,1,69.9999999999999,2|8,0:0|0:0,0:0:0:0:
49,234,45527,1,2,0:0:0:0:
102,333,46186,6,0,P|153:316|248:329,1,140,4|8,0:0|0:0,0:0:0:0:
348,342,47505,2,0,B|404:330|404:330|435:289|431:250,1,140,2|2,0:0|0:0,0:0:0:0:
417,143,48823,6,0,P|378:142|306:74,1,140,2|8,0:0|0:0,0:0:0:0:
205,29,50142,1,2,0:0:0:0:
98,62,50801,1,2,0:0:0:0:
54,165,51461,6,0,B|84:210|84:210|173:213,1,140,2|8,0:0|0:0,0:0:0:0:
278,238,52779,2,0,P|297:282|283:380,2,140,2|2|2,0:0|0:0|0:0,0:0:0:0:
221,141,54757,6,0,L|149:141,2,69.9999999999999,0|8|8,0:0|0:0|0:0,0:0:0:0:
277,141,55746,2,0,P|279:81|219:39,1,140,8|8,0:0|0:0,0:0:0:0:
71,277,58054,6,0,B|104:264|133:268|133:268|146:314|183:328,1,140,4|2,0:0|0:0,0:0:0:0:
289,345,59373,2,0,P|350:334|428:349,1,140,2|2,0:0|0:0,0:0:0:0:
482,251,60691,5,2,0:0:0:0:
463,140,61351,1,2,0:0:0:0:
375,70,62010,2,0,B|327:83|289:78|289:78|249:102|249:102|202:98|164:116,1,210,2|8,0:0|0:0,0:0:0:0:
118,107,63329,6,0,L|123:253,1,140,2|2,0:0|0:0,0:0:0:0:
186,339,64647,1,2,0:0:0:0:
298,331,65307,2,0,P|369:322|437:305,1,140,2|2,0:0|0:0,0:0:0:0:
456,195,66625,5,2,0:0:0:0:
435,84,67285,2,0,P|359:142|272:87,1,210,2|8,0:0|0:0,0:0:0:0:
290,35,68603,6,0,L|139:40,1,140,4|2,0:0|0:0,0:0:0:0:
66,114,69922,1,2,0:0:0:0:
96,221,70581,1,2,0:0:0:0:
56,325,71241,6,0,P|127:328|182:291,1,140,2|2,0:0|0:0,0:0:0:0:
266,216,72559,2,0,P|249:152|278:70,2,140,2|2|2,0:0|0:0|0:0,0:0:0:0:
347,293,74538,5,2,0:0:0:0:
458,289,75197,2,0,L|477:151,1,140,2|2,0:0|0:0,0:0:0:0:
434,47,76516,6,0,P|381:38|296:87,1,140,2|2,0:0|0:0,0:0:0:0:
238,163,77834,2,0,P|132:197|50:135,1,210,2|8,0:0|0:0,0:0:0:0:
11,179,79153,6,0,L|30:324,1,140,2|2,0:0|0:0,0:0:0:0:
127,372,80472,1,2,0:0:0:0:
232,333,81131,1,2,0:0:0:0:
256,192,81790,12,4,84428,0:0:0:0:
360,63,87065,6,0,P|416:100|497:89,1,140,2|0,0:0|0:0,0:0:0:0:
502,205,88384,2,0,P|454:231|427:310,1,140,2|0,0:0|0:0,0:0:0:0:
318,335,89702,5,2,0:0:0:0:
243,251,90362,1,0,0:0:0:0:
262,140,91021,1,2,0:0:0:0:
185,58,91680,2,0,P|143:71|118:74,1,69.9999999999999,0|2,0:0|0:0,0:0:0:0:
67,49,92340,6,0,B|85:78|85:78|81:113|81:113|100:133|86:193,1,140,4|8,0:0|0:0,0:0:0:0:
82,292,93658,2,0,B|123:282|123:282|165:290|165:290|190:281|228:280,1,140,2|8,0:0|0:0,0:0:0:0:
274,275,94647,1,2,0:0:0:0:
323,300,94977,6,0,P|379:338|458:323,2,140,2|8|2,0:0|0:0|0:0,0:0:0:0:
302,189,96955,2,0,L|297:112,1,69.9999999999999,8|0,0:0|0:0,0:0:0:0:
288,63,97614,6,0,L|133:53,1,140,4|8,0:0|0:0,0:0:0:0:
89,149,98933,1,2,0:0:0:0:
123,255,99592,1,2,0:0:0:0:
218,313,100252,6,0,P|229:239|198:175,1,140,2|2,0:0|0:0,0:0:0:0:
145,85,101570,2,0,L|298:87,1,140,2|2,0:0|0:0,0:0:0:0:
338,103,102559,1,8,0:0:0:0:
393,92,102889,6,0,B|374:159|405:207|405:207|427:187,1,140,8|8,0:0|0:0,0:0:0:0:
437,303,104208,2,0,B|410:327|370:327|370:327|332:329|307:349,1,140,8|8,0:0|0:0,0:0:0:0:
196,349,105527,5,8,0:0:0:0:
130,258,106186,2,0,L|55:217,2,69.9999999999999,8|8|0,0:0|0:0|0:0,0:0:0:0:
184,246,107175,2,0,P|215:195|205:105,1,140
176,338,109483,6,0,L|30:341,2,140,4|2|2,0:0|0:0|0:0,0:0:0:0:
287,331,111461,1,2,0:0:0:0:
374,261,112120,6,0,P|395:202|374:118,1,140,2|2,0:0|0:0,0:0:0:0:
346,83,113109,1,8,0:0:0:0:
296,56,113439,2,0,B|242:42|201:55|201:55|148:53,1,140,2|2,0:0|0:0,0:0:0:0:
48,81,114757,5,2,0:0:0:0:
30,191,115417,1,2,0:0:0:0:
100,279,116076,2,0,P|168:273|235:316,1,140,2|2,0:0|0:0,0:0:0:0:
333,345,117395,6,0,P|403:353|443:298,1,140,2|2,0:0|0:0,0:0:0:0:
469,254,118384,1,0,0:0:0:0:
476,198,118713,2,0,B|445:168|445:168|449:133|427:112|425:62|425:62|393:112,1,210,2|8,0:0|0:0,0:0:0:0:
364,158,120032,6,0,B|328:134|288:137|288:137|224:157,1,140,4|2,0:0|0:0,0:0:0:0:
179,254,121351,1,2,0:0:0:0:
97,330,122010,2,0,P|73:282|83:198,1,140,2|2,0:0|0:0,0:0:0:0:
133,98,123329,5,2,0:0:0:0:
244,91,123988,2,0,L|396:90,1,140,2|2,0:0|0:0,0:0:0:0:
468,164,125307,5,2,0:0:0:0:
401,253,125966,2,0,P|337:239|262:250,1,140,2|2,0:0|0:0,0:0:0:0:
176,318,127285,2,0,P|157:281|153:240,1,69.9999999999999,2|8,0:0|0:0,0:0:0:0:
163,198,127944,6,0,P|180:150|156:52,1,140,2|2,0:0|0:0,0:0:0:0:
70,126,129263,2,0,B|30:204|67:259|67:259|36:283|36:283|51:312,1,210,2|8,0:0|0:0,0:0:0:0:
99,336,130581,6,0,P|166:326|247:342,1,140,2|2,0:0|0:0,0:0:0:0:
348,327,131900,1,2,0:0:0:0:
394,227,132559,1,2,0:0:0:0:
256,192,133219,12,4,135197,0:0:0:0:
320,226,143768,6,0,L|356:83,1,140,4|8,0:0|0:0,0:0:0:0:
466,91,145087,2,0,L|431:226,1,140,0|8,0:0|0:0,0:0:0:0:
400,334,146406,5,4,0:0:0:0:
289,319,147065,1,8,0:0:0:0:
180,347,147724,2,0,P|105:339|60:283,1,140,0|8,0:0|0:0,0:0:0:0:
24,188,149043,6,0,B|19:132|19:132|51:100|100:111,1,140,4|8,0:0|0:0,0:0:0:0:
205,87,150362,2,0,B|237:95|275:85|275:85|310:96|345:89,1,140,4|8,0:0|0:0,0:0:0:0:
455,98,151680,6,0,L|445:175,1,69.9999999999999,4|8,0:0|0:0,0:0:0:0:
428,220,152340,2,0,L|418:297,1,69.9999999999999,4|8,0:0|0:0,0:0:0:0:
382,332,152999,6,0,B|318:355|280:299|280:299|236:321|191:306|191:306|154:230,1,280,4|0,0:0|0:0,0:0:0:0:
48,58,155636,6,0,B|97:58|97:58|143:67|194:90,1,140,4|2,0:0|0:0,0:0:0:0:
291,117,156955,2,0,L|369:112,2,69.9999999999999,2|8|2,0:0|0:0|0:0,0:0:0:0:
254,223,158274,5,2,0:0:0:0:
315,316,158933,1,2,0:0:0:0:
425,333,159592,2,0,P|453:281|444:197,1,140,2|2,0:0|0:0,0:0:0:0:
427,149,160581,1,8,0:0:0:0:
371,141,160911,6,0,L|227:142,1,140,2|2,0:0|0:0,0:0:0:0:
122,114,162230,1,2,0:0:0:0:
33,183,162889,1,2,0:0:0:0:
52,293,163548,5,2,0:0:0:0:
152,343,164208,2,0,P|199:339|228:344,1,69.9999999999999,2|8,0:0|0:0,0:0:0:0:
277,343,164867,2,0,B|324:331|364:351|364:351|419:303|391:237,1,210,2|8,0:0|0:0,0:0:0:0:
398,186,166186,6,0,L|391:30,1,140,4|8,0:0|0:0,0:0:0:0:
279,40,167505,2,0,P|244:40|200:36,2,69.9999999999999,8|8|8,0:0|0:0|0:0,0:0:0:0:
298,150,168823,6,0,P|293:206|220:246,1,140,8|8,0:0|0:0,0:0:0:0:
115,266,170142,2,0,B|55:290|55:290|22:361,2,140,8|8|8,0:0|0:0|0:0,0:0:0:0:
158,162,172120,6,0,P|165:118|164:78,1,69.9999999999999,8|8,0:0|0:0,0:0:0:0:
135,45,172779,2,0,P|187:58|282:52,1,140,8|8,0:0|0:0,0:0:0:0:
384,43,174098,5,8,0:0:0:0:
444,137,174757,1,8,0:0:0:0:
452,249,175417,2,0,B|409:301|336:293|336:293|320:269|303:257|303:257|280:280,1,210,2|8,0:0|0:0,0:0:0:0:
243,320,176735,6,0,L|97:312,1,140,4|8,0:0|0:0,0:0:0:0:
30,227,178054,2,0,P|21:150|50:84,1,140,4|8,0:0|0:0,0:0:0:0:
150,59,179373,5,4,0:0:0:0:
261,58,180032,1,2,0:0:0:0:
364,101,180691,2,0,L|509:95,1,140,2|2,0:0|0:0,0:0:0:0:
511,207,182010,6,0,L|371:212,1,140,2|2,0:0|0:0,0:0:0:0:
259,214,183329,1,2,0:0:0:0:
147,209,183988,2,0,P|90:262|91:333,1,140,2|4,0:0|0:0,0:0:0:0:
193,353,185307,6,0,P|269:351|342:355,1,140,2|2,0:0|0:0,0:0:0:0:
441,326,186625,1,2,0:0:0:0:
459,215,187285,6,0,L|478:63,2,140,2|2|4,0:0|0:0|0:0,0:0:0:0:
361,270,189263,1,4,0:0:0:0:
249,267,189922,5,4,0:0:0:0:
179,179,190581,1,4,0:0:0:0:
217,73,191241,2,0,P|282:76|332:70,1,105,2|4,0:0|0:0,0:0:0:0:
