osu file format v14

[General]
AudioFilename: Sore wa Hanabi no Youna Koi.mp3
AudioLeadIn: 0
PreviewTime: 56514
Countdown: 0
SampleSet: Normal
StackLeniency: 0.7
Mode: 1
LetterboxInBreaks: 0
WidescreenStoryboard: 0

[Editor]
DistanceSpacing: 1.3
BeatDivisor: 4
GridSize: 32
TimelineZoom: 1

[Metadata]
Title:Sore wa Hanabi no Youna Koi
TitleUnicode:それは花火のような恋
Artist:Natsuiro Burning Love*Prim
ArtistUnicode:夏色バーニングラブ☆Prim
Creator:Nardoxyribonucleic
Version:Kantan
Source:BeatStream
Tags:Taiko KONAMI beatmania IIDX 22 PENDUAL jubeat wmfchris aabc271
BeatmapID:1442173
BeatmapSetID:664085

[Difficulty]
HPDrainRate:7
CircleSize:5
OverallDifficulty:3
ApproachRate:5
SliderMultiplier:1.4
SliderTickRate:1

[Events]
//Background and Video events
0,0,"BG.jpg",0,110
//Break Periods
//Storyboard Layer 0 (Background)
//Storyboard Layer 1 (Fail)
//Storyboard Layer 2 (Pass)
//Storyboard Layer 3 (Foreground)
//Storyboard Sound Samples

[TimingPoints]
1232,329.67032967033,4,1,0,100,1,0
14418,-100,4,1,0,80,0,0
24968,-100,4,1,0,85,0,0
35517,-100,4,1,0,90,0,0
40792,-100,4,1,0,85,0,0
46067,-100,4,1,0,90,0,0
56616,-100,4,1,0,100,0,1
77715,-100,4,1,0,85,0,0
88264,-100,4,1,0,75,0,0
93539,-100,4,1,0,90,0,0
98814,-100,4,1,0,100,0,1
119913,-100,4,1,0,100,0,0

[HitObjects]
256,192,1232,5,0,0:0:0:0:
256,192,1561,1,8,0:0:0:0:
256,192,2385,1,4,0:0:0:0:
256,192,3869,1,0,0:0:0:0:
256,192,4199,1,8,0:0:0:0:
256,192,5023,1,4,0:0:0:0:
256,192,5682,1,4,0:0:0:0:
256,192,6506,1,12,0:0:0:0:
256,192,7166,1,0,0:0:0:0:
256,192,7495,1,8,0:0:0:0:
256,192,7825,1,0,0:0:0:0:
256,192,8484,1,0,0:0:0:0:
256,192,9144,1,12,0:0:0:0:
256,192,10297,1,4,0:0:0:0:
256,192,10957,1,4,0:0:0:0:
256,192,11946,1,12,0:0:0:0:
256,192,12440,1,12,0:0:0:0:
256,192,12935,1,4,0:0:0:0:
256,192,14418,1,4,0:0:0:0:
256,192,15078,1,8,0:0:0:0:
256,192,15737,1,0,0:0:0:0:
256,192,16396,1,8,0:0:0:0:
256,192,16726,1,8,0:0:0:0:
256,192,17056,1,0,0:0:0:0:
256,192,17715,1,0,0:0:0:0:
256,192,18374,1,8,0:0:0:0:
256,192,19693,1,8,0:0:0:0:
256,192,20352,1,0,0:0:0:0:
256,192,20682,1,0,0:0:0:0:
256,192,21012,1,8,0:0:0:0:
256,192,21671,1,8,0:0:0:0:
256,192,22330,1,0,0:0:0:0:
256,192,23649,1,8,0:0:0:0:
256,192,24308,1,0,0:0:0:0:
256,192,24638,1,8,0:0:0:0:
256,192,24968,1,4,0:0:0:0:
256,192,25627,1,8,0:0:0:0:
256,192,26286,1,0,0:0:0:0:
256,192,26946,1,8,0:0:0:0:
256,192,27275,1,8,0:0:0:0:
256,192,27605,1,0,0:0:0:0:
256,192,28264,1,0,0:0:0:0:
256,192,28924,1,8,0:0:0:0:
256,192,30242,1,8,0:0:0:0:
256,192,30902,1,8,0:0:0:0:
256,192,31561,1,0,0:0:0:0:
256,192,31891,1,0,0:0:0:0:
256,192,32221,1,8,0:0:0:0:
256,192,32880,1,0,0:0:0:0:
256,192,33539,1,0,0:0:0:0:
256,192,34199,1,8,0:0:0:0:
256,192,34528,1,8,0:0:0:0:
256,192,34858,1,0,0:0:0:0:
256,192,35517,1,12,0:0:0:0:
256,192,36177,1,4,0:0:0:0:
256,192,37495,1,4,0:0:0:0:
256,192,38155,1,12,0:0:0:0:
256,192,38814,1,4,0:0:0:0:
256,192,40133,1,4,0:0:0:0:
256,192,40792,1,4,0:0:0:0:
256,192,41451,1,0,0:0:0:0:
256,192,42111,1,8,0:0:0:0:
256,192,42770,1,0,0:0:0:0:
256,192,43100,1,8,0:0:0:0:
256,192,43429,1,0,0:0:0:0:
256,192,44089,1,8,0:0:0:0:
256,192,44748,1,0,0:0:0:0:
256,192,45078,1,0,0:0:0:0:
256,192,45407,1,8,0:0:0:0:
256,192,46067,1,4,0:0:0:0:
256,192,47385,1,8,0:0:0:0:
256,192,48045,1,8,0:0:0:0:
256,192,48374,1,8,0:0:0:0:
256,192,48704,1,0,0:0:0:0:
256,192,49363,1,0,0:0:0:0:
256,192,50023,1,8,0:0:0:0:
256,192,50682,1,8,0:0:0:0:
256,192,51341,1,4,0:0:0:0:
256,192,52001,1,0,0:0:0:0:
256,192,52330,1,8,0:0:0:0:
256,192,52660,1,12,0:0:0:0:
256,192,53319,1,0,0:0:0:0:
256,192,53649,1,8,0:0:0:0:
256,192,53979,1,4,0:0:0:0:
256,192,54638,1,0,0:0:0:0:
256,192,55297,1,12,0:0:0:0:
256,192,56616,1,12,0:0:0:0:
256,192,57275,1,8,0:0:0:0:
256,192,57935,1,0,0:0:0:0:
256,192,58264,1,0,0:0:0:0:
256,192,58594,1,0,0:0:0:0:
256,192,59253,1,8,0:0:0:0:
256,192,59913,1,0,0:0:0:0:
256,192,60572,1,8,0:0:0:0:
256,192,61891,1,4,0:0:0:0:
256,192,62221,1,8,0:0:0:0:
256,192,62550,1,0,0:0:0:0:
256,192,63210,1,12,0:0:0:0:
256,192,63539,1,0,0:0:0:0:
256,192,63869,1,8,0:0:0:0:
256,192,64528,1,4,0:0:0:0:
256,192,65188,1,4,0:0:0:0:
256,192,65847,1,0,0:0:0:0:
256,192,66177,1,8,0:0:0:0:
256,192,66506,1,8,0:0:0:0:
256,192,67166,1,12,0:0:0:0:
256,192,67825,1,8,0:0:0:0:
256,192,68484,1,0,0:0:0:0:
256,192,69144,1,8,0:0:0:0:
256,192,69473,1,8,0:0:0:0:
256,192,69803,1,12,0:0:0:0:
256,192,70462,1,0,0:0:0:0:
256,192,71122,1,8,0:0:0:0:
256,192,72440,1,4,0:0:0:0:
256,192,73100,1,8,0:0:0:0:
256,192,73429,1,8,0:0:0:0:
256,192,73759,1,4,0:0:0:0:
256,192,74418,1,12,0:0:0:0:
256,192,75078,1,4,0:0:0:0:
256,192,75737,1,8,0:0:0:0:
256,192,76396,1,0,0:0:0:0:
256,192,76726,1,8,0:0:0:0:
256,192,77056,1,8,0:0:0:0:
256,192,77715,1,4,0:0:0:0:
256,192,78374,1,8,0:0:0:0:
256,192,79034,1,0,0:0:0:0:
256,192,79693,1,0,0:0:0:0:
256,192,80023,1,0,0:0:0:0:
256,192,80352,1,8,0:0:0:0:
256,192,81012,1,8,0:0:0:0:
256,192,81671,1,0,0:0:0:0:
256,192,82990,1,4,0:0:0:0:
256,192,83649,1,8,0:0:0:0:
256,192,84308,1,12,0:0:0:0:
256,192,84968,1,8,0:0:0:0:
256,192,85297,1,8,0:0:0:0:
256,192,85627,1,4,0:0:0:0:
256,192,86286,1,0,0:0:0:0:
256,192,86946,1,8,0:0:0:0:
256,192,87275,1,0,0:0:0:0:
256,192,87605,1,8,0:0:0:0:
256,192,88264,1,12,0:0:0:0:
256,192,89583,1,0,0:0:0:0:
256,192,90902,1,12,0:0:0:0:
256,192,92221,1,4,0:0:0:0:
256,192,92880,1,8,0:0:0:0:
256,192,93539,1,4,0:0:0:0:
256,192,94199,1,0,0:0:0:0:
256,192,94528,1,0,0:0:0:0:
256,192,94858,1,12,0:0:0:0:
256,192,95517,1,4,0:0:0:0:
256,192,96177,1,12,0:0:0:0:
256,192,97495,1,4,0:0:0:0:
256,192,98814,1,12,0:0:0:0:
256,192,99473,1,8,0:0:0:0:
256,192,100133,1,0,0:0:0:0:
256,192,100462,1,0,0:0:0:0:
256,192,100792,1,0,0:0:0:0:
256,192,101451,1,8,0:0:0:0:
256,192,102111,1,0,0:0:0:0:
256,192,102770,1,8,0:0:0:0:
256,192,104089,1,4,0:0:0:0:
256,192,104418,1,8,0:0:0:0:
256,192,104748,1,0,0:0:0:0:
256,192,105407,1,12,0:0:0:0:
256,192,105737,1,0,0:0:0:0:
256,192,106067,1,8,0:0:0:0:
256,192,106726,1,4,0:0:0:0:
256,192,107385,1,4,0:0:0:0:
256,192,108045,1,0,0:0:0:0:
256,192,108374,1,8,0:0:0:0:
256,192,108704,1,8,0:0:0:0:
256,192,109363,1,12,0:0:0:0:
256,192,110023,1,8,0:0:0:0:
256,192,110682,1,0,0:0:0:0:
256,192,111341,1,8,0:0:0:0:
256,192,111671,1,8,0:0:0:0:
256,192,112001,1,12,0:0:0:0:
256,192,112660,1,0,0:0:0:0:
256,192,113319,1,8,0:0:0:0:
256,192,114638,1,4,0:0:0:0:
256,192,114968,1,0,0:0:0:0:
256,192,115297,1,8,0:0:0:0:
256,192,115627,1,8,0:0:0:0:
256,192,115957,1,4,0:0:0:0:
256,192,116616,1,12,0:0:0:0:
256,192,117275,1,4,0:0:0:0:
256,192,117935,1,8,0:0:0:0:
256,192,118594,1,0,0:0:0:0:
256,192,118924,1,8,0:0:0:0:
256,192,119253,1,8,0:0:0:0:
256,192,120078,1,12,0:0:0:0:
256,192,121067,1,0,0:0:0:0:
256,192,121891,1,12,0:0:0:0:
256,192,122385,1,4,0:0:0:0:
256,192,122880,1,12,0:0:0:0:
