osu file format v14

[General]
AudioFilename: Sore wa Hanabi no Youna Koi.mp3
AudioLeadIn: 0
PreviewTime: 56514
Countdown: 0
SampleSet: Normal
StackLeniency: 0.7
Mode: 1
LetterboxInBreaks: 0
WidescreenStoryboard: 0

[Editor]
DistanceSpacing: 1.3
BeatDivisor: 4
GridSize: 32
TimelineZoom: 3.099999

[Metadata]
Title:Sore wa Hanabi no Youna Koi
TitleUnicode:それは花火のような恋
Artist:Natsuiro Burning Love*Prim
ArtistUnicode:夏色バーニングラブ☆Prim
Creator:Nardoxyribonucleic
Version:aabc's Oni
Source:BeatStream
Tags:Taiko KONAMI beatmania IIDX 22 PENDUAL jubeat wmfchris aabc271
BeatmapID:1433538
BeatmapSetID:664085

[Difficulty]
HPDrainRate:5
CircleSize:5
OverallDifficulty:5
ApproachRate:7
SliderMultiplier:1.4
SliderTickRate:1

[Events]
//Background and Video events
0,0,"BG.jpg",0,110
//Break Periods
//Storyboard Layer 0 (Background)
//Storyboard Layer 1 (Fail)
//Storyboard Layer 2 (Pass)
//Storyboard Layer 3 (Foreground)
//Storyboard Sound Samples

[TimingPoints]
1232,329.67032967033,4,1,0,80,1,0
1232,-103.092783505155,4,1,0,80,0,0
6506,-100,4,1,0,84,0,0
14418,-100,4,1,0,76,0,0
14666,-100.565681961031,4,1,0,76,0,0
14748,-100.755667506297,4,1,0,76,0,0
14913,-101.137800252844,4,1,0,76,0,0
15078,-101.522842639594,4,1,0,76,0,0
15325,-102.105934907466,4,1,0,76,0,0
15572,-102.695763799743,4,1,0,76,0,0
15737,-103.092783505155,4,1,0,76,0,0
24968,-101.522842639594,4,1,0,78,0,0
35517,-98.5221674876847,4,1,0,82,0,0
40792,-100,4,1,0,80,0,0
46067,-98.5221674876847,4,1,0,82,0,0
51341,-98.0392156862745,4,1,0,84,0,0
52660,-97.5609756097561,4,1,0,85,0,0
53979,-97.0873786407767,4,1,0,86,0,0
55297,-96.1538461538461,4,1,0,87,0,0
56616,-95.2380952380952,4,1,0,88,0,1
66671,-95.2380952380952,4,1,0,88,0,0
67166,-95.2380952380952,4,1,0,88,0,1
77715,-95.2380952380952,4,1,0,86,0,0
78045,-95.8083832335329,4,1,0,86,0,0
78210,-96.096096096096,4,1,0,86,0,0
78374,-96.3855421686746,4,1,0,86,0,0
78539,-96.6767371601208,4,1,0,86,0,0
78622,-96.822995461422,4,1,0,86,0,0
78704,-96.9696969696969,4,1,0,86,0,0
78869,-97.2644376899695,4,1,0,86,0,0
79034,-97.560975609756,4,1,0,85,0,0
79199,-97.8593272171252,4,1,0,85,0,0
79363,-98.1595092024538,4,1,0,85,0,0
79528,-98.4615384615383,4,1,0,85,0,0
79693,-98.7654320987652,4,1,0,85,0,0
79858,-99.0712074303403,4,1,0,85,0,0
79940,-99.2248062015502,4,1,0,85,0,0
80023,-99.3788819875774,4,1,0,85,0,0
80188,-99.6884735202489,4,1,0,85,0,0
80352,-100,4,1,0,84,0,0
88264,-100,4,1,0,76,0,0
88429,-111.111111111111,4,1,0,76,0,0
92880,-106.382978723404,4,1,0,76,0,0
93374,-102.040816326531,4,1,0,76,0,0
93539,-102.040816326531,4,1,0,84,0,0
93869,-98.0392156862745,4,1,0,84,0,0
95188,-97.0873786407767,4,1,0,85,0,0
96177,-96.1538461538462,4,1,0,86,0,0
98814,-95.2380952380952,4,1,0,88,0,1
108869,-95.2380952380952,4,1,0,88,0,0
109363,-95.2380952380952,4,1,0,88,0,1
119913,-95.2380952380952,4,1,0,86,0,0

[HitObjects]
256,192,1232,5,0,0:0:0:0:
256,192,1314,1,0,0:0:0:0:
256,192,1396,1,0,0:0:0:0:
256,192,1479,5,8,0:0:0:0:
256,192,1561,1,8,0:0:0:0:
256,192,2056,5,0,0:0:0:0:
256,192,2221,5,8,0:0:0:0:
256,192,2385,5,0,0:0:0:0:
256,192,2715,5,8,0:0:0:0:
256,192,2880,5,0,0:0:0:0:
256,192,3045,5,8,0:0:0:0:
256,192,3210,5,0,0:0:0:0:
256,192,3374,1,0,0:0:0:0:
256,192,3457,1,0,0:0:0:0:
256,192,3539,5,8,0:0:0:0:
256,192,3704,5,0,0:0:0:0:
256,192,3869,5,8,0:0:0:0:
256,192,3951,1,8,0:0:0:0:
256,192,4034,5,0,0:0:0:0:
256,192,4116,1,0,0:0:0:0:
256,192,4199,5,8,0:0:0:0:
256,192,4693,5,0,0:0:0:0:
256,192,4858,5,8,0:0:0:0:
256,192,5023,5,0,0:0:0:0:
256,192,5352,1,0,0:0:0:0:
256,192,5682,1,0,0:0:0:0:
256,192,6012,5,8,0:0:0:0:
256,192,6177,1,8,0:0:0:0:
256,192,6341,5,0,0:0:0:0:
256,192,6506,5,12,0:0:0:0:
256,192,6671,5,0,0:0:0:0:
256,192,6753,1,0,0:0:0:0:
256,192,6836,5,8,0:0:0:0:
256,192,6918,5,0,0:0:0:0:
256,192,7001,5,8,0:0:0:0:
256,192,7166,1,8,0:0:0:0:
256,192,7330,5,0,0:0:0:0:
256,192,7495,5,8,0:0:0:0:
256,192,7660,5,0,0:0:0:0:
256,192,7990,1,0,0:0:0:0:
256,192,8155,5,8,0:0:0:0:
256,192,8319,5,0,0:0:0:0:
256,192,8402,5,8,0:0:0:0:
256,192,8484,5,0,0:0:0:0:
256,192,8649,5,8,0:0:0:0:
256,192,8814,5,0,0:0:0:0:
256,192,8979,5,8,0:0:0:0:
256,192,9144,1,8,0:0:0:0:
256,192,9308,5,0,0:0:0:0:
256,192,9391,1,0,0:0:0:0:
256,192,9473,1,0,0:0:0:0:
256,192,9556,1,0,0:0:0:0:
256,192,9638,5,8,0:0:0:0:
256,192,9803,1,8,0:0:0:0:
256,192,9968,5,0,0:0:0:0:
256,192,10133,5,8,0:0:0:0:
256,192,10297,5,0,0:0:0:0:
256,192,10627,1,0,0:0:0:0:
256,192,10957,1,0,0:0:0:0:
256,192,11286,5,8,0:0:0:0:
256,192,11451,1,8,0:0:0:0:
256,192,11616,5,0,0:0:0:0:
256,192,11781,1,0,0:0:0:0:
256,192,11946,5,12,0:0:0:0:
256,192,12275,5,0,0:0:0:0:
256,192,12440,5,8,0:0:0:0:
256,192,12605,1,8,0:0:0:0:
256,192,12688,1,8,0:0:0:0:
256,192,12770,1,8,0:0:0:0:
256,192,12935,5,0,0:0:0:0:
256,192,13264,5,8,0:0:0:0:
256,192,13429,5,0,0:0:0:0:
256,192,13512,1,0,0:0:0:0:
256,192,13594,5,8,0:0:0:0:
256,192,13759,1,8,0:0:0:0:
256,192,14006,1,8,0:0:0:0:
256,192,14253,5,0,0:0:0:0:
256,192,14418,5,12,0:0:0:0:
256,192,14666,5,0,0:0:0:0:
256,192,14748,5,8,0:0:0:0:
256,192,14913,1,8,0:0:0:0:
256,192,15078,1,8,0:0:0:0:
256,192,15325,5,0,0:0:0:0:
256,192,15572,5,8,0:0:0:0:
256,192,15737,1,8,0:0:0:0:
256,192,15984,5,0,0:0:0:0:
256,192,16067,5,8,0:0:0:0:
256,192,16232,1,8,0:0:0:0:
256,192,16396,5,0,0:0:0:0:
256,192,16644,5,8,0:0:0:0:
256,192,16891,5,0,0:0:0:0:
256,192,17056,5,8,0:0:0:0:
256,192,17303,5,0,0:0:0:0:
256,192,17550,1,0,0:0:0:0:
256,192,17880,5,8,0:0:0:0:
256,192,18045,5,0,0:0:0:0:
256,192,18210,5,8,0:0:0:0:
256,192,18374,1,8,0:0:0:0:
256,192,18539,1,8,0:0:0:0:
256,192,18622,1,8,0:0:0:0:
256,192,18704,5,0,0:0:0:0:
256,192,18869,1,0,0:0:0:0:
256,192,19199,1,0,0:0:0:0:
256,192,19363,1,0,0:0:0:0:
256,192,19528,5,8,0:0:0:0:
256,192,19693,1,8,0:0:0:0:
256,192,19940,5,0,0:0:0:0:
256,192,20023,5,8,0:0:0:0:
256,192,20188,5,0,0:0:0:0:
256,192,20517,1,0,0:0:0:0:
256,192,20682,1,0,0:0:0:0:
256,192,20847,5,8,0:0:0:0:
256,192,21012,1,8,0:0:0:0:
256,192,21177,5,0,0:0:0:0:
256,192,21506,1,0,0:0:0:0:
256,192,21671,5,8,0:0:0:0:
256,192,21836,5,0,0:0:0:0:
256,192,21918,1,0,0:0:0:0:
256,192,22001,5,8,0:0:0:0:
256,192,22166,5,0,0:0:0:0:
256,192,22330,1,0,0:0:0:0:
256,192,22578,1,0,0:0:0:0:
256,192,22660,5,8,0:0:0:0:
256,192,22825,1,8,0:0:0:0:
256,192,23155,5,0,0:0:0:0:
256,192,23319,1,0,0:0:0:0:
256,192,23484,5,8,0:0:0:0:
256,192,23649,1,8,0:0:0:0:
256,192,23814,5,0,0:0:0:0:
256,192,23896,1,0,0:0:0:0:
256,192,23979,5,8,0:0:0:0:
256,192,24144,5,0,0:0:0:0:
256,192,24473,1,0,0:0:0:0:
256,192,24638,5,8,0:0:0:0:
256,192,24721,1,8,0:0:0:0:
256,192,24803,5,0,0:0:0:0:
256,192,24968,5,12,0:0:0:0:
256,192,25133,5,0,0:0:0:0:
256,192,25215,5,8,0:0:0:0:
256,192,25297,1,8,0:0:0:0:
256,192,25462,1,8,0:0:0:0:
256,192,25627,1,8,0:0:0:0:
256,192,25874,5,0,0:0:0:0:
256,192,26122,5,8,0:0:0:0:
256,192,26286,1,8,0:0:0:0:
256,192,26451,5,0,0:0:0:0:
256,192,26534,1,0,0:0:0:0:
256,192,26616,5,8,0:0:0:0:
256,192,26781,1,8,0:0:0:0:
256,192,26946,5,0,0:0:0:0:
256,192,27193,5,8,0:0:0:0:
256,192,27440,5,0,0:0:0:0:
256,192,27605,5,8,0:0:0:0:
256,192,27852,5,0,0:0:0:0:
256,192,28100,1,0,0:0:0:0:
256,192,28429,1,0,0:0:0:0:
256,192,28594,5,8,0:0:0:0:
256,192,28759,5,0,0:0:0:0:
256,192,28924,5,8,0:0:0:0:
256,192,29089,5,0,0:0:0:0:
256,192,29171,1,0,0:0:0:0:
256,192,29253,1,0,0:0:0:0:
256,192,29418,5,8,0:0:0:0:
256,192,29748,5,0,0:0:0:0:
256,192,29913,1,0,0:0:0:0:
256,192,30078,5,8,0:0:0:0:
256,192,30242,1,8,0:0:0:0:
256,192,30490,5,0,0:0:0:0:
256,192,30572,5,8,0:0:0:0:
256,192,30737,5,0,0:0:0:0:
256,192,30902,5,8,0:0:0:0:
256,192,31067,1,8,0:0:0:0:
256,192,31149,1,8,0:0:0:0:
256,192,31232,5,0,0:0:0:0:
256,192,31396,1,0,0:0:0:0:
256,192,31726,1,0,0:0:0:0:
256,192,31891,5,8,0:0:0:0:
256,192,32056,5,0,0:0:0:0:
256,192,32221,1,0,0:0:0:0:
256,192,32468,5,8,0:0:0:0:
256,192,32715,5,0,0:0:0:0:
256,192,32880,5,8,0:0:0:0:
256,192,32962,5,0,0:0:0:0:
256,192,33045,1,0,0:0:0:0:
256,192,33210,1,0,0:0:0:0:
256,192,33374,5,8,0:0:0:0:
256,192,33539,5,0,0:0:0:0:
256,192,33704,1,0,0:0:0:0:
256,192,33786,1,0,0:0:0:0:
256,192,33869,1,0,0:0:0:0:
256,192,34034,5,8,0:0:0:0:
256,192,34363,5,0,0:0:0:0:
256,192,34528,5,8,0:0:0:0:
256,192,34693,5,0,0:0:0:0:
256,192,34858,1,0,0:0:0:0:
256,192,34940,1,0,0:0:0:0:
256,192,35023,1,0,0:0:0:0:
256,192,35105,1,0,0:0:0:0:
256,192,35188,5,8,0:0:0:0:
256,192,35352,5,0,0:0:0:0:
256,192,35517,5,12,0:0:0:0:
256,192,36012,1,12,0:0:0:0:
256,192,36177,5,4,0:0:0:0:
256,192,36671,5,12,0:0:0:0:
256,192,37001,1,12,0:0:0:0:
256,192,37330,1,12,0:0:0:0:
256,192,37495,1,0,0:0:0:0:
256,192,37742,5,8,0:0:0:0:
256,192,37990,5,0,0:0:0:0:
256,192,38155,5,12,0:0:0:0:
256,192,38649,1,12,0:0:0:0:
256,192,38814,5,4,0:0:0:0:
256,192,39308,5,12,0:0:0:0:
256,192,39638,5,4,0:0:0:0:
256,192,39968,5,12,0:0:0:0:
256,192,40133,5,0,0:0:0:0:
256,192,40380,5,8,0:0:0:0:
256,192,40627,5,0,0:0:0:0:
256,192,40792,5,12,0:0:0:0:
256,192,40957,1,8,0:0:0:0:
256,192,41039,1,8,0:0:0:0:
256,192,41122,1,8,0:0:0:0:
256,192,41286,5,0,0:0:0:0:
256,192,41451,1,0,0:0:0:0:
256,192,41616,5,8,0:0:0:0:
256,192,41946,1,8,0:0:0:0:
256,192,42111,5,0,0:0:0:0:
256,192,42275,1,0,0:0:0:0:
256,192,42358,1,0,0:0:0:0:
256,192,42440,5,8,0:0:0:0:
256,192,42605,1,8,0:0:0:0:
256,192,42770,5,0,0:0:0:0:
256,192,43017,5,8,0:0:0:0:
256,192,43264,5,0,0:0:0:0:
256,192,43429,5,8,0:0:0:0:
256,192,43594,5,0,0:0:0:0:
256,192,43677,1,0,0:0:0:0:
256,192,43759,5,8,0:0:0:0:
256,192,43924,5,0,0:0:0:0:
256,192,44253,1,0,0:0:0:0:
256,192,44418,5,8,0:0:0:0:
256,192,44583,5,0,0:0:0:0:
256,192,44748,1,0,0:0:0:0:
256,192,44913,1,0,0:0:0:0:
256,192,44995,1,0,0:0:0:0:
256,192,45078,5,8,0:0:0:0:
256,192,45242,5,0,0:0:0:0:
256,192,45407,1,0,0:0:0:0:
256,192,45490,1,0,0:0:0:0:
256,192,45572,5,8,0:0:0:0:
256,192,45655,5,0,0:0:0:0:
256,192,45737,1,0,0:0:0:0:
256,192,45902,1,0,0:0:0:0:
256,192,46067,5,12,0:0:0:0:
256,192,46232,1,8,0:0:0:0:
256,192,46314,1,8,0:0:0:0:
256,192,46396,1,8,0:0:0:0:
256,192,46561,1,8,0:0:0:0:
256,192,46726,5,0,0:0:0:0:
256,192,46973,1,0,0:0:0:0:
256,192,47221,1,0,0:0:0:0:
256,192,47303,5,8,0:0:0:0:
256,192,47385,1,8,0:0:0:0:
256,192,47633,5,0,0:0:0:0:
256,192,47715,5,8,0:0:0:0:
256,192,47880,1,8,0:0:0:0:
256,192,48045,5,0,0:0:0:0:
256,192,48292,5,8,0:0:0:0:
256,192,48539,5,0,0:0:0:0:
256,192,48704,5,8,0:0:0:0:
256,192,48951,1,8,0:0:0:0:
256,192,49034,5,0,0:0:0:0:
256,192,49199,1,0,0:0:0:0:
256,192,49363,5,8,0:0:0:0:
256,192,49611,1,8,0:0:0:0:
256,192,49693,5,0,0:0:0:0:
256,192,49858,5,8,0:0:0:0:
256,192,49940,5,0,0:0:0:0:
256,192,50023,1,0,0:0:0:0:
256,192,50270,1,0,0:0:0:0:
256,192,50352,5,8,0:0:0:0:
256,192,50517,5,0,0:0:0:0:
256,192,50682,1,0,0:0:0:0:
256,192,50847,1,0,0:0:0:0:
256,192,50929,1,0,0:0:0:0:
256,192,51012,1,0,0:0:0:0:
256,192,51177,1,0,0:0:0:0:
256,192,51341,5,12,0:0:0:0:
256,192,51671,1,8,0:0:0:0:
256,192,51836,5,0,0:0:0:0:
256,192,52001,5,8,0:0:0:0:
256,192,52166,5,0,0:0:0:0:
256,192,52248,1,0,0:0:0:0:
256,192,52330,5,8,0:0:0:0:
256,192,52495,5,0,0:0:0:0:
256,192,52660,5,12,0:0:0:0:
256,192,52990,1,8,0:0:0:0:
256,192,53155,1,8,0:0:0:0:
256,192,53319,5,0,0:0:0:0:
256,192,53567,5,8,0:0:0:0:
256,192,53814,5,0,0:0:0:0:
256,192,53979,1,4,0:0:0:0:
256,192,54226,1,0,0:0:0:0:
256,192,54308,5,8,0:0:0:0:
256,192,54473,5,0,0:0:0:0:
256,192,54638,1,0,0:0:0:0:
256,192,54803,5,8,0:0:0:0:
256,192,54885,1,8,0:0:0:0:
256,192,54968,5,0,0:0:0:0:
256,192,55133,5,8,0:0:0:0:
256,192,55297,1,12,0:0:0:0:
256,192,55545,1,12,0:0:0:0:
256,192,55792,1,12,0:0:0:0:
256,192,55957,5,4,0:0:0:0:
256,192,56616,5,12,0:0:0:0:
256,192,56863,1,8,0:0:0:0:
256,192,56946,1,8,0:0:0:0:
256,192,57111,1,8,0:0:0:0:
256,192,57275,1,8,0:0:0:0:
256,192,57523,1,8,0:0:0:0:
256,192,57605,5,0,0:0:0:0:
256,192,57770,1,0,0:0:0:0:
256,192,57935,1,0,0:0:0:0:
256,192,58182,1,0,0:0:0:0:
256,192,58264,5,8,0:0:0:0:
256,192,58429,5,0,0:0:0:0:
256,192,58594,1,0,0:0:0:0:
256,192,58841,1,0,0:0:0:0:
256,192,58924,5,8,0:0:0:0:
256,192,59089,1,8,0:0:0:0:
256,192,59253,1,8,0:0:0:0:
256,192,59501,1,8,0:0:0:0:
256,192,59583,5,0,0:0:0:0:
256,192,59748,5,8,0:0:0:0:
256,192,59830,5,0,0:0:0:0:
256,192,59913,1,0,0:0:0:0:
256,192,60160,1,0,0:0:0:0:
256,192,60242,5,8,0:0:0:0:
256,192,60407,5,0,0:0:0:0:
256,192,60572,1,0,0:0:0:0:
256,192,60737,1,0,0:0:0:0:
256,192,60819,1,0,0:0:0:0:
256,192,60902,5,8,0:0:0:0:
256,192,61067,5,0,0:0:0:0:
256,192,61232,5,8,0:0:0:0:
256,192,61314,1,8,0:0:0:0:
256,192,61396,5,0,0:0:0:0:
256,192,61479,1,0,0:0:0:0:
256,192,61561,5,8,0:0:0:0:
256,192,61726,5,0,0:0:0:0:
256,192,61891,1,4,0:0:0:0:
256,192,62138,1,0,0:0:0:0:
256,192,62221,5,8,0:0:0:0:
256,192,62385,5,0,0:0:0:0:
256,192,62550,1,0,0:0:0:0:
256,192,62797,5,8,0:0:0:0:
256,192,63045,5,0,0:0:0:0:
256,192,63210,5,12,0:0:0:0:
256,192,63374,1,8,0:0:0:0:
256,192,63457,1,8,0:0:0:0:
256,192,63539,1,8,0:0:0:0:
256,192,63704,1,8,0:0:0:0:
256,192,63869,1,8,0:0:0:0:
256,192,64116,5,0,0:0:0:0:
256,192,64363,1,0,0:0:0:0:
256,192,64528,1,4,0:0:0:0:
256,192,64693,1,0,0:0:0:0:
256,192,64775,1,0,0:0:0:0:
256,192,64858,1,0,0:0:0:0:
256,192,65023,1,0,0:0:0:0:
256,192,65188,1,0,0:0:0:0:
256,192,65435,5,8,0:0:0:0:
256,192,65682,5,0,0:0:0:0:
256,192,65764,5,8,0:0:0:0:
256,192,65847,1,8,0:0:0:0:
256,192,66012,1,12,0:0:0:0:
256,192,66177,1,12,0:0:0:0:
256,192,66341,1,12,0:0:0:0:
256,192,66506,1,12,0:0:0:0:
256,192,66671,5,0,0:0:0:0:
256,192,67001,1,0,0:0:0:0:
256,192,67166,5,12,0:0:0:0:
256,192,67330,1,8,0:0:0:0:
256,192,67413,1,8,0:0:0:0:
256,192,67495,1,8,0:0:0:0:
256,192,67660,1,8,0:0:0:0:
256,192,67825,1,8,0:0:0:0:
256,192,68072,5,0,0:0:0:0:
256,192,68319,1,0,0:0:0:0:
256,192,68484,1,0,0:0:0:0:
256,192,68732,1,0,0:0:0:0:
256,192,68814,5,8,0:0:0:0:
256,192,68979,5,0,0:0:0:0:
256,192,69144,1,0,0:0:0:0:
256,192,69391,1,0,0:0:0:0:
256,192,69473,5,8,0:0:0:0:
256,192,69638,5,8,0:0:0:0:
256,192,69803,1,12,0:0:0:0:
256,192,70050,1,8,0:0:0:0:
256,192,70133,1,8,0:0:0:0:
256,192,70297,5,0,0:0:0:0:
256,192,70627,5,8,0:0:0:0:
256,192,70792,1,8,0:0:0:0:
256,192,70957,5,0,0:0:0:0:
256,192,71122,5,8,0:0:0:0:
256,192,71286,5,0,0:0:0:0:
256,192,71369,1,0,0:0:0:0:
256,192,71451,5,8,0:0:0:0:
256,192,71616,5,0,0:0:0:0:
256,192,71781,5,8,0:0:0:0:
256,192,71863,1,8,0:0:0:0:
256,192,71946,5,0,0:0:0:0:
256,192,72028,1,0,0:0:0:0:
256,192,72111,1,0,0:0:0:0:
256,192,72275,1,0,0:0:0:0:
256,192,72440,5,12,0:0:0:0:
256,192,72605,1,8,0:0:0:0:
256,192,72688,1,8,0:0:0:0:
256,192,72770,1,8,0:0:0:0:
256,192,72935,1,8,0:0:0:0:
256,192,73100,1,8,0:0:0:0:
256,192,73347,5,0,0:0:0:0:
256,192,73594,5,8,0:0:0:0:
256,192,73677,5,0,0:0:0:0:
256,192,73759,1,0,0:0:0:0:
256,192,74418,5,12,0:0:0:0:
256,192,74666,5,0,0:0:0:0:
256,192,74913,1,0,0:0:0:0:
256,192,75078,5,8,0:0:0:0:
256,192,75242,5,0,0:0:0:0:
256,192,75325,1,0,0:0:0:0:
256,192,75407,1,0,0:0:0:0:
256,192,75572,5,8,0:0:0:0:
256,192,75737,5,0,0:0:0:0:
256,192,75902,5,8,0:0:0:0:
256,192,75984,5,0,0:0:0:0:
256,192,76067,5,8,0:0:0:0:
256,192,76232,5,0,0:0:0:0:
256,192,76396,1,0,0:0:0:0:
256,192,76561,5,12,0:0:0:0:
256,192,76726,1,12,0:0:0:0:
256,192,76891,1,12,0:0:0:0:
256,192,77056,5,0,0:0:0:0:
256,192,77138,1,0,0:0:0:0:
256,192,77221,5,8,0:0:0:0:
256,192,77303,1,8,0:0:0:0:
256,192,77385,5,0,0:0:0:0:
256,192,77468,1,0,0:0:0:0:
256,192,77550,5,8,0:0:0:0:
256,192,77715,1,12,0:0:0:0:
256,192,78045,5,0,0:0:0:0:
256,192,78210,5,8,0:0:0:0:
256,192,78374,5,0,0:0:0:0:
256,192,78539,5,8,0:0:0:0:
256,192,78622,1,8,0:0:0:0:
256,192,78704,5,0,0:0:0:0:
256,192,78869,1,0,0:0:0:0:
256,192,79199,1,0,0:0:0:0:
256,192,79363,5,8,0:0:0:0:
256,192,79528,5,0,0:0:0:0:
256,192,79693,1,0,0:0:0:0:
256,192,79858,1,0,0:0:0:0:
256,192,79940,1,0,0:0:0:0:
256,192,80023,5,8,0:0:0:0:
256,192,80188,1,8,0:0:0:0:
256,192,80352,1,8,0:0:0:0:
256,192,80600,5,0,0:0:0:0:
256,192,80682,5,8,0:0:0:0:
256,192,80847,5,0,0:0:0:0:
256,192,81012,5,8,0:0:0:0:
256,192,81177,5,0,0:0:0:0:
256,192,81259,5,8,0:0:0:0:
256,192,81341,5,0,0:0:0:0:
256,192,81506,5,8,0:0:0:0:
256,192,81589,5,0,0:0:0:0:
256,192,81671,1,0,0:0:0:0:
256,192,81918,1,0,0:0:0:0:
256,192,82001,5,8,0:0:0:0:
256,192,82166,5,0,0:0:0:0:
256,192,82330,1,0,0:0:0:0:
256,192,82413,1,0,0:0:0:0:
256,192,82495,5,8,0:0:0:0:
256,192,82578,5,0,0:0:0:0:
256,192,82660,1,0,0:0:0:0:
256,192,82825,5,8,0:0:0:0:
256,192,82990,5,4,0:0:0:0:
256,192,83649,5,12,0:0:0:0:
256,192,83896,5,0,0:0:0:0:
256,192,84144,1,0,0:0:0:0:
256,192,84308,5,8,0:0:0:0:
256,192,84803,1,8,0:0:0:0:
256,192,84968,1,8,0:0:0:0:
256,192,85215,5,0,0:0:0:0:
256,192,85462,1,0,0:0:0:0:
256,192,85627,1,0,0:0:0:0:
256,192,85792,5,8,0:0:0:0:
256,192,85957,5,0,0:0:0:0:
256,192,86039,1,0,0:0:0:0:
256,192,86122,5,8,0:0:0:0:
256,192,86286,5,0,0:0:0:0:
256,192,86451,1,0,0:0:0:0:
256,192,86534,5,8,0:0:0:0:
256,192,86616,5,0,0:0:0:0:
256,192,86781,5,12,0:0:0:0:
256,192,86946,5,0,0:0:0:0:
256,192,87111,5,12,0:0:0:0:
256,192,87275,1,12,0:0:0:0:
256,192,87440,1,12,0:0:0:0:
256,192,87605,1,8,0:0:0:0:
256,192,87688,1,8,0:0:0:0:
256,192,87770,5,0,0:0:0:0:
256,192,87852,1,0,0:0:0:0:
256,192,87935,5,8,0:0:0:0:
256,192,88100,5,0,0:0:0:0:
256,192,88264,5,12,0:0:0:0:
256,192,90737,5,4,0:0:0:0:
256,192,90902,5,12,0:0:0:0:
256,192,92221,5,4,0:0:0:0:
256,192,92880,5,8,0:0:0:0:
256,192,93045,5,0,0:0:0:0:
256,192,93374,1,0,0:0:0:0:
256,192,93539,5,12,0:0:0:0:
256,192,93869,1,8,0:0:0:0:
256,192,94034,5,0,0:0:0:0:
256,192,94199,5,8,0:0:0:0:
256,192,94363,5,0,0:0:0:0:
256,192,94446,1,0,0:0:0:0:
256,192,94528,5,8,0:0:0:0:
256,192,94693,5,0,0:0:0:0:
256,192,94858,5,12,0:0:0:0:
256,192,95188,1,8,0:0:0:0:
256,192,95352,1,8,0:0:0:0:
256,192,95517,5,0,0:0:0:0:
256,192,95682,5,8,0:0:0:0:
256,192,95764,1,8,0:0:0:0:
256,192,95847,1,8,0:0:0:0:
256,192,96012,5,0,0:0:0:0:
256,192,96177,5,12,0:0:0:0:
256,192,96424,1,12,0:0:0:0:
256,192,96671,1,12,0:0:0:0:
256,192,96836,5,4,0:0:0:0:
256,192,97083,1,4,0:0:0:0:
256,192,97330,5,12,0:0:0:0:
256,192,97495,5,4,0:0:0:0:
256,192,98319,1,0,0:0:0:0:
256,192,98484,1,0,0:0:0:0:
256,192,98649,1,0,0:0:0:0:
256,192,98814,5,12,0:0:0:0:
256,192,98979,1,8,0:0:0:0:
256,192,99061,1,8,0:0:0:0:
256,192,99144,1,8,0:0:0:0:
256,192,99308,1,8,0:0:0:0:
256,192,99473,1,8,0:0:0:0:
256,192,99721,1,8,0:0:0:0:
256,192,99803,5,0,0:0:0:0:
256,192,99968,1,0,0:0:0:0:
256,192,100133,1,0,0:0:0:0:
256,192,100380,1,0,0:0:0:0:
256,192,100462,5,8,0:0:0:0:
256,192,100627,5,0,0:0:0:0:
256,192,100792,1,0,0:0:0:0:
256,192,101039,1,0,0:0:0:0:
256,192,101122,5,8,0:0:0:0:
256,192,101286,1,8,0:0:0:0:
256,192,101451,1,8,0:0:0:0:
256,192,101699,1,8,0:0:0:0:
256,192,101781,5,0,0:0:0:0:
256,192,101946,5,8,0:0:0:0:
256,192,102028,5,0,0:0:0:0:
256,192,102111,1,0,0:0:0:0:
256,192,102358,1,0,0:0:0:0:
256,192,102440,5,8,0:0:0:0:
256,192,102605,5,0,0:0:0:0:
256,192,102770,1,0,0:0:0:0:
256,192,102935,1,0,0:0:0:0:
256,192,103017,1,0,0:0:0:0:
256,192,103100,5,8,0:0:0:0:
256,192,103264,5,0,0:0:0:0:
256,192,103429,5,8,0:0:0:0:
256,192,103512,1,8,0:0:0:0:
256,192,103594,5,0,0:0:0:0:
256,192,103677,1,0,0:0:0:0:
256,192,103759,5,8,0:0:0:0:
256,192,103924,5,0,0:0:0:0:
256,192,104089,1,4,0:0:0:0:
256,192,104253,1,0,0:0:0:0:
256,192,104336,1,0,0:0:0:0:
256,192,104418,5,8,0:0:0:0:
256,192,104583,1,8,0:0:0:0:
256,192,104748,5,0,0:0:0:0:
256,192,104913,1,0,0:0:0:0:
256,192,104995,5,8,0:0:0:0:
256,192,105242,5,0,0:0:0:0:
256,192,105407,5,12,0:0:0:0:
256,192,105572,1,8,0:0:0:0:
256,192,105655,1,8,0:0:0:0:
256,192,105737,1,8,0:0:0:0:
256,192,105902,1,8,0:0:0:0:
256,192,106067,1,8,0:0:0:0:
256,192,106232,1,8,0:0:0:0:
256,192,106314,5,0,0:0:0:0:
256,192,106561,1,0,0:0:0:0:
256,192,106726,1,4,0:0:0:0:
256,192,106891,1,0,0:0:0:0:
256,192,106973,1,0,0:0:0:0:
256,192,107056,1,0,0:0:0:0:
256,192,107221,1,0,0:0:0:0:
256,192,107385,1,0,0:0:0:0:
256,192,107550,1,0,0:0:0:0:
256,192,107633,5,8,0:0:0:0:
256,192,107880,5,0,0:0:0:0:
256,192,107962,5,8,0:0:0:0:
256,192,108045,1,8,0:0:0:0:
256,192,108210,1,12,0:0:0:0:
256,192,108374,1,12,0:0:0:0:
256,192,108539,1,12,0:0:0:0:
256,192,108704,1,12,0:0:0:0:
256,192,108869,5,0,0:0:0:0:
256,192,109199,1,0,0:0:0:0:
256,192,109363,5,12,0:0:0:0:
256,192,109528,1,8,0:0:0:0:
256,192,109611,1,8,0:0:0:0:
256,192,109693,1,8,0:0:0:0:
256,192,109858,1,8,0:0:0:0:
256,192,110023,1,8,0:0:0:0:
256,192,110270,1,8,0:0:0:0:
256,192,110352,5,0,0:0:0:0:
256,192,110517,1,0,0:0:0:0:
256,192,110682,1,0,0:0:0:0:
256,192,110847,1,0,0:0:0:0:
256,192,110929,1,0,0:0:0:0:
256,192,111012,5,8,0:0:0:0:
256,192,111177,1,8,0:0:0:0:
256,192,111341,5,0,0:0:0:0:
256,192,111589,1,0,0:0:0:0:
256,192,111671,5,8,0:0:0:0:
256,192,111836,1,8,0:0:0:0:
256,192,112001,1,12,0:0:0:0:
256,192,112248,1,8,0:0:0:0:
256,192,112330,5,0,0:0:0:0:
256,192,112495,1,0,0:0:0:0:
256,192,112825,5,8,0:0:0:0:
256,192,112990,1,8,0:0:0:0:
256,192,113155,5,0,0:0:0:0:
256,192,113319,5,8,0:0:0:0:
256,192,113484,5,0,0:0:0:0:
256,192,113567,1,0,0:0:0:0:
256,192,113649,5,8,0:0:0:0:
256,192,113732,1,8,0:0:0:0:
256,192,113814,5,0,0:0:0:0:
256,192,113979,5,8,0:0:0:0:
256,192,114144,5,0,0:0:0:0:
256,192,114473,1,0,0:0:0:0:
256,192,114638,5,12,0:0:0:0:
256,192,114803,1,8,0:0:0:0:
256,192,114885,1,8,0:0:0:0:
256,192,114968,1,8,0:0:0:0:
256,192,115133,1,8,0:0:0:0:
256,192,115297,1,12,0:0:0:0:
256,192,115545,5,4,0:0:0:0:
256,192,115792,5,12,0:0:0:0:
256,192,115957,5,4,0:0:0:0:
256,192,116616,5,12,0:0:0:0:
256,192,116863,5,0,0:0:0:0:
256,192,117111,1,0,0:0:0:0:
256,192,117275,5,8,0:0:0:0:
256,192,117440,5,0,0:0:0:0:
256,192,117523,1,0,0:0:0:0:
256,192,117605,1,0,0:0:0:0:
256,192,117770,5,8,0:0:0:0:
256,192,117935,5,0,0:0:0:0:
256,192,118017,1,0,0:0:0:0:
256,192,118100,5,8,0:0:0:0:
256,192,118182,1,8,0:0:0:0:
256,192,118264,1,8,0:0:0:0:
256,192,118429,5,0,0:0:0:0:
256,192,118512,1,0,0:0:0:0:
256,192,118594,1,0,0:0:0:0:
256,192,118759,5,12,0:0:0:0:
256,192,118924,1,12,0:0:0:0:
256,192,119089,1,12,0:0:0:0:
256,192,119253,5,0,0:0:0:0:
256,192,119336,1,0,0:0:0:0:
256,192,119418,5,8,0:0:0:0:
256,192,119501,1,8,0:0:0:0:
256,192,119583,5,0,0:0:0:0:
256,192,119666,1,0,0:0:0:0:
256,192,119748,5,8,0:0:0:0:
256,192,119913,5,0,0:0:0:0:
256,192,120078,5,12,0:0:0:0:
256,192,120407,5,0,0:0:0:0:
256,192,120572,5,8,0:0:0:0:
256,192,120737,1,8,0:0:0:0:
256,192,120819,1,8,0:0:0:0:
256,192,120902,1,8,0:0:0:0:
256,192,121067,5,0,0:0:0:0:
256,192,121396,5,8,0:0:0:0:
256,192,121561,5,0,0:0:0:0:
256,192,121644,1,0,0:0:0:0:
256,192,121726,5,8,0:0:0:0:
256,192,121891,1,8,0:0:0:0:
256,192,122138,1,8,0:0:0:0:
256,192,122385,5,0,0:0:0:0:
256,192,122550,1,0,0:0:0:0:
256,192,122633,1,0,0:0:0:0:
256,192,122715,1,0,0:0:0:0:
256,192,122880,5,12,0:0:0:0:
