osu file format v14

[General]
AudioFilename: Sore wa Hanabi no Youna Koi.mp3
AudioLeadIn: 0
PreviewTime: 56514
Countdown: 0
SampleSet: Normal
StackLeniency: 0.7
Mode: 1
LetterboxInBreaks: 0
WidescreenStoryboard: 0

[Editor]
DistanceSpacing: 1.3
BeatDivisor: 4
GridSize: 32
TimelineZoom: 1.3

[Metadata]
Title:Sore wa Hanabi no Youna Koi
TitleUnicode:それは花火のような恋
Artist:Natsuiro Burning Love*Prim
ArtistUnicode:夏色バーニングラブ☆Prim
Creator:Nardoxyribonucleic
Version:Wmf's Inner Oni
Source:BeatStream
Tags:Taiko KONAMI beatmania IIDX 22 PENDUAL jubeat wmfchris aabc271
BeatmapID:1418055
BeatmapSetID:664085

[Difficulty]
HPDrainRate:6
CircleSize:5
OverallDifficulty:6
ApproachRate:7
SliderMultiplier:1.4
SliderTickRate:1

[Events]
//Background and Video events
0,0,"BG.jpg",0,110
//Break Periods
//Storyboard Layer 0 (Background)
//Storyboard Layer 1 (Fail)
//Storyboard Layer 2 (Pass)
//Storyboard Layer 3 (Foreground)
//Storyboard Sound Samples

[TimingPoints]
1232,329.67032967033,4,1,0,100,1,0
11699,-100,4,1,0,50,0,0
12028,-100,4,1,0,100,0,0
14418,-100,4,1,0,80,0,0
24968,-100,4,1,0,85,0,0
35517,-100,4,1,0,90,0,0
40792,-100,4,1,0,85,0,0
46067,-100,4,1,0,90,0,0
56616,-100,4,1,0,100,0,1
77715,-100,4,1,0,85,0,0
88264,-100,4,1,0,75,0,0
93539,-100,4,1,0,90,0,0
98814,-100,4,1,0,100,0,1
119913,-100,4,1,0,100,0,0

[HitObjects]
480,64,1232,5,0,0:0:0:0:
480,64,1314,1,0,0:0:0:0:
480,64,1396,1,0,0:0:0:0:
480,64,1479,1,0,0:0:0:0:
480,64,1561,1,2,0:0:0:0:
480,64,2056,1,0,0:0:0:0:
480,64,2221,1,2,0:0:0:0:
480,64,2385,1,0,0:0:0:0:
480,64,2550,1,0,0:0:0:0:
480,64,2715,1,2,0:0:0:0:
480,64,2880,1,0,0:0:0:0:
480,64,3045,1,0,0:0:0:0:
480,64,3210,1,0,0:0:0:0:
480,64,3292,1,0,0:0:0:0:
480,64,3374,1,2,0:0:0:0:
480,64,3539,1,0,0:0:0:0:
480,64,3704,1,2,0:0:0:0:
480,64,3786,1,0,0:0:0:0:
480,64,3869,1,0,0:0:0:0:
480,64,3951,1,0,0:0:0:0:
480,64,4034,1,2,0:0:0:0:
480,64,4116,1,2,0:0:0:0:
480,64,4199,1,2,0:0:0:0:
480,64,4693,1,0,0:0:0:0:
480,64,4858,1,2,0:0:0:0:
480,64,5023,1,4,0:0:0:0:
480,64,5352,1,4,0:0:0:0:
480,64,5682,1,4,0:0:0:0:
480,64,6012,1,2,0:0:0:0:
480,64,6177,1,0,0:0:0:0:
480,64,6341,1,2,0:0:0:0:
480,64,6396,1,2,0:0:0:0:
480,64,6451,1,2,0:0:0:0:
480,64,6506,1,0,0:0:0:0:
480,64,6671,1,0,0:0:0:0:
480,64,6836,1,0,0:0:0:0:
480,64,6918,1,0,0:0:0:0:
480,64,7001,1,2,0:0:0:0:
480,64,7083,1,2,0:0:0:0:
480,64,7166,1,2,0:0:0:0:
480,64,7330,1,0,0:0:0:0:
480,64,7495,1,2,0:0:0:0:
480,64,7660,1,0,0:0:0:0:
480,64,7825,1,2,0:0:0:0:
480,64,7990,1,0,0:0:0:0:
480,64,8072,1,0,0:0:0:0:
480,64,8155,1,2,0:0:0:0:
480,64,8319,1,0,0:0:0:0:
480,64,8484,1,2,0:0:0:0:
480,64,8567,1,2,0:0:0:0:
480,64,8649,1,0,0:0:0:0:
480,64,8732,1,0,0:0:0:0:
480,64,8814,1,2,0:0:0:0:
480,64,8979,1,0,0:0:0:0:
480,64,9061,1,2,0:0:0:0:
480,64,9144,1,2,0:0:0:0:
480,64,9308,1,0,0:0:0:0:
480,64,9473,1,0,0:0:0:0:
480,64,9556,1,0,0:0:0:0:
480,64,9638,1,0,0:0:0:0:
480,64,9721,1,0,0:0:0:0:
480,64,9803,1,2,0:0:0:0:
480,64,9968,1,0,0:0:0:0:
480,64,10133,1,2,0:0:0:0:
480,64,10297,1,4,0:0:0:0:
480,64,10627,1,4,0:0:0:0:
480,64,10957,1,4,0:0:0:0:
480,64,11286,1,6,0:0:0:0:
480,64,11451,1,6,0:0:0:0:
480,64,11616,1,4,0:0:0:0:
256,192,11699,12,0,11946,0:0:0:0:
480,64,12275,5,0,0:0:0:0:
480,64,12440,1,2,0:0:0:0:
480,64,12605,1,2,0:0:0:0:
480,64,12770,1,2,0:0:0:0:
480,64,12935,1,0,0:0:0:0:
480,64,13100,1,0,0:0:0:0:
480,64,13155,1,2,0:0:0:0:
480,64,13210,1,2,0:0:0:0:
480,64,13264,1,0,0:0:0:0:
480,64,13429,1,0,0:0:0:0:
480,64,13594,1,2,0:0:0:0:
480,64,13649,1,2,0:0:0:0:
480,64,13704,1,0,0:0:0:0:
480,64,13759,1,2,0:0:0:0:
480,64,14006,1,6,0:0:0:0:
480,64,14253,1,4,0:0:0:0:
480,64,14418,1,6,0:0:0:0:
480,64,14666,1,0,0:0:0:0:
480,64,14748,1,2,0:0:0:0:
480,64,14913,1,2,0:0:0:0:
480,64,15078,1,2,0:0:0:0:
480,64,15160,1,2,0:0:0:0:
480,64,15325,1,2,0:0:0:0:
480,64,15407,1,0,0:0:0:0:
480,64,15572,1,2,0:0:0:0:
480,64,15737,1,0,0:0:0:0:
480,64,15902,1,2,0:0:0:0:
480,64,15984,1,2,0:0:0:0:
480,64,16067,1,0,0:0:0:0:
480,64,16232,1,2,0:0:0:0:
480,64,16396,1,0,0:0:0:0:
480,64,16644,1,0,0:0:0:0:
480,64,16891,1,2,0:0:0:0:
480,64,17056,1,2,0:0:0:0:
480,64,17138,1,0,0:0:0:0:
480,64,17303,1,2,0:0:0:0:
480,64,17385,1,0,0:0:0:0:
480,64,17550,1,2,0:0:0:0:
480,64,17715,1,0,0:0:0:0:
480,64,17797,1,2,0:0:0:0:
480,64,17962,1,2,0:0:0:0:
480,64,18045,1,0,0:0:0:0:
480,64,18210,1,2,0:0:0:0:
480,64,18374,1,0,0:0:0:0:
480,64,18457,1,0,0:0:0:0:
480,64,18539,1,2,0:0:0:0:
480,64,18622,1,2,0:0:0:0:
480,64,18704,1,0,0:0:0:0:
480,64,18786,1,0,0:0:0:0:
480,64,18869,1,2,0:0:0:0:
480,64,19034,1,2,0:0:0:0:
480,64,19116,1,0,0:0:0:0:
480,64,19199,1,0,0:0:0:0:
480,64,19363,1,0,0:0:0:0:
480,64,19528,1,0,0:0:0:0:
480,64,19611,1,0,0:0:0:0:
480,64,19693,1,2,0:0:0:0:
480,64,19858,1,2,0:0:0:0:
480,64,19940,1,2,0:0:0:0:
480,64,20023,1,0,0:0:0:0:
480,64,20188,1,2,0:0:0:0:
480,64,20517,1,2,0:0:0:0:
480,64,20682,1,0,0:0:0:0:
480,64,20847,1,0,0:0:0:0:
480,64,21012,1,2,0:0:0:0:
480,64,21177,1,0,0:0:0:0:
480,64,21259,1,0,0:0:0:0:
480,64,21341,1,2,0:0:0:0:
480,64,21506,1,0,0:0:0:0:
480,64,21671,1,2,0:0:0:0:
480,64,21753,1,2,0:0:0:0:
480,64,21836,1,0,0:0:0:0:
480,64,22001,1,2,0:0:0:0:
480,64,22083,1,0,0:0:0:0:
480,64,22166,1,0,0:0:0:0:
480,64,22330,1,0,0:0:0:0:
480,64,22413,1,0,0:0:0:0:
480,64,22578,1,0,0:0:0:0:
480,64,22660,1,2,0:0:0:0:
480,64,22825,1,2,0:0:0:0:
480,64,22990,1,0,0:0:0:0:
480,64,23072,1,2,0:0:0:0:
480,64,23237,1,0,0:0:0:0:
480,64,23319,1,0,0:0:0:0:
480,64,23484,1,2,0:0:0:0:
480,64,23649,1,2,0:0:0:0:
480,64,23732,1,2,0:0:0:0:
480,64,23814,1,0,0:0:0:0:
480,64,23896,1,0,0:0:0:0:
480,64,23979,1,2,0:0:0:0:
480,64,24061,1,0,0:0:0:0:
480,64,24144,1,0,0:0:0:0:
480,64,24308,1,0,0:0:0:0:
480,64,24473,1,0,0:0:0:0:
480,64,24638,1,2,0:0:0:0:
480,64,24803,1,0,0:0:0:0:
480,64,24858,1,0,0:0:0:0:
480,64,24913,1,0,0:0:0:0:
480,64,24968,1,2,0:0:0:0:
480,64,25133,1,2,0:0:0:0:
480,64,25297,1,2,0:0:0:0:
480,64,25462,1,2,0:0:0:0:
480,64,25627,1,2,0:0:0:0:
480,64,25710,1,0,0:0:0:0:
480,64,25874,1,0,0:0:0:0:
480,64,25957,1,0,0:0:0:0:
480,64,26122,1,0,0:0:0:0:
480,64,26286,1,2,0:0:0:0:
480,64,26451,1,0,0:0:0:0:
480,64,26616,1,2,0:0:0:0:
480,64,26781,1,2,0:0:0:0:
480,64,26863,1,0,0:0:0:0:
480,64,26946,1,2,0:0:0:0:
480,64,27193,1,2,0:0:0:0:
480,64,27440,1,0,0:0:0:0:
480,64,27605,1,0,0:0:0:0:
480,64,27688,1,0,0:0:0:0:
480,64,27852,1,2,0:0:0:0:
480,64,27935,1,0,0:0:0:0:
480,64,28100,1,2,0:0:0:0:
480,64,28264,1,0,0:0:0:0:
480,64,28347,1,2,0:0:0:0:
480,64,28512,1,2,0:0:0:0:
480,64,28594,1,0,0:0:0:0:
480,64,28759,1,2,0:0:0:0:
480,64,28924,1,0,0:0:0:0:
480,64,29006,1,2,0:0:0:0:
480,64,29089,1,2,0:0:0:0:
480,64,29171,1,2,0:0:0:0:
480,64,29253,1,0,0:0:0:0:
480,64,29336,1,0,0:0:0:0:
480,64,29418,1,2,0:0:0:0:
480,64,29583,1,0,0:0:0:0:
480,64,29666,1,2,0:0:0:0:
480,64,29748,1,0,0:0:0:0:
480,64,29913,1,0,0:0:0:0:
480,64,30078,1,0,0:0:0:0:
480,64,30160,1,0,0:0:0:0:
480,64,30242,1,2,0:0:0:0:
480,64,30407,1,0,0:0:0:0:
480,64,30572,1,2,0:0:0:0:
480,64,30737,1,2,0:0:0:0:
480,64,30902,1,2,0:0:0:0:
480,64,30984,1,2,0:0:0:0:
480,64,31149,1,2,0:0:0:0:
480,64,31232,1,0,0:0:0:0:
480,64,31396,1,2,0:0:0:0:
480,64,31561,1,0,0:0:0:0:
480,64,31891,1,0,0:0:0:0:
480,64,32056,1,0,0:0:0:0:
480,64,32221,1,0,0:0:0:0:
480,64,32468,1,2,0:0:0:0:
480,64,32715,1,0,0:0:0:0:
480,64,32880,1,2,0:0:0:0:
480,64,32962,1,0,0:0:0:0:
480,64,33045,1,0,0:0:0:0:
480,64,33210,1,2,0:0:0:0:
480,64,33292,1,2,0:0:0:0:
480,64,33374,1,0,0:0:0:0:
480,64,33539,1,0,0:0:0:0:
480,64,33622,1,0,0:0:0:0:
480,64,33704,1,2,0:0:0:0:
480,64,33786,1,0,0:0:0:0:
480,64,33869,1,2,0:0:0:0:
480,64,33951,1,0,0:0:0:0:
480,64,34034,1,0,0:0:0:0:
480,64,34116,1,0,0:0:0:0:
480,64,34199,1,2,0:0:0:0:
480,64,34363,1,0,0:0:0:0:
480,64,34446,1,2,0:0:0:0:
480,64,34528,1,2,0:0:0:0:
480,64,34693,1,0,0:0:0:0:
480,64,34858,1,2,0:0:0:0:
480,64,35023,1,2,0:0:0:0:
480,64,35078,1,0,0:0:0:0:
480,64,35133,1,0,0:0:0:0:
480,64,35188,1,2,0:0:0:0:
480,64,35352,1,0,0:0:0:0:
480,64,35407,1,0,0:0:0:0:
480,64,35462,1,0,0:0:0:0:
480,64,35517,1,2,0:0:0:0:
480,64,35682,1,2,0:0:0:0:
480,64,35847,1,2,0:0:0:0:
480,64,36012,1,6,0:0:0:0:
480,64,36177,1,4,0:0:0:0:
480,64,36424,1,0,0:0:0:0:
480,64,36671,1,6,0:0:0:0:
480,64,36836,1,0,0:0:0:0:
480,64,37001,1,6,0:0:0:0:
480,64,37330,1,4,0:0:0:0:
480,64,37495,1,4,0:0:0:0:
480,64,37742,1,6,0:0:0:0:
480,64,37990,1,4,0:0:0:0:
480,64,38155,1,6,0:0:0:0:
480,64,38402,1,0,0:0:0:0:
480,64,38649,1,6,0:0:0:0:
480,64,38814,1,4,0:0:0:0:
480,64,39061,1,0,0:0:0:0:
480,64,39308,1,6,0:0:0:0:
480,64,39473,1,0,0:0:0:0:
480,64,39638,1,4,0:0:0:0:
480,64,39968,5,4,0:0:0:0:
480,64,40133,1,4,0:0:0:0:
480,64,40380,1,6,0:0:0:0:
480,64,40627,1,6,0:0:0:0:
480,64,40792,5,0,0:0:0:0:
480,64,40957,1,2,0:0:0:0:
480,64,41122,1,2,0:0:0:0:
480,64,41286,1,0,0:0:0:0:
480,64,41451,1,0,0:0:0:0:
480,64,41616,1,2,0:0:0:0:
480,64,41699,1,2,0:0:0:0:
480,64,41781,1,0,0:0:0:0:
480,64,41946,1,2,0:0:0:0:
480,64,42028,1,0,0:0:0:0:
480,64,42111,1,0,0:0:0:0:
480,64,42275,1,2,0:0:0:0:
480,64,42605,1,0,0:0:0:0:
480,64,42770,1,0,0:0:0:0:
480,64,42852,1,0,0:0:0:0:
480,64,43017,1,2,0:0:0:0:
480,64,43100,1,0,0:0:0:0:
480,64,43264,1,0,0:0:0:0:
480,64,43429,1,2,0:0:0:0:
480,64,43594,1,0,0:0:0:0:
480,64,43677,1,0,0:0:0:0:
480,64,43759,1,2,0:0:0:0:
480,64,43924,1,0,0:0:0:0:
480,64,44089,1,0,0:0:0:0:
480,64,44171,1,0,0:0:0:0:
480,64,44253,1,2,0:0:0:0:
480,64,44336,1,2,0:0:0:0:
480,64,44418,1,0,0:0:0:0:
480,64,44583,1,0,0:0:0:0:
480,64,44748,1,0,0:0:0:0:
480,64,44830,1,0,0:0:0:0:
480,64,44913,1,2,0:0:0:0:
480,64,44995,1,2,0:0:0:0:
480,64,45078,1,0,0:0:0:0:
480,64,45160,1,2,0:0:0:0:
480,64,45242,1,2,0:0:0:0:
480,64,45407,1,0,0:0:0:0:
480,64,45490,1,0,0:0:0:0:
480,64,45572,1,2,0:0:0:0:
480,64,45737,1,0,0:0:0:0:
480,64,45792,1,0,0:0:0:0:
480,64,45847,1,0,0:0:0:0:
480,64,45902,1,0,0:0:0:0:
480,64,46067,1,2,0:0:0:0:
480,64,46232,1,2,0:0:0:0:
480,64,46396,1,2,0:0:0:0:
480,64,46561,1,2,0:0:0:0:
480,64,46726,1,0,0:0:0:0:
480,64,46808,1,0,0:0:0:0:
480,64,46973,1,0,0:0:0:0:
480,64,47056,1,0,0:0:0:0:
480,64,47221,1,0,0:0:0:0:
480,64,47303,1,0,0:0:0:0:
480,64,47385,1,2,0:0:0:0:
480,64,47550,1,0,0:0:0:0:
480,64,47880,1,0,0:0:0:0:
480,64,48045,1,0,0:0:0:0:
480,64,48292,1,2,0:0:0:0:
480,64,48539,1,0,0:0:0:0:
480,64,48704,1,2,0:0:0:0:
480,64,48786,1,2,0:0:0:0:
480,64,48951,1,2,0:0:0:0:
480,64,49034,1,0,0:0:0:0:
480,64,49199,1,2,0:0:0:0:
480,64,49363,1,0,0:0:0:0:
480,64,49446,1,0,0:0:0:0:
480,64,49611,1,2,0:0:0:0:
480,64,49693,1,0,0:0:0:0:
480,64,49858,1,2,0:0:0:0:
480,64,50023,1,0,0:0:0:0:
480,64,50105,1,0,0:0:0:0:
480,64,50188,1,2,0:0:0:0:
480,64,50270,1,0,0:0:0:0:
480,64,50352,1,0,0:0:0:0:
480,64,50517,1,0,0:0:0:0:
480,64,50682,1,0,0:0:0:0:
480,64,50764,1,2,0:0:0:0:
480,64,50847,1,2,0:0:0:0:
480,64,51012,1,0,0:0:0:0:
480,64,51177,1,0,0:0:0:0:
480,64,51259,1,0,0:0:0:0:
480,64,51341,1,2,0:0:0:0:
256,192,51506,12,0,52660,0:0:0:0:
480,64,52990,5,2,0:0:0:0:
480,64,53155,1,2,0:0:0:0:
480,64,53319,1,0,0:0:0:0:
480,64,53484,1,2,0:0:0:0:
480,64,53567,1,2,0:0:0:0:
480,64,53649,1,0,0:0:0:0:
480,64,53814,1,2,0:0:0:0:
480,64,53896,1,0,0:0:0:0:
480,64,53979,1,0,0:0:0:0:
480,64,54144,1,0,0:0:0:0:
480,64,54226,1,0,0:0:0:0:
480,64,54308,1,2,0:0:0:0:
480,64,54391,1,0,0:0:0:0:
480,64,54473,1,0,0:0:0:0:
480,64,54556,1,0,0:0:0:0:
480,64,54638,1,2,0:0:0:0:
480,64,54721,1,2,0:0:0:0:
480,64,54803,1,0,0:0:0:0:
480,64,54885,1,0,0:0:0:0:
480,64,54968,1,2,0:0:0:0:
480,64,55050,1,2,0:0:0:0:
480,64,55133,1,0,0:0:0:0:
480,64,55215,1,0,0:0:0:0:
480,64,55297,1,2,0:0:0:0:
480,64,55545,1,6,0:0:0:0:
480,64,55792,1,6,0:0:0:0:
480,64,55957,1,4,0:0:0:0:
480,64,56286,1,0,0:0:0:0:
480,64,56451,1,0,0:0:0:0:
480,64,56506,1,0,0:0:0:0:
480,64,56561,1,0,0:0:0:0:
480,64,56616,1,2,0:0:0:0:
480,64,56863,1,2,0:0:0:0:
480,64,56946,1,2,0:0:0:0:
480,64,57111,1,2,0:0:0:0:
480,64,57275,1,0,0:0:0:0:
480,64,57358,1,2,0:0:0:0:
480,64,57523,1,2,0:0:0:0:
480,64,57605,1,0,0:0:0:0:
480,64,57770,1,0,0:0:0:0:
480,64,57935,1,0,0:0:0:0:
480,64,58100,1,2,0:0:0:0:
480,64,58182,1,0,0:0:0:0:
480,64,58264,1,0,0:0:0:0:
480,64,58429,1,2,0:0:0:0:
480,64,58594,1,0,0:0:0:0:
480,64,58677,1,2,0:0:0:0:
480,64,58759,1,2,0:0:0:0:
480,64,58841,1,2,0:0:0:0:
480,64,58924,1,0,0:0:0:0:
480,64,59089,1,2,0:0:0:0:
480,64,59253,1,2,0:0:0:0:
480,64,59501,1,0,0:0:0:0:
480,64,59748,1,2,0:0:0:0:
480,64,59830,1,0,0:0:0:0:
480,64,59913,1,0,0:0:0:0:
480,64,60078,1,0,0:0:0:0:
480,64,60160,1,2,0:0:0:0:
480,64,60242,1,0,0:0:0:0:
480,64,60407,1,2,0:0:0:0:
480,64,60572,1,0,0:0:0:0:
480,64,60655,1,0,0:0:0:0:
480,64,60737,1,2,0:0:0:0:
480,64,60819,1,0,0:0:0:0:
480,64,60902,1,2,0:0:0:0:
480,64,60984,1,0,0:0:0:0:
480,64,61067,1,0,0:0:0:0:
480,64,61149,1,2,0:0:0:0:
480,64,61232,1,2,0:0:0:0:
480,64,61314,1,0,0:0:0:0:
480,64,61396,1,2,0:0:0:0:
480,64,61479,1,0,0:0:0:0:
480,64,61561,1,2,0:0:0:0:
480,64,61644,1,0,0:0:0:0:
480,64,61726,1,0,0:0:0:0:
480,64,61808,1,0,0:0:0:0:
480,64,61891,1,2,0:0:0:0:
480,64,62138,1,0,0:0:0:0:
480,64,62221,1,0,0:0:0:0:
480,64,62385,1,0,0:0:0:0:
480,64,62550,1,0,0:0:0:0:
480,64,62633,1,2,0:0:0:0:
480,64,62797,1,0,0:0:0:0:
480,64,62880,1,2,0:0:0:0:
480,64,63045,1,0,0:0:0:0:
480,64,63210,1,4,0:0:0:0:
480,64,63374,1,2,0:0:0:0:
480,64,63457,1,2,0:0:0:0:
480,64,63539,1,2,0:0:0:0:
480,64,63704,1,2,0:0:0:0:
480,64,63869,1,0,0:0:0:0:
480,64,63951,1,0,0:0:0:0:
480,64,64116,1,2,0:0:0:0:
480,64,64199,1,0,0:0:0:0:
480,64,64363,1,2,0:0:0:0:
480,64,64528,1,4,0:0:0:0:
480,64,64693,1,0,0:0:0:0:
480,64,64775,1,0,0:0:0:0:
480,64,64858,1,0,0:0:0:0:
480,64,65023,1,0,0:0:0:0:
480,64,65188,1,0,0:0:0:0:
480,64,65270,1,0,0:0:0:0:
480,64,65435,1,0,0:0:0:0:
480,64,65517,1,2,0:0:0:0:
480,64,65600,1,2,0:0:0:0:
480,64,65682,1,0,0:0:0:0:
480,64,65764,1,0,0:0:0:0:
480,64,65847,1,2,0:0:0:0:
480,64,66012,1,4,0:0:0:0:
480,64,66177,1,4,0:0:0:0:
480,64,66341,1,4,0:0:0:0:
480,64,66506,1,4,0:0:0:0:
480,64,66671,1,0,0:0:0:0:
480,64,66753,1,0,0:0:0:0:
480,64,66836,1,0,0:0:0:0:
480,64,67001,1,0,0:0:0:0:
480,64,67083,1,0,0:0:0:0:
480,64,67166,1,2,0:0:0:0:
480,64,67330,1,2,0:0:0:0:
480,64,67413,1,2,0:0:0:0:
480,64,67495,1,2,0:0:0:0:
480,64,67660,1,2,0:0:0:0:
480,64,67825,1,0,0:0:0:0:
480,64,67907,1,0,0:0:0:0:
480,64,68072,1,2,0:0:0:0:
480,64,68155,1,0,0:0:0:0:
480,64,68319,1,2,0:0:0:0:
480,64,68484,1,0,0:0:0:0:
480,64,68649,1,2,0:0:0:0:
480,64,68732,1,2,0:0:0:0:
480,64,68814,1,0,0:0:0:0:
480,64,68979,1,0,0:0:0:0:
480,64,69144,1,0,0:0:0:0:
480,64,69226,1,0,0:0:0:0:
480,64,69391,1,2,0:0:0:0:
480,64,69473,1,2,0:0:0:0:
480,64,69556,1,0,0:0:0:0:
480,64,69638,1,2,0:0:0:0:
480,64,69803,1,2,0:0:0:0:
480,64,69885,1,2,0:0:0:0:
480,64,70050,1,2,0:0:0:0:
480,64,70133,1,0,0:0:0:0:
480,64,70297,1,0,0:0:0:0:
480,64,70462,1,2,0:0:0:0:
480,64,70545,1,0,0:0:0:0:
480,64,70710,1,0,0:0:0:0:
480,64,70792,1,0,0:0:0:0:
480,64,70957,1,2,0:0:0:0:
192,64,71122,1,2,0:0:0:0:
192,64,71204,1,0,0:0:0:0:
192,64,71286,1,0,0:0:0:0:
192,64,71369,1,2,0:0:0:0:
192,64,71451,1,2,0:0:0:0:
192,64,71534,1,0,0:0:0:0:
192,64,71616,1,0,0:0:0:0:
192,64,71699,1,2,0:0:0:0:
192,64,71781,1,2,0:0:0:0:
192,64,71863,1,2,0:0:0:0:
192,64,71946,1,0,0:0:0:0:
192,64,72111,1,0,0:0:0:0:
480,64,72275,1,0,0:0:0:0:
480,64,72440,1,2,0:0:0:0:
480,64,72605,1,2,0:0:0:0:
480,64,72688,1,2,0:0:0:0:
480,64,72770,1,0,0:0:0:0:
480,64,72935,1,2,0:0:0:0:
480,64,73100,1,0,0:0:0:0:
480,64,73347,1,2,0:0:0:0:
480,64,73594,1,2,0:0:0:0:
480,64,73759,1,4,0:0:0:0:
480,64,74089,1,0,0:0:0:0:
480,64,74253,1,0,0:0:0:0:
480,64,74418,1,6,0:0:0:0:
480,64,74666,1,6,0:0:0:0:
480,64,74913,1,6,0:0:0:0:
480,64,75078,1,4,0:0:0:0:
480,64,75242,1,0,0:0:0:0:
480,64,75325,1,0,0:0:0:0:
480,64,75407,1,2,0:0:0:0:
480,64,75572,1,0,0:0:0:0:
480,64,75737,1,0,0:0:0:0:
480,64,75819,1,0,0:0:0:0:
480,64,75984,1,2,0:0:0:0:
480,64,76067,1,2,0:0:0:0:
480,64,76232,1,2,0:0:0:0:
480,64,76314,1,0,0:0:0:0:
480,64,76396,1,0,0:0:0:0:
256,192,76561,12,0,77550,0:0:0:0:
480,64,77715,5,2,0:0:0:0:
480,64,77962,1,0,0:0:0:0:
480,64,78045,1,0,0:0:0:0:
480,64,78210,1,2,0:0:0:0:
480,64,78374,1,2,0:0:0:0:
480,64,78622,1,2,0:0:0:0:
480,64,78704,1,0,0:0:0:0:
480,64,78869,1,0,0:0:0:0:
480,64,79034,1,0,0:0:0:0:
480,64,79199,1,2,0:0:0:0:
480,64,79281,1,2,0:0:0:0:
480,64,79363,1,2,0:0:0:0:
480,64,79528,1,0,0:0:0:0:
480,64,79693,1,0,0:0:0:0:
480,64,79775,1,2,0:0:0:0:
480,64,79940,1,2,0:0:0:0:
480,64,80023,1,2,0:0:0:0:
480,64,80188,1,2,0:0:0:0:
480,64,80352,1,2,0:0:0:0:
480,64,80435,1,0,0:0:0:0:
480,64,80600,1,2,0:0:0:0:
480,64,80682,1,0,0:0:0:0:
480,64,80847,1,2,0:0:0:0:
480,64,81012,1,0,0:0:0:0:
480,64,81094,1,2,0:0:0:0:
480,64,81259,1,2,0:0:0:0:
480,64,81341,1,0,0:0:0:0:
480,64,81506,1,2,0:0:0:0:
480,64,81589,1,2,0:0:0:0:
480,64,81671,1,0,0:0:0:0:
480,64,81836,1,0,0:0:0:0:
480,64,81918,1,0,0:0:0:0:
480,64,82001,1,2,0:0:0:0:
480,64,82083,1,0,0:0:0:0:
480,64,82166,1,2,0:0:0:0:
480,64,82330,1,2,0:0:0:0:
480,64,82413,1,2,0:0:0:0:
480,64,82495,1,0,0:0:0:0:
480,64,82578,1,0,0:0:0:0:
480,64,82660,1,2,0:0:0:0:
480,64,82825,1,0,0:0:0:0:
480,64,82990,1,4,0:0:0:0:
480,64,83649,1,6,0:0:0:0:
480,64,83896,1,4,0:0:0:0:
480,64,84144,1,4,0:0:0:0:
480,64,84308,1,6,0:0:0:0:
480,64,84803,1,6,0:0:0:0:
480,64,84968,1,6,0:0:0:0:
480,64,85215,1,4,0:0:0:0:
480,64,85462,1,4,0:0:0:0:
480,64,85627,1,4,0:0:0:0:
480,64,85792,1,0,0:0:0:0:
480,64,85957,1,0,0:0:0:0:
480,64,86122,1,0,0:0:0:0:
480,64,86286,1,0,0:0:0:0:
480,64,86451,1,0,0:0:0:0:
480,64,86616,1,0,0:0:0:0:
480,64,86781,1,0,0:0:0:0:
480,64,86946,1,0,0:0:0:0:
480,64,87028,1,0,0:0:0:0:
480,64,87111,1,0,0:0:0:0:
480,64,87193,1,0,0:0:0:0:
480,64,87275,1,2,0:0:0:0:
480,64,87358,1,2,0:0:0:0:
480,64,87440,1,2,0:0:0:0:
480,64,87523,1,2,0:0:0:0:
480,64,87605,1,0,0:0:0:0:
480,64,87770,1,0,0:0:0:0:
480,64,87825,1,2,0:0:0:0:
480,64,87880,1,2,0:0:0:0:
480,64,87935,1,0,0:0:0:0:
480,64,88100,1,0,0:0:0:0:
480,64,88155,1,0,0:0:0:0:
480,64,88210,1,0,0:0:0:0:
480,64,88264,1,2,0:0:0:0:
480,64,88429,1,2,0:0:0:0:
480,64,88594,1,2,0:0:0:0:
480,64,88759,1,2,0:0:0:0:
480,64,88924,1,0,0:0:0:0:
480,64,89171,1,0,0:0:0:0:
480,64,89418,1,0,0:0:0:0:
480,64,89501,1,0,0:0:0:0:
480,64,89583,1,2,0:0:0:0:
480,64,90078,1,0,0:0:0:0:
480,64,90242,1,0,0:0:0:0:
480,64,90490,1,2,0:0:0:0:
480,64,90737,1,4,0:0:0:0:
480,64,90902,1,6,0:0:0:0:
480,64,91149,1,2,0:0:0:0:
480,64,91396,1,0,0:0:0:0:
480,64,91561,1,0,0:0:0:0:
480,64,91808,1,0,0:0:0:0:
480,64,92056,1,2,0:0:0:0:
480,64,92221,1,4,0:0:0:0:
480,64,92550,1,0,0:0:0:0:
480,64,92880,1,0,0:0:0:0:
480,64,93045,1,0,0:0:0:0:
480,64,93210,1,0,0:0:0:0:
480,64,93374,1,0,0:0:0:0:
480,64,93429,1,0,0:0:0:0:
480,64,93484,1,0,0:0:0:0:
480,64,93539,1,2,0:0:0:0:
480,64,93704,1,2,0:0:0:0:
480,64,93786,1,0,0:0:0:0:
480,64,93869,1,0,0:0:0:0:
480,64,94034,1,2,0:0:0:0:
480,64,94199,1,0,0:0:0:0:
480,64,94281,1,2,0:0:0:0:
480,64,94363,1,2,0:0:0:0:
480,64,94446,1,2,0:0:0:0:
480,64,94528,1,0,0:0:0:0:
480,64,94693,1,2,0:0:0:0:
480,64,94775,1,0,0:0:0:0:
480,64,94858,1,0,0:0:0:0:
480,64,95023,1,2,0:0:0:0:
480,64,95188,1,0,0:0:0:0:
480,64,95352,1,2,0:0:0:0:
480,64,95517,1,2,0:0:0:0:
480,64,95600,1,0,0:0:0:0:
480,64,95764,1,0,0:0:0:0:
480,64,95847,1,2,0:0:0:0:
480,64,96012,1,0,0:0:0:0:
480,64,96177,1,0,0:0:0:0:
480,64,96259,1,2,0:0:0:0:
480,64,96424,1,2,0:0:0:0:
480,64,96506,1,2,0:0:0:0:
480,64,96671,1,2,0:0:0:0:
480,64,96836,1,2,0:0:0:0:
480,64,96918,1,0,0:0:0:0:
480,64,97083,1,0,0:0:0:0:
480,64,97166,1,2,0:0:0:0:
480,64,97330,1,2,0:0:0:0:
480,64,97495,1,4,0:0:0:0:
480,64,98319,1,0,0:0:0:0:
480,64,98484,1,0,0:0:0:0:
480,64,98649,1,0,0:0:0:0:
480,64,98704,1,0,0:0:0:0:
480,64,98759,1,0,0:0:0:0:
480,64,98814,1,2,0:0:0:0:
480,64,99061,1,0,0:0:0:0:
480,64,99144,1,2,0:0:0:0:
480,64,99308,1,2,0:0:0:0:
480,64,99473,1,2,0:0:0:0:
480,64,99556,1,0,0:0:0:0:
480,64,99721,1,2,0:0:0:0:
480,64,99803,1,0,0:0:0:0:
480,64,99968,1,0,0:0:0:0:
480,64,100133,1,0,0:0:0:0:
480,64,100297,1,2,0:0:0:0:
480,64,100380,1,2,0:0:0:0:
480,64,100462,1,0,0:0:0:0:
480,64,100627,1,2,0:0:0:0:
480,64,100792,1,0,0:0:0:0:
480,64,100874,1,2,0:0:0:0:
480,64,101039,1,2,0:0:0:0:
480,64,101122,1,0,0:0:0:0:
480,64,101204,1,2,0:0:0:0:
480,64,101286,1,2,0:0:0:0:
480,64,101451,1,2,0:0:0:0:
480,64,101699,1,0,0:0:0:0:
480,64,101946,1,2,0:0:0:0:
480,64,102028,1,0,0:0:0:0:
480,64,102111,1,0,0:0:0:0:
480,64,102275,1,0,0:0:0:0:
480,64,102358,1,2,0:0:0:0:
480,64,102440,1,2,0:0:0:0:
480,64,102605,1,0,0:0:0:0:
480,64,102688,1,2,0:0:0:0:
480,64,102770,1,0,0:0:0:0:
480,64,102852,1,0,0:0:0:0:
480,64,102935,1,0,0:0:0:0:
480,64,103017,1,0,0:0:0:0:
480,64,103100,1,2,0:0:0:0:
480,64,103182,1,0,0:0:0:0:
480,64,103264,1,0,0:0:0:0:
480,64,103347,1,2,0:0:0:0:
480,64,103429,1,2,0:0:0:0:
480,64,103512,1,0,0:0:0:0:
480,64,103594,1,2,0:0:0:0:
480,64,103677,1,0,0:0:0:0:
480,64,103759,1,2,0:0:0:0:
480,64,103841,1,0,0:0:0:0:
480,64,103924,1,0,0:0:0:0:
480,64,104006,1,0,0:0:0:0:
480,64,104089,1,2,0:0:0:0:
480,64,104253,1,0,0:0:0:0:
480,64,104418,1,0,0:0:0:0:
480,64,104583,1,0,0:0:0:0:
480,64,104748,1,0,0:0:0:0:
480,64,104830,1,2,0:0:0:0:
480,64,104995,1,0,0:0:0:0:
480,64,105078,1,2,0:0:0:0:
480,64,105242,1,0,0:0:0:0:
480,64,105407,1,2,0:0:0:0:
480,64,105572,1,2,0:0:0:0:
480,64,105655,1,2,0:0:0:0:
480,64,105737,1,0,0:0:0:0:
480,64,105902,1,2,0:0:0:0:
480,64,106067,1,0,0:0:0:0:
480,64,106149,1,2,0:0:0:0:
480,64,106314,1,2,0:0:0:0:
480,64,106396,1,0,0:0:0:0:
480,64,106561,1,2,0:0:0:0:
480,64,106726,1,0,0:0:0:0:
480,64,106891,1,2,0:0:0:0:
480,64,106973,1,0,0:0:0:0:
480,64,107056,1,0,0:0:0:0:
480,64,107221,1,2,0:0:0:0:
480,64,107385,1,0,0:0:0:0:
480,64,107468,1,0,0:0:0:0:
480,64,107633,1,0,0:0:0:0:
480,64,107715,1,2,0:0:0:0:
480,64,107797,1,2,0:0:0:0:
480,64,107880,1,0,0:0:0:0:
480,64,107962,1,0,0:0:0:0:
480,64,108045,1,2,0:0:0:0:
480,64,108210,1,4,0:0:0:0:
480,64,108374,1,4,0:0:0:0:
480,64,108539,1,4,0:0:0:0:
480,64,108704,1,4,0:0:0:0:
480,64,108869,1,0,0:0:0:0:
480,64,108951,1,2,0:0:0:0:
480,64,109034,1,0,0:0:0:0:
480,64,109199,1,0,0:0:0:0:
480,64,109281,1,2,0:0:0:0:
480,64,109363,1,2,0:0:0:0:
480,64,109528,1,2,0:0:0:0:
480,64,109611,1,2,0:0:0:0:
480,64,109693,1,2,0:0:0:0:
480,64,109858,1,2,0:0:0:0:
480,64,110023,1,0,0:0:0:0:
480,64,110105,1,2,0:0:0:0:
480,64,110270,1,2,0:0:0:0:
480,64,110352,1,0,0:0:0:0:
480,64,110517,1,2,0:0:0:0:
480,64,110682,1,0,0:0:0:0:
480,64,110847,1,0,0:0:0:0:
480,64,110929,1,2,0:0:0:0:
480,64,111012,1,0,0:0:0:0:
480,64,111177,1,0,0:0:0:0:
480,64,111341,1,0,0:0:0:0:
480,64,111424,1,0,0:0:0:0:
480,64,111589,1,0,0:0:0:0:
480,64,111671,1,2,0:0:0:0:
480,64,111836,1,2,0:0:0:0:
480,64,112001,1,2,0:0:0:0:
480,64,112083,1,2,0:0:0:0:
480,64,112248,1,2,0:0:0:0:
480,64,112330,1,0,0:0:0:0:
480,64,112413,1,2,0:0:0:0:
480,64,112495,1,2,0:0:0:0:
480,64,112660,1,0,0:0:0:0:
480,64,112825,1,2,0:0:0:0:
480,64,112907,1,2,0:0:0:0:
480,64,112990,1,2,0:0:0:0:
480,64,113155,1,2,0:0:0:0:
480,64,113319,1,0,0:0:0:0:
480,64,113402,1,2,0:0:0:0:
480,64,113484,1,2,0:0:0:0:
480,64,113567,1,0,0:0:0:0:
480,64,113649,1,2,0:0:0:0:
480,64,113732,1,2,0:0:0:0:
480,64,113814,1,2,0:0:0:0:
480,64,113896,1,2,0:0:0:0:
480,64,113979,1,0,0:0:0:0:
480,64,114144,1,0,0:0:0:0:
480,64,114226,1,0,0:0:0:0:
480,64,114308,1,0,0:0:0:0:
480,64,114473,1,0,0:0:0:0:
480,64,114638,1,2,0:0:0:0:
480,64,114803,1,2,0:0:0:0:
480,64,114885,1,0,0:0:0:0:
480,64,114968,1,2,0:0:0:0:
480,64,115133,1,2,0:0:0:0:
480,64,115297,1,6,0:0:0:0:
480,64,115545,1,6,0:0:0:0:
480,64,115792,1,4,0:0:0:0:
480,64,115957,1,4,0:0:0:0:
480,64,116286,1,0,0:0:0:0:
480,64,116616,1,6,0:0:0:0:
480,64,116863,1,4,0:0:0:0:
480,64,117111,1,4,0:0:0:0:
480,64,117275,1,0,0:0:0:0:
480,64,117440,1,2,0:0:0:0:
480,64,117523,1,0,0:0:0:0:
480,64,117605,1,0,0:0:0:0:
480,64,117770,1,2,0:0:0:0:
480,64,117935,1,0,0:0:0:0:
480,64,118017,1,0,0:0:0:0:
480,64,118100,1,2,0:0:0:0:
480,64,118182,1,0,0:0:0:0:
480,64,118264,1,2,0:0:0:0:
480,64,118347,1,2,0:0:0:0:
480,64,118429,1,0,0:0:0:0:
480,64,118512,1,2,0:0:0:0:
480,64,118594,1,0,0:0:0:0:
480,64,118759,1,6,0:0:0:0:
480,64,118924,1,0,0:0:0:0:
480,64,119089,1,6,0:0:0:0:
480,64,119253,1,0,0:0:0:0:
480,64,119336,1,2,0:0:0:0:
480,64,119418,1,2,0:0:0:0:
480,64,119501,1,2,0:0:0:0:
480,64,119583,1,0,0:0:0:0:
480,64,119748,1,2,0:0:0:0:
480,64,119803,1,2,0:0:0:0:
480,64,119858,1,2,0:0:0:0:
480,64,119913,1,0,0:0:0:0:
480,64,120078,1,6,0:0:0:0:
480,64,120572,5,6,0:0:0:0:
480,64,120737,1,6,0:0:0:0:
480,64,120902,1,6,0:0:0:0:
480,64,121067,1,4,0:0:0:0:
480,64,121396,1,2,0:0:0:0:
480,64,121561,1,0,0:0:0:0:
480,64,121726,1,2,0:0:0:0:
480,64,121891,1,6,0:0:0:0:
480,64,122138,5,6,0:0:0:0:
480,64,122385,1,6,0:0:0:0:
480,64,122880,1,4,0:0:0:0:
