osu file format v14

[General]
AudioFilename: Sore wa Hanabi no Youna Koi.mp3
AudioLeadIn: 0
PreviewTime: 56514
Countdown: 0
SampleSet: Normal
StackLeniency: 0.7
Mode: 1
LetterboxInBreaks: 0
WidescreenStoryboard: 0

[Editor]
DistanceSpacing: 1.3
BeatDivisor: 4
GridSize: 32
TimelineZoom: 1

[Metadata]
Title:Sore wa Hanabi no Youna Koi
TitleUnicode:それは花火のような恋
Artist:Natsuiro Burning Love*Prim
ArtistUnicode:夏色バーニングラブ☆Prim
Creator:Nardoxyribonucleic
Version:Inner Oni
Source:BeatStream
Tags:Taiko KONAMI beatmania IIDX 22 PENDUAL jubeat wmfchris aabc271
BeatmapID:1405550
BeatmapSetID:664085

[Difficulty]
HPDrainRate:6
CircleSize:5
OverallDifficulty:6.5
ApproachRate:7
SliderMultiplier:1.4
SliderTickRate:1

[Events]
//Background and Video events
0,0,"BG.jpg",0,110
//Break Periods
//Storyboard Layer 0 (Background)
//Storyboard Layer 1 (Fail)
//Storyboard Layer 2 (Pass)
//Storyboard Layer 3 (Foreground)
//Storyboard Sound Samples

[TimingPoints]
1232,329.67032967033,4,1,0,100,1,0
14418,-100,4,1,0,80,0,0
24968,-100,4,1,0,85,0,0
35517,-100,4,1,0,90,0,0
40792,-100,4,1,0,85,0,0
46067,-100,4,1,0,90,0,0
56616,-100,4,1,0,100,0,1
77715,-100,4,1,0,85,0,0
88264,-100,4,1,0,75,0,0
88759,-111.111111111111,4,1,0,75,0,0
92550,-105.263157894737,4,1,0,75,0,0
92880,-100,4,1,0,75,0,0
93539,-100,4,1,0,90,0,0
98814,-100,4,1,0,100,0,1
119913,-100,4,1,0,100,0,0

[HitObjects]
256,192,1232,5,0,0:0:0:0:
256,192,1314,1,0,0:0:0:0:
256,192,1396,1,0,0:0:0:0:
256,192,1479,1,0,0:0:0:0:
256,192,1561,1,8,0:0:0:0:
256,192,2056,1,12,0:0:0:0:
256,192,2221,1,12,0:0:0:0:
256,192,2385,1,4,0:0:0:0:
256,192,2715,1,8,0:0:0:0:
256,192,2880,1,0,0:0:0:0:
256,192,3045,1,8,0:0:0:0:
256,192,3210,1,0,0:0:0:0:
256,192,3292,1,0,0:0:0:0:
256,192,3374,1,8,0:0:0:0:
256,192,3429,1,8,0:0:0:0:
256,192,3484,1,8,0:0:0:0:
256,192,3539,1,0,0:0:0:0:
256,192,3622,1,0,0:0:0:0:
256,192,3704,1,8,0:0:0:0:
256,192,3759,1,8,0:0:0:0:
256,192,3814,1,8,0:0:0:0:
256,192,3869,1,0,0:0:0:0:
256,192,3951,1,8,0:0:0:0:
256,192,4034,1,0,0:0:0:0:
256,192,4116,1,0,0:0:0:0:
256,192,4199,1,8,0:0:0:0:
256,192,4693,1,4,0:0:0:0:
256,192,4858,1,12,0:0:0:0:
256,192,5023,1,4,0:0:0:0:
256,192,5352,1,4,0:0:0:0:
256,192,5682,1,4,0:0:0:0:
256,192,6012,1,12,0:0:0:0:
256,192,6177,1,0,0:0:0:0:
256,192,6259,1,8,0:0:0:0:
256,192,6341,1,0,0:0:0:0:
256,192,6396,1,0,0:0:0:0:
256,192,6451,1,0,0:0:0:0:
256,192,6506,1,8,0:0:0:0:
256,192,6671,1,8,0:0:0:0:
256,192,6753,1,0,0:0:0:0:
256,192,6836,1,8,0:0:0:0:
256,192,6918,1,0,0:0:0:0:
256,192,7001,1,0,0:0:0:0:
256,192,7083,1,0,0:0:0:0:
256,192,7166,1,8,0:0:0:0:
256,192,7330,1,0,0:0:0:0:
256,192,7495,1,8,0:0:0:0:
256,192,7660,1,8,0:0:0:0:
256,192,7742,1,0,0:0:0:0:
256,192,7825,1,8,0:0:0:0:
256,192,7990,1,0,0:0:0:0:
256,192,8155,1,8,0:0:0:0:
256,192,8237,1,8,0:0:0:0:
256,192,8319,1,0,0:0:0:0:
256,192,8402,1,0,0:0:0:0:
256,192,8484,1,8,0:0:0:0:
256,192,8649,1,8,0:0:0:0:
256,192,8732,1,0,0:0:0:0:
256,192,8814,1,0,0:0:0:0:
256,192,8979,1,8,0:0:0:0:
256,192,9144,1,12,0:0:0:0:
256,192,9308,1,0,0:0:0:0:
256,192,9473,1,0,0:0:0:0:
256,192,9556,1,0,0:0:0:0:
256,192,9638,1,0,0:0:0:0:
256,192,9721,1,0,0:0:0:0:
256,192,9803,1,8,0:0:0:0:
256,192,9968,1,0,0:0:0:0:
256,192,10133,1,8,0:0:0:0:
256,192,10215,1,8,0:0:0:0:
256,192,10297,1,0,0:0:0:0:
256,192,10627,1,4,0:0:0:0:
256,192,10957,1,4,0:0:0:0:
256,192,11286,1,8,0:0:0:0:
256,192,11369,1,0,0:0:0:0:
256,192,11451,1,8,0:0:0:0:
256,192,11534,1,8,0:0:0:0:
256,192,11616,1,0,0:0:0:0:
256,192,11781,1,0,0:0:0:0:
256,192,11946,1,12,0:0:0:0:
256,192,12111,1,8,0:0:0:0:
256,192,12275,1,0,0:0:0:0:
256,192,12440,1,12,0:0:0:0:
256,192,12605,1,8,0:0:0:0:
256,192,12688,1,8,0:0:0:0:
256,192,12770,1,8,0:0:0:0:
256,192,12935,1,4,0:0:0:0:
256,192,13264,1,8,0:0:0:0:
256,192,13429,1,8,0:0:0:0:
256,192,13484,1,8,0:0:0:0:
256,192,13539,1,8,0:0:0:0:
256,192,13594,1,0,0:0:0:0:
256,192,13649,1,0,0:0:0:0:
256,192,13704,1,0,0:0:0:0:
256,192,13759,1,8,0:0:0:0:
256,192,14006,1,12,0:0:0:0:
256,192,14253,1,12,0:0:0:0:
256,192,14418,1,4,0:0:0:0:
256,192,14583,1,0,0:0:0:0:
256,192,14666,1,0,0:0:0:0:
256,192,14748,1,8,0:0:0:0:
256,192,14913,1,0,0:0:0:0:
256,192,15078,1,8,0:0:0:0:
256,192,15160,1,0,0:0:0:0:
256,192,15325,1,0,0:0:0:0:
256,192,15407,1,8,0:0:0:0:
256,192,15572,1,0,0:0:0:0:
256,192,15737,1,8,0:0:0:0:
256,192,15902,1,0,0:0:0:0:
256,192,16067,1,8,0:0:0:0:
256,192,16149,1,8,0:0:0:0:
256,192,16232,1,0,0:0:0:0:
256,192,16396,1,8,0:0:0:0:
256,192,16561,1,0,0:0:0:0:
256,192,16644,1,8,0:0:0:0:
256,192,16808,1,8,0:0:0:0:
256,192,16891,1,0,0:0:0:0:
256,192,17056,1,8,0:0:0:0:
256,192,17303,1,0,0:0:0:0:
256,192,17385,1,8,0:0:0:0:
256,192,17550,1,0,0:0:0:0:
256,192,17633,1,8,0:0:0:0:
256,192,17715,1,0,0:0:0:0:
256,192,17880,1,8,0:0:0:0:
256,192,17962,1,0,0:0:0:0:
256,192,18045,1,8,0:0:0:0:
256,192,18210,1,0,0:0:0:0:
256,192,18374,1,8,0:0:0:0:
256,192,18457,1,0,0:0:0:0:
256,192,18539,1,0,0:0:0:0:
256,192,18704,1,8,0:0:0:0:
256,192,18869,1,0,0:0:0:0:
256,192,19034,1,8,0:0:0:0:
256,192,19116,1,8,0:0:0:0:
256,192,19199,1,0,0:0:0:0:
256,192,19281,1,0,0:0:0:0:
256,192,19363,1,8,0:0:0:0:
256,192,19528,1,0,0:0:0:0:
256,192,19693,1,8,0:0:0:0:
256,192,20023,1,8,0:0:0:0:
256,192,20188,1,0,0:0:0:0:
256,192,20352,1,0,0:0:0:0:
256,192,20435,1,0,0:0:0:0:
256,192,20517,1,0,0:0:0:0:
256,192,20682,1,8,0:0:0:0:
256,192,20847,1,0,0:0:0:0:
256,192,21012,1,8,0:0:0:0:
256,192,21177,1,8,0:0:0:0:
256,192,21259,1,0,0:0:0:0:
256,192,21341,1,8,0:0:0:0:
256,192,21424,1,8,0:0:0:0:
256,192,21506,1,0,0:0:0:0:
256,192,21671,1,8,0:0:0:0:
256,192,21836,1,0,0:0:0:0:
256,192,21918,1,0,0:0:0:0:
256,192,22001,1,8,0:0:0:0:
256,192,22166,1,8,0:0:0:0:
256,192,22330,1,0,0:0:0:0:
256,192,22495,1,0,0:0:0:0:
256,192,22578,1,8,0:0:0:0:
256,192,22660,1,8,0:0:0:0:
256,192,22825,1,8,0:0:0:0:
256,192,22990,1,0,0:0:0:0:
256,192,23155,1,8,0:0:0:0:
256,192,23237,1,0,0:0:0:0:
256,192,23319,1,0,0:0:0:0:
256,192,23484,1,8,0:0:0:0:
256,192,23649,1,8,0:0:0:0:
256,192,23732,1,8,0:0:0:0:
256,192,23814,1,0,0:0:0:0:
256,192,23979,1,8,0:0:0:0:
256,192,24144,1,0,0:0:0:0:
256,192,24226,1,0,0:0:0:0:
256,192,24308,1,8,0:0:0:0:
256,192,24391,1,8,0:0:0:0:
256,192,24473,1,0,0:0:0:0:
256,192,24556,1,8,0:0:0:0:
256,192,24638,1,0,0:0:0:0:
256,192,24721,1,0,0:0:0:0:
256,192,24803,1,8,0:0:0:0:
256,192,24858,1,8,0:0:0:0:
256,192,24913,1,8,0:0:0:0:
256,192,24968,1,0,0:0:0:0:
256,192,25133,1,0,0:0:0:0:
256,192,25215,1,0,0:0:0:0:
256,192,25297,1,8,0:0:0:0:
256,192,25462,1,0,0:0:0:0:
256,192,25545,1,0,0:0:0:0:
256,192,25627,1,8,0:0:0:0:
256,192,25710,1,0,0:0:0:0:
256,192,25874,1,0,0:0:0:0:
256,192,25957,1,8,0:0:0:0:
256,192,26122,1,0,0:0:0:0:
256,192,26204,1,0,0:0:0:0:
256,192,26286,1,8,0:0:0:0:
256,192,26369,1,0,0:0:0:0:
256,192,26451,1,0,0:0:0:0:
256,192,26616,1,8,0:0:0:0:
256,192,26699,1,8,0:0:0:0:
256,192,26781,1,0,0:0:0:0:
256,192,26946,1,8,0:0:0:0:
256,192,27028,1,8,0:0:0:0:
256,192,27111,1,0,0:0:0:0:
256,192,27193,1,8,0:0:0:0:
256,192,27358,1,8,0:0:0:0:
256,192,27440,1,0,0:0:0:0:
256,192,27605,1,8,0:0:0:0:
256,192,27852,1,0,0:0:0:0:
256,192,27935,1,8,0:0:0:0:
256,192,28100,1,0,0:0:0:0:
256,192,28182,1,8,0:0:0:0:
256,192,28264,1,0,0:0:0:0:
256,192,28347,1,0,0:0:0:0:
256,192,28429,1,8,0:0:0:0:
256,192,28512,1,0,0:0:0:0:
256,192,28594,1,8,0:0:0:0:
256,192,28759,1,0,0:0:0:0:
256,192,28924,1,8,0:0:0:0:
256,192,29006,1,0,0:0:0:0:
256,192,29089,1,0,0:0:0:0:
256,192,29171,1,8,0:0:0:0:
256,192,29253,1,8,0:0:0:0:
256,192,29418,1,0,0:0:0:0:
256,192,29583,1,8,0:0:0:0:
256,192,29666,1,8,0:0:0:0:
256,192,29748,1,0,0:0:0:0:
256,192,29830,1,0,0:0:0:0:
256,192,29913,1,8,0:0:0:0:
256,192,30078,1,0,0:0:0:0:
256,192,30242,1,8,0:0:0:0:
256,192,30407,1,0,0:0:0:0:
256,192,30490,1,0,0:0:0:0:
256,192,30572,1,8,0:0:0:0:
256,192,30737,1,0,0:0:0:0:
256,192,30902,1,8,0:0:0:0:
256,192,30984,1,8,0:0:0:0:
256,192,31067,1,0,0:0:0:0:
256,192,31232,1,8,0:0:0:0:
256,192,31396,1,0,0:0:0:0:
256,192,31479,1,0,0:0:0:0:
256,192,31561,1,0,0:0:0:0:
256,192,31726,1,0,0:0:0:0:
256,192,31891,1,8,0:0:0:0:
256,192,32056,1,0,0:0:0:0:
256,192,32138,1,0,0:0:0:0:
256,192,32221,1,8,0:0:0:0:
256,192,32385,1,8,0:0:0:0:
256,192,32468,1,0,0:0:0:0:
256,192,32550,1,8,0:0:0:0:
256,192,32633,1,8,0:0:0:0:
256,192,32715,1,0,0:0:0:0:
256,192,32880,1,8,0:0:0:0:
256,192,32962,1,0,0:0:0:0:
256,192,33045,1,0,0:0:0:0:
256,192,33210,1,8,0:0:0:0:
256,192,33374,1,0,0:0:0:0:
256,192,33457,1,8,0:0:0:0:
256,192,33539,1,0,0:0:0:0:
256,192,33704,1,0,0:0:0:0:
256,192,33786,1,0,0:0:0:0:
256,192,33869,1,8,0:0:0:0:
256,192,33951,1,0,0:0:0:0:
256,192,34034,1,8,0:0:0:0:
256,192,34116,1,8,0:0:0:0:
256,192,34199,1,0,0:0:0:0:
256,192,34363,1,8,0:0:0:0:
256,192,34446,1,0,0:0:0:0:
256,192,34528,1,8,0:0:0:0:
256,192,34611,1,8,0:0:0:0:
256,192,34693,1,0,0:0:0:0:
256,192,34775,1,8,0:0:0:0:
256,192,34858,1,0,0:0:0:0:
256,192,34940,1,0,0:0:0:0:
256,192,35023,1,8,0:0:0:0:
256,192,35078,1,8,0:0:0:0:
256,192,35133,1,8,0:0:0:0:
256,192,35188,1,0,0:0:0:0:
256,192,35270,1,8,0:0:0:0:
256,192,35352,1,0,0:0:0:0:
256,192,35407,1,0,0:0:0:0:
256,192,35462,1,0,0:0:0:0:
256,192,35517,1,8,0:0:0:0:
256,192,35682,1,0,0:0:0:0:
256,192,35847,1,8,0:0:0:0:
256,192,36012,1,12,0:0:0:0:
256,192,36177,1,4,0:0:0:0:
256,192,36424,1,0,0:0:0:0:
256,192,36671,1,12,0:0:0:0:
256,192,36836,1,0,0:0:0:0:
256,192,37001,1,12,0:0:0:0:
256,192,37330,1,4,0:0:0:0:
256,192,37495,1,4,0:0:0:0:
256,192,37742,1,12,0:0:0:0:
256,192,37990,1,4,0:0:0:0:
256,192,38155,1,12,0:0:0:0:
256,192,38402,1,8,0:0:0:0:
256,192,38649,1,12,0:0:0:0:
256,192,38814,1,4,0:0:0:0:
256,192,39061,1,0,0:0:0:0:
256,192,39308,1,12,0:0:0:0:
256,192,39473,1,0,0:0:0:0:
256,192,39638,1,12,0:0:0:0:
256,192,39968,1,4,0:0:0:0:
256,192,40133,1,4,0:0:0:0:
256,192,40380,1,12,0:0:0:0:
256,192,40627,1,12,0:0:0:0:
256,192,40792,1,4,0:0:0:0:
256,192,40957,1,8,0:0:0:0:
256,192,41039,1,8,0:0:0:0:
256,192,41122,1,0,0:0:0:0:
256,192,41286,1,8,0:0:0:0:
256,192,41451,1,0,0:0:0:0:
256,192,41616,1,8,0:0:0:0:
256,192,41699,1,0,0:0:0:0:
256,192,41781,1,0,0:0:0:0:
256,192,41863,1,0,0:0:0:0:
256,192,41946,1,8,0:0:0:0:
256,192,42111,1,0,0:0:0:0:
256,192,42275,1,0,0:0:0:0:
256,192,42358,1,0,0:0:0:0:
256,192,42440,1,8,0:0:0:0:
256,192,42605,1,8,0:0:0:0:
256,192,42688,1,8,0:0:0:0:
256,192,42770,1,0,0:0:0:0:
256,192,42852,1,0,0:0:0:0:
256,192,43017,1,8,0:0:0:0:
256,192,43100,1,0,0:0:0:0:
256,192,43264,1,0,0:0:0:0:
256,192,43429,1,8,0:0:0:0:
256,192,43594,1,0,0:0:0:0:
256,192,43677,1,0,0:0:0:0:
256,192,43759,1,8,0:0:0:0:
256,192,43924,1,0,0:0:0:0:
256,192,44089,1,8,0:0:0:0:
256,192,44253,1,8,0:0:0:0:
256,192,44336,1,8,0:0:0:0:
256,192,44418,1,8,0:0:0:0:
256,192,44501,1,8,0:0:0:0:
256,192,44583,1,0,0:0:0:0:
256,192,44748,1,8,0:0:0:0:
256,192,44913,1,0,0:0:0:0:
256,192,44995,1,0,0:0:0:0:
256,192,45078,1,8,0:0:0:0:
256,192,45242,1,0,0:0:0:0:
256,192,45325,1,8,0:0:0:0:
256,192,45407,1,8,0:0:0:0:
256,192,45490,1,0,0:0:0:0:
256,192,45572,1,8,0:0:0:0:
256,192,45655,1,0,0:0:0:0:
256,192,45737,1,8,0:0:0:0:
256,192,45792,1,8,0:0:0:0:
256,192,45847,1,8,0:0:0:0:
256,192,45902,1,0,0:0:0:0:
256,192,45984,1,0,0:0:0:0:
256,192,46067,1,8,0:0:0:0:
256,192,46232,1,0,0:0:0:0:
256,192,46314,1,0,0:0:0:0:
256,192,46396,1,8,0:0:0:0:
256,192,46561,1,8,0:0:0:0:
256,192,46726,1,0,0:0:0:0:
256,192,46808,1,8,0:0:0:0:
256,192,46891,1,0,0:0:0:0:
256,192,46973,1,0,0:0:0:0:
256,192,47056,1,8,0:0:0:0:
256,192,47221,1,8,0:0:0:0:
256,192,47303,1,0,0:0:0:0:
256,192,47385,1,8,0:0:0:0:
256,192,47550,1,0,0:0:0:0:
256,192,47633,1,0,0:0:0:0:
256,192,47715,1,8,0:0:0:0:
256,192,47880,1,8,0:0:0:0:
256,192,47962,1,8,0:0:0:0:
256,192,48045,1,0,0:0:0:0:
256,192,48127,1,8,0:0:0:0:
256,192,48292,1,8,0:0:0:0:
256,192,48374,1,0,0:0:0:0:
256,192,48539,1,0,0:0:0:0:
256,192,48622,1,0,0:0:0:0:
256,192,48704,1,8,0:0:0:0:
256,192,48951,1,8,0:0:0:0:
256,192,49034,1,0,0:0:0:0:
256,192,49199,1,8,0:0:0:0:
256,192,49363,1,0,0:0:0:0:
256,192,49611,1,0,0:0:0:0:
256,192,49693,1,8,0:0:0:0:
256,192,49858,1,8,0:0:0:0:
256,192,49940,1,8,0:0:0:0:
256,192,50023,1,0,0:0:0:0:
256,192,50188,1,0,0:0:0:0:
256,192,50352,1,8,0:0:0:0:
256,192,50517,1,8,0:0:0:0:
256,192,50682,1,0,0:0:0:0:
256,192,50764,1,8,0:0:0:0:
256,192,50847,1,0,0:0:0:0:
256,192,50929,1,0,0:0:0:0:
256,192,51012,1,8,0:0:0:0:
256,192,51094,1,8,0:0:0:0:
256,192,51177,1,0,0:0:0:0:
256,192,51341,1,4,0:0:0:0:
256,192,51506,1,0,0:0:0:0:
256,192,51671,1,8,0:0:0:0:
256,192,51836,1,0,0:0:0:0:
256,192,52001,1,8,0:0:0:0:
256,192,52083,1,0,0:0:0:0:
256,192,52166,1,0,0:0:0:0:
256,192,52248,1,0,0:0:0:0:
256,192,52330,1,8,0:0:0:0:
256,192,52413,1,8,0:0:0:0:
256,192,52495,1,0,0:0:0:0:
256,192,52660,1,12,0:0:0:0:
256,192,52825,1,0,0:0:0:0:
256,192,52990,1,8,0:0:0:0:
256,192,53155,1,0,0:0:0:0:
256,192,53237,1,8,0:0:0:0:
256,192,53319,1,0,0:0:0:0:
256,192,53567,1,0,0:0:0:0:
256,192,53649,1,8,0:0:0:0:
256,192,53814,1,8,0:0:0:0:
256,192,53896,1,8,0:0:0:0:
256,192,53979,1,0,0:0:0:0:
256,192,54144,1,0,0:0:0:0:
256,192,54226,1,0,0:0:0:0:
256,192,54308,1,8,0:0:0:0:
256,192,54473,1,0,0:0:0:0:
256,192,54556,1,0,0:0:0:0:
256,192,54638,1,8,0:0:0:0:
256,192,54721,1,8,0:0:0:0:
256,192,54803,1,0,0:0:0:0:
256,192,54885,1,8,0:0:0:0:
256,192,54968,1,0,0:0:0:0:
256,192,55050,1,0,0:0:0:0:
256,192,55133,1,8,0:0:0:0:
256,192,55297,1,4,0:0:0:0:
256,192,55545,1,12,0:0:0:0:
256,192,55792,1,12,0:0:0:0:
256,192,55957,1,4,0:0:0:0:
256,192,56286,1,8,0:0:0:0:
256,192,56451,1,0,0:0:0:0:
256,192,56506,1,0,0:0:0:0:
256,192,56561,1,0,0:0:0:0:
256,192,56616,1,8,0:0:0:0:
256,192,56781,1,0,0:0:0:0:
256,192,56863,1,8,0:0:0:0:
256,192,57028,1,8,0:0:0:0:
256,192,57111,1,0,0:0:0:0:
256,192,57275,1,8,0:0:0:0:
256,192,57358,1,0,0:0:0:0:
256,192,57440,1,8,0:0:0:0:
256,192,57523,1,8,0:0:0:0:
256,192,57688,1,0,0:0:0:0:
256,192,57770,1,8,0:0:0:0:
256,192,57935,1,0,0:0:0:0:
256,192,58017,1,0,0:0:0:0:
256,192,58100,1,8,0:0:0:0:
256,192,58182,1,0,0:0:0:0:
256,192,58347,1,0,0:0:0:0:
256,192,58429,1,8,0:0:0:0:
256,192,58594,1,8,0:0:0:0:
256,192,58677,1,8,0:0:0:0:
256,192,58759,1,0,0:0:0:0:
256,192,58841,1,8,0:0:0:0:
256,192,59006,1,0,0:0:0:0:
256,192,59089,1,8,0:0:0:0:
256,192,59253,1,8,0:0:0:0:
256,192,59501,1,0,0:0:0:0:
256,192,59583,1,8,0:0:0:0:
256,192,59748,1,8,0:0:0:0:
256,192,59830,1,8,0:0:0:0:
256,192,59913,1,0,0:0:0:0:
256,192,60078,1,0,0:0:0:0:
256,192,60160,1,0,0:0:0:0:
256,192,60242,1,8,0:0:0:0:
256,192,60407,1,0,0:0:0:0:
256,192,60490,1,0,0:0:0:0:
256,192,60572,1,8,0:0:0:0:
256,192,60655,1,0,0:0:0:0:
256,192,60737,1,0,0:0:0:0:
256,192,60819,1,8,0:0:0:0:
256,192,60902,1,8,0:0:0:0:
256,192,61067,1,0,0:0:0:0:
256,192,61149,1,0,0:0:0:0:
256,192,61232,1,8,0:0:0:0:
256,192,61314,1,0,0:0:0:0:
256,192,61396,1,8,0:0:0:0:
256,192,61479,1,0,0:0:0:0:
256,192,61561,1,8,0:0:0:0:
256,192,61644,1,8,0:0:0:0:
256,192,61726,1,0,0:0:0:0:
256,192,61891,1,4,0:0:0:0:
256,192,62056,1,0,0:0:0:0:
256,192,62221,1,8,0:0:0:0:
256,192,62385,1,8,0:0:0:0:
256,192,62468,1,8,0:0:0:0:
256,192,62550,1,0,0:0:0:0:
256,192,62633,1,0,0:0:0:0:
256,192,62797,1,8,0:0:0:0:
256,192,62880,1,0,0:0:0:0:
256,192,63045,1,0,0:0:0:0:
256,192,63210,1,12,0:0:0:0:
256,192,63374,1,0,0:0:0:0:
256,192,63539,1,8,0:0:0:0:
256,192,63704,1,0,0:0:0:0:
256,192,63786,1,0,0:0:0:0:
256,192,63869,1,8,0:0:0:0:
256,192,63951,1,8,0:0:0:0:
256,192,64116,1,0,0:0:0:0:
256,192,64199,1,8,0:0:0:0:
256,192,64363,1,8,0:0:0:0:
256,192,64528,1,4,0:0:0:0:
256,192,64693,1,0,0:0:0:0:
256,192,64775,1,0,0:0:0:0:
256,192,64858,1,8,0:0:0:0:
256,192,65023,1,8,0:0:0:0:
256,192,65188,1,4,0:0:0:0:
256,192,65352,1,0,0:0:0:0:
256,192,65435,1,8,0:0:0:0:
256,192,65517,1,0,0:0:0:0:
256,192,65600,1,0,0:0:0:0:
256,192,65682,1,8,0:0:0:0:
256,192,65737,1,8,0:0:0:0:
256,192,65792,1,8,0:0:0:0:
256,192,65847,1,0,0:0:0:0:
256,192,66012,1,12,0:0:0:0:
256,192,66177,1,12,0:0:0:0:
256,192,66341,1,12,0:0:0:0:
256,192,66506,1,12,0:0:0:0:
256,192,66671,1,0,0:0:0:0:
256,192,66753,1,8,0:0:0:0:
256,192,66836,1,8,0:0:0:0:
256,192,66918,1,0,0:0:0:0:
256,192,67001,1,0,0:0:0:0:
256,192,67166,1,12,0:0:0:0:
256,192,67330,1,0,0:0:0:0:
256,192,67413,1,0,0:0:0:0:
256,192,67495,1,8,0:0:0:0:
256,192,67660,1,8,0:0:0:0:
256,192,67825,1,0,0:0:0:0:
256,192,67907,1,8,0:0:0:0:
256,192,68072,1,8,0:0:0:0:
256,192,68155,1,0,0:0:0:0:
256,192,68319,1,8,0:0:0:0:
256,192,68484,1,0,0:0:0:0:
256,192,68567,1,8,0:0:0:0:
256,192,68649,1,0,0:0:0:0:
256,192,68732,1,0,0:0:0:0:
256,192,68814,1,8,0:0:0:0:
256,192,68979,1,0,0:0:0:0:
256,192,69144,1,8,0:0:0:0:
256,192,69226,1,0,0:0:0:0:
256,192,69391,1,0,0:0:0:0:
256,192,69473,1,8,0:0:0:0:
256,192,69638,1,0,0:0:0:0:
256,192,69803,1,12,0:0:0:0:
256,192,70050,1,12,0:0:0:0:
256,192,70297,1,4,0:0:0:0:
256,192,70462,1,8,0:0:0:0:
256,192,70627,1,0,0:0:0:0:
256,192,70710,1,0,0:0:0:0:
256,192,70792,1,8,0:0:0:0:
256,192,70957,1,8,0:0:0:0:
256,192,71122,1,0,0:0:0:0:
256,192,71286,1,8,0:0:0:0:
256,192,71369,1,0,0:0:0:0:
256,192,71451,1,8,0:0:0:0:
256,192,71534,1,8,0:0:0:0:
256,192,71616,1,0,0:0:0:0:
256,192,71699,1,8,0:0:0:0:
256,192,71781,1,8,0:0:0:0:
256,192,71946,1,0,0:0:0:0:
256,192,72028,1,0,0:0:0:0:
256,192,72111,1,0,0:0:0:0:
256,192,72275,1,0,0:0:0:0:
256,192,72440,1,12,0:0:0:0:
256,192,72605,1,0,0:0:0:0:
256,192,72770,1,8,0:0:0:0:
256,192,72935,1,8,0:0:0:0:
256,192,73017,1,0,0:0:0:0:
256,192,73100,1,8,0:0:0:0:
256,192,73182,1,8,0:0:0:0:
256,192,73264,1,0,0:0:0:0:
256,192,73347,1,8,0:0:0:0:
256,192,73429,1,0,0:0:0:0:
256,192,73512,1,0,0:0:0:0:
256,192,73594,1,8,0:0:0:0:
256,192,73649,1,8,0:0:0:0:
256,192,73704,1,8,0:0:0:0:
256,192,73759,1,0,0:0:0:0:
256,192,74089,1,0,0:0:0:0:
256,192,74253,1,0,0:0:0:0:
256,192,74418,1,12,0:0:0:0:
256,192,74666,1,12,0:0:0:0:
256,192,74913,1,12,0:0:0:0:
256,192,75078,1,4,0:0:0:0:
256,192,75242,1,0,0:0:0:0:
256,192,75325,1,0,0:0:0:0:
256,192,75407,1,8,0:0:0:0:
256,192,75572,1,0,0:0:0:0:
256,192,75655,1,8,0:0:0:0:
256,192,75737,1,0,0:0:0:0:
256,192,75819,1,0,0:0:0:0:
256,192,75902,1,8,0:0:0:0:
256,192,75984,1,0,0:0:0:0:
256,192,76067,1,8,0:0:0:0:
256,192,76232,1,8,0:0:0:0:
256,192,76314,1,8,0:0:0:0:
256,192,76396,1,0,0:0:0:0:
256,192,76561,1,12,0:0:0:0:
256,192,76726,1,12,0:0:0:0:
256,192,76891,1,12,0:0:0:0:
256,192,77056,1,8,0:0:0:0:
256,192,77138,1,0,0:0:0:0:
256,192,77221,1,8,0:0:0:0:
256,192,77303,1,8,0:0:0:0:
256,192,77385,1,0,0:0:0:0:
256,192,77468,1,0,0:0:0:0:
256,192,77550,1,8,0:0:0:0:
256,192,77715,1,4,0:0:0:0:
256,192,78045,1,0,0:0:0:0:
256,192,78210,1,0,0:0:0:0:
256,192,78374,1,8,0:0:0:0:
256,192,78457,1,0,0:0:0:0:
256,192,78622,1,0,0:0:0:0:
256,192,78704,1,8,0:0:0:0:
256,192,78869,1,0,0:0:0:0:
256,192,79034,1,0,0:0:0:0:
256,192,79363,1,8,0:0:0:0:
256,192,79528,1,0,0:0:0:0:
256,192,79693,1,0,0:0:0:0:
256,192,79775,1,8,0:0:0:0:
256,192,79940,1,8,0:0:0:0:
256,192,80023,1,0,0:0:0:0:
256,192,80188,1,0,0:0:0:0:
256,192,80352,1,8,0:0:0:0:
256,192,80600,1,8,0:0:0:0:
256,192,80682,1,0,0:0:0:0:
256,192,80847,1,0,0:0:0:0:
256,192,80929,1,0,0:0:0:0:
256,192,81012,1,8,0:0:0:0:
256,192,81259,1,0,0:0:0:0:
256,192,81341,1,8,0:0:0:0:
256,192,81506,1,8,0:0:0:0:
256,192,81589,1,8,0:0:0:0:
256,192,81671,1,0,0:0:0:0:
256,192,81836,1,0,0:0:0:0:
256,192,82001,1,8,0:0:0:0:
256,192,82166,1,8,0:0:0:0:
256,192,82330,1,0,0:0:0:0:
256,192,82413,1,8,0:0:0:0:
256,192,82495,1,8,0:0:0:0:
256,192,82578,1,0,0:0:0:0:
256,192,82660,1,8,0:0:0:0:
256,192,82742,1,8,0:0:0:0:
256,192,82825,1,0,0:0:0:0:
256,192,82990,1,4,0:0:0:0:
256,192,83649,1,12,0:0:0:0:
256,192,83896,1,12,0:0:0:0:
256,192,84144,1,0,0:0:0:0:
256,192,84199,1,0,0:0:0:0:
256,192,84253,1,0,0:0:0:0:
256,192,84308,1,8,0:0:0:0:
256,192,84803,1,12,0:0:0:0:
256,192,84968,1,12,0:0:0:0:
256,192,85215,1,12,0:0:0:0:
256,192,85462,1,4,0:0:0:0:
256,192,85627,1,4,0:0:0:0:
256,192,85792,1,0,0:0:0:0:
256,192,85874,1,0,0:0:0:0:
256,192,85957,1,8,0:0:0:0:
256,192,86122,1,8,0:0:0:0:
256,192,86204,1,0,0:0:0:0:
256,192,86286,1,0,0:0:0:0:
256,192,86369,1,8,0:0:0:0:
256,192,86451,1,0,0:0:0:0:
256,192,86534,1,0,0:0:0:0:
256,192,86616,1,8,0:0:0:0:
256,192,86781,1,8,0:0:0:0:
256,192,86863,1,8,0:0:0:0:
256,192,86946,1,0,0:0:0:0:
256,192,87028,1,0,0:0:0:0:
256,192,87111,1,8,0:0:0:0:
256,192,87193,1,0,0:0:0:0:
256,192,87275,1,8,0:0:0:0:
256,192,87358,1,8,0:0:0:0:
256,192,87440,1,0,0:0:0:0:
256,192,87523,1,8,0:0:0:0:
256,192,87605,1,0,0:0:0:0:
256,192,87688,1,0,0:0:0:0:
256,192,87770,1,8,0:0:0:0:
256,192,87825,1,8,0:0:0:0:
256,192,87880,1,8,0:0:0:0:
256,192,87935,1,0,0:0:0:0:
256,192,88017,1,8,0:0:0:0:
256,192,88100,1,0,0:0:0:0:
256,192,88155,1,0,0:0:0:0:
256,192,88210,1,0,0:0:0:0:
256,192,88264,1,8,0:0:0:0:
256,192,88759,1,0,0:0:0:0:
256,192,88924,1,0,0:0:0:0:
256,192,89583,1,0,0:0:0:0:
256,192,89748,1,0,0:0:0:0:
256,192,89913,1,8,0:0:0:0:
256,192,90078,1,0,0:0:0:0:
256,192,90242,1,0,0:0:0:0:
256,192,90737,1,12,0:0:0:0:
256,192,90902,1,12,0:0:0:0:
256,192,91561,1,8,0:0:0:0:
256,192,91726,1,8,0:0:0:0:
256,192,91891,1,0,0:0:0:0:
256,192,92056,1,8,0:0:0:0:
256,192,92221,1,4,0:0:0:0:
256,192,92550,1,0,0:0:0:0:
256,192,92880,1,8,0:0:0:0:
256,192,93045,1,8,0:0:0:0:
256,192,93210,1,8,0:0:0:0:
256,192,93374,1,0,0:0:0:0:
256,192,93429,1,0,0:0:0:0:
256,192,93484,1,0,0:0:0:0:
256,192,93539,1,8,0:0:0:0:
256,192,93704,1,0,0:0:0:0:
256,192,93786,1,0,0:0:0:0:
256,192,93869,1,8,0:0:0:0:
256,192,94034,1,0,0:0:0:0:
256,192,94116,1,0,0:0:0:0:
256,192,94199,1,8,0:0:0:0:
256,192,94281,1,0,0:0:0:0:
256,192,94363,1,8,0:0:0:0:
256,192,94446,1,8,0:0:0:0:
256,192,94528,1,0,0:0:0:0:
256,192,94611,1,8,0:0:0:0:
256,192,94693,1,0,0:0:0:0:
256,192,94858,1,12,0:0:0:0:
256,192,95023,1,0,0:0:0:0:
256,192,95105,1,0,0:0:0:0:
256,192,95188,1,8,0:0:0:0:
256,192,95352,1,8,0:0:0:0:
256,192,95517,1,4,0:0:0:0:
256,192,95682,1,0,0:0:0:0:
256,192,95764,1,8,0:0:0:0:
256,192,95929,1,8,0:0:0:0:
256,192,96012,1,0,0:0:0:0:
256,192,96177,1,8,0:0:0:0:
256,192,96259,1,0,0:0:0:0:
256,192,96341,1,0,0:0:0:0:
256,192,96424,1,8,0:0:0:0:
256,192,96506,1,0,0:0:0:0:
256,192,96589,1,0,0:0:0:0:
256,192,96671,1,8,0:0:0:0:
256,192,96753,1,0,0:0:0:0:
256,192,96836,1,8,0:0:0:0:
256,192,96918,1,0,0:0:0:0:
256,192,97001,1,0,0:0:0:0:
256,192,97083,1,8,0:0:0:0:
256,192,97166,1,0,0:0:0:0:
256,192,97248,1,0,0:0:0:0:
256,192,97330,1,8,0:0:0:0:
256,192,97385,1,8,0:0:0:0:
256,192,97440,1,8,0:0:0:0:
256,192,97495,1,0,0:0:0:0:
256,192,98319,1,0,0:0:0:0:
256,192,98484,1,8,0:0:0:0:
256,192,98649,1,0,0:0:0:0:
256,192,98704,1,0,0:0:0:0:
256,192,98759,1,0,0:0:0:0:
256,192,98814,1,8,0:0:0:0:
256,192,98979,1,0,0:0:0:0:
256,192,99061,1,8,0:0:0:0:
256,192,99226,1,8,0:0:0:0:
256,192,99308,1,0,0:0:0:0:
256,192,99473,1,8,0:0:0:0:
256,192,99556,1,0,0:0:0:0:
256,192,99638,1,8,0:0:0:0:
256,192,99721,1,8,0:0:0:0:
256,192,99885,1,0,0:0:0:0:
256,192,99968,1,8,0:0:0:0:
256,192,100133,1,0,0:0:0:0:
256,192,100215,1,0,0:0:0:0:
256,192,100297,1,8,0:0:0:0:
256,192,100380,1,0,0:0:0:0:
256,192,100545,1,0,0:0:0:0:
256,192,100627,1,8,0:0:0:0:
256,192,100792,1,8,0:0:0:0:
256,192,100874,1,8,0:0:0:0:
256,192,100957,1,0,0:0:0:0:
256,192,101039,1,8,0:0:0:0:
256,192,101204,1,0,0:0:0:0:
256,192,101286,1,8,0:0:0:0:
256,192,101451,1,8,0:0:0:0:
256,192,101699,1,0,0:0:0:0:
256,192,101781,1,8,0:0:0:0:
256,192,101946,1,8,0:0:0:0:
256,192,102028,1,8,0:0:0:0:
256,192,102111,1,0,0:0:0:0:
256,192,102193,1,8,0:0:0:0:
256,192,102275,1,0,0:0:0:0:
256,192,102358,1,0,0:0:0:0:
256,192,102440,1,8,0:0:0:0:
256,192,102605,1,0,0:0:0:0:
256,192,102688,1,0,0:0:0:0:
256,192,102770,1,8,0:0:0:0:
256,192,102852,1,0,0:0:0:0:
256,192,102935,1,0,0:0:0:0:
256,192,103017,1,8,0:0:0:0:
256,192,103100,1,8,0:0:0:0:
256,192,103182,1,0,0:0:0:0:
256,192,103264,1,0,0:0:0:0:
256,192,103347,1,0,0:0:0:0:
256,192,103429,1,8,0:0:0:0:
256,192,103512,1,0,0:0:0:0:
256,192,103594,1,8,0:0:0:0:
256,192,103677,1,0,0:0:0:0:
256,192,103759,1,8,0:0:0:0:
256,192,103841,1,8,0:0:0:0:
256,192,103924,1,0,0:0:0:0:
256,192,104089,1,4,0:0:0:0:
256,192,104253,1,0,0:0:0:0:
256,192,104336,1,0,0:0:0:0:
256,192,104418,1,8,0:0:0:0:
256,192,104501,1,0,0:0:0:0:
256,192,104583,1,8,0:0:0:0:
256,192,104666,1,8,0:0:0:0:
256,192,104748,1,0,0:0:0:0:
256,192,104830,1,0,0:0:0:0:
256,192,104995,1,8,0:0:0:0:
256,192,105078,1,0,0:0:0:0:
256,192,105242,1,0,0:0:0:0:
256,192,105407,1,12,0:0:0:0:
256,192,105572,1,0,0:0:0:0:
256,192,105655,1,0,0:0:0:0:
256,192,105737,1,8,0:0:0:0:
256,192,105819,1,0,0:0:0:0:
256,192,105902,1,0,0:0:0:0:
256,192,105984,1,0,0:0:0:0:
256,192,106067,1,8,0:0:0:0:
256,192,106149,1,8,0:0:0:0:
256,192,106314,1,0,0:0:0:0:
256,192,106396,1,8,0:0:0:0:
256,192,106561,1,8,0:0:0:0:
256,192,106726,1,4,0:0:0:0:
256,192,106891,1,0,0:0:0:0:
256,192,106973,1,0,0:0:0:0:
256,192,107056,1,8,0:0:0:0:
256,192,107221,1,8,0:0:0:0:
256,192,107385,1,4,0:0:0:0:
256,192,107550,1,0,0:0:0:0:
256,192,107633,1,8,0:0:0:0:
256,192,107715,1,0,0:0:0:0:
256,192,107797,1,0,0:0:0:0:
256,192,107880,1,8,0:0:0:0:
256,192,107935,1,8,0:0:0:0:
256,192,107990,1,8,0:0:0:0:
256,192,108045,1,0,0:0:0:0:
256,192,108210,1,12,0:0:0:0:
256,192,108374,1,12,0:0:0:0:
256,192,108539,1,12,0:0:0:0:
256,192,108704,1,12,0:0:0:0:
256,192,108869,1,0,0:0:0:0:
256,192,108951,1,8,0:0:0:0:
256,192,109034,1,8,0:0:0:0:
256,192,109116,1,0,0:0:0:0:
256,192,109199,1,0,0:0:0:0:
256,192,109363,1,12,0:0:0:0:
256,192,109528,1,0,0:0:0:0:
256,192,109611,1,0,0:0:0:0:
256,192,109693,1,8,0:0:0:0:
256,192,109858,1,8,0:0:0:0:
256,192,110023,1,0,0:0:0:0:
256,192,110105,1,8,0:0:0:0:
256,192,110270,1,8,0:0:0:0:
256,192,110352,1,0,0:0:0:0:
256,192,110517,1,8,0:0:0:0:
256,192,110682,1,0,0:0:0:0:
256,192,110764,1,8,0:0:0:0:
256,192,110847,1,0,0:0:0:0:
256,192,110929,1,0,0:0:0:0:
256,192,111012,1,8,0:0:0:0:
256,192,111094,1,0,0:0:0:0:
256,192,111177,1,0,0:0:0:0:
256,192,111341,1,8,0:0:0:0:
256,192,111424,1,0,0:0:0:0:
256,192,111589,1,0,0:0:0:0:
256,192,111671,1,8,0:0:0:0:
256,192,111836,1,0,0:0:0:0:
256,192,112001,1,12,0:0:0:0:
256,192,112248,1,12,0:0:0:0:
256,192,112495,1,4,0:0:0:0:
256,192,112660,1,8,0:0:0:0:
256,192,112742,1,0,0:0:0:0:
256,192,112825,1,0,0:0:0:0:
256,192,112907,1,0,0:0:0:0:
256,192,112990,1,8,0:0:0:0:
256,192,113155,1,8,0:0:0:0:
256,192,113319,1,0,0:0:0:0:
256,192,113402,1,0,0:0:0:0:
256,192,113484,1,8,0:0:0:0:
256,192,113567,1,0,0:0:0:0:
256,192,113649,1,8,0:0:0:0:
256,192,113732,1,8,0:0:0:0:
256,192,113814,1,0,0:0:0:0:
256,192,113896,1,8,0:0:0:0:
256,192,113979,1,8,0:0:0:0:
256,192,114144,1,0,0:0:0:0:
256,192,114226,1,0,0:0:0:0:
256,192,114308,1,0,0:0:0:0:
256,192,114473,1,0,0:0:0:0:
256,192,114638,1,12,0:0:0:0:
256,192,114803,1,0,0:0:0:0:
256,192,114885,1,0,0:0:0:0:
256,192,114968,1,8,0:0:0:0:
256,192,115050,1,8,0:0:0:0:
256,192,115133,1,0,0:0:0:0:
256,192,115297,1,12,0:0:0:0:
256,192,115545,1,4,0:0:0:0:
256,192,115792,1,8,0:0:0:0:
256,192,115874,1,8,0:0:0:0:
256,192,115957,1,0,0:0:0:0:
256,192,116286,1,0,0:0:0:0:
256,192,116616,1,12,0:0:0:0:
256,192,116863,1,12,0:0:0:0:
256,192,117111,1,12,0:0:0:0:
256,192,117275,1,4,0:0:0:0:
256,192,117440,1,0,0:0:0:0:
256,192,117523,1,0,0:0:0:0:
256,192,117605,1,8,0:0:0:0:
256,192,117770,1,8,0:0:0:0:
256,192,117852,1,0,0:0:0:0:
256,192,117935,1,0,0:0:0:0:
256,192,118017,1,8,0:0:0:0:
256,192,118100,1,0,0:0:0:0:
256,192,118182,1,8,0:0:0:0:
256,192,118264,1,0,0:0:0:0:
256,192,118347,1,0,0:0:0:0:
256,192,118429,1,8,0:0:0:0:
256,192,118512,1,8,0:0:0:0:
256,192,118594,1,0,0:0:0:0:
256,192,118677,1,0,0:0:0:0:
256,192,118759,1,8,0:0:0:0:
256,192,118841,1,0,0:0:0:0:
256,192,118924,1,8,0:0:0:0:
256,192,119006,1,8,0:0:0:0:
256,192,119089,1,0,0:0:0:0:
256,192,119171,1,8,0:0:0:0:
256,192,119253,1,0,0:0:0:0:
256,192,119336,1,0,0:0:0:0:
256,192,119418,1,8,0:0:0:0:
256,192,119501,1,8,0:0:0:0:
256,192,119583,1,0,0:0:0:0:
256,192,119666,1,0,0:0:0:0:
256,192,119748,1,8,0:0:0:0:
256,192,119803,1,8,0:0:0:0:
256,192,119858,1,8,0:0:0:0:
256,192,119913,1,0,0:0:0:0:
256,192,119995,1,0,0:0:0:0:
256,192,120078,1,8,0:0:0:0:
256,192,120160,1,8,0:0:0:0:
256,192,120242,1,0,0:0:0:0:
256,192,120325,1,8,0:0:0:0:
256,192,120407,1,0,0:0:0:0:
256,192,120462,1,0,0:0:0:0:
256,192,120517,1,0,0:0:0:0:
256,192,120572,1,8,0:0:0:0:
256,192,120737,1,4,0:0:0:0:
256,192,120902,1,12,0:0:0:0:
256,192,121067,1,4,0:0:0:0:
256,192,121396,1,12,0:0:0:0:
256,192,121561,1,8,0:0:0:0:
256,192,121616,1,8,0:0:0:0:
256,192,121671,1,8,0:0:0:0:
256,192,121726,1,0,0:0:0:0:
256,192,121781,1,0,0:0:0:0:
256,192,121836,1,0,0:0:0:0:
256,192,121891,1,8,0:0:0:0:
256,192,122138,1,12,0:0:0:0:
256,192,122385,1,4,0:0:0:0:
256,192,122550,1,0,0:0:0:0:
256,192,122605,1,0,0:0:0:0:
256,192,122660,1,0,0:0:0:0:
256,192,122715,1,0,0:0:0:0:
256,192,122770,1,0,0:0:0:0:
256,192,122825,1,0,0:0:0:0:
256,192,122880,1,8,0:0:0:0:
