osu file format v12

[General]
AudioFilename: 07 - .mp3
AudioLeadIn: 2000
PreviewTime: 25535
Countdown: 0
SampleSet: Normal
StackLeniency: 0.3
Mode: 0
LetterboxInBreaks: 1

[Editor]
Bookmarks: 87476
DistanceSpacing: 1
BeatDivisor: 4
GridSize: 4

[Metadata]
Title:Nagisa no Koakuma Lovely~Radio
TitleUnicode:†渚の小悪魔ラヴリィ~レイディオ†
Artist:Natsuiro Bikini no Prim
ArtistUnicode:夏色ビキニのPrim
Creator:CSY the corrupt
Version:Basic
Source:jubeat
Tags:saucer l.e.d mayumi morinaga konami bemani beatmania iidx 20 tricoro reflec beat colette -spring- hi-core dj fuduji ms0080345 jing jih7491
BeatmapID:230433
BeatmapSetID:76709

[Difficulty]
HPDrainRate:3
CircleSize:3
OverallDifficulty:3
ApproachRate:4
SliderMultiplier:1
SliderTickRate:1

[Events]
//Background and Video events
0,0,"BG.jpg",0,0
//Break Periods
//Storyboard Layer 0 (Background)
//Storyboard Layer 1 (Fail)
//Storyboard Layer 2 (Pass)
//Storyboard Layer 3 (Foreground)
//Storyboard Sound Samples
//Background Colour Transformations
3,100,163,162,255

[TimingPoints]
319,315.789473684211,4,1,1,70,1,0
5371,-100,4,1,1,65,0,1
5529,-100,4,1,1,65,0,0
14213,-100,4,1,1,70,0,0
14845,-100,4,1,1,75,0,0
15476,-100,4,1,1,65,0,0
20529,-100,4,1,1,70,0,0
21792,-100,4,1,1,75,0,0
23055,-100,4,1,1,80,0,0
24950,-100,4,2,1,45,0,0
25582,-100,4,1,1,65,0,1
34424,-100,4,1,1,70,0,1
35055,-100,4,1,1,75,0,1
35687,-100,4,1,1,65,0,1
45792,-100,4,1,1,65,0,0
47687,-100,4,2,1,5,0,0
48319,-100,4,1,1,60,0,0
50213,-100,4,1,1,60,0,0
50845,-100,4,1,1,65,0,0
66003,-100,4,1,1,50,0,0
76108,-100,4,1,1,55,0,0
77371,-100,4,1,1,60,0,0
78634,-100,4,1,1,65,0,1
87476,-100,4,1,1,70,0,1
88108,-100,4,1,1,75,0,1
88740,-100,4,1,1,65,0,1
98845,-100,4,1,1,65,0,0
100740,-100,4,2,1,5,0,0
101371,-100,4,1,1,65,0,0
103266,-100,4,1,1,60,0,0
103897,-100,4,1,1,65,0,0
105634,-100,4,1,1,65,0,1
105792,-100,4,1,1,65,0,0

[Colours]
Combo1 : 255,255,0
Combo2 : 214,3,51
Combo3 : 170,170,255
Combo4 : 0,128,192

[HitObjects]
107,273,319,2,0,P|118:188|203:231,1,200
400,188,1582,2,0,P|388:272|303:229,1,200
256,48,2845,1,0,0:0:0:0:
116,192,3476,1,0,0:0:0:0:
256,192,4108,12,4,5371,0:0:0:0:
218,260,5687,6,0,B|140:324|140:324|68:256,1,200,2|2,0:0|0:0,0:0:0:0:
144,192,6634,2,0,P|184:104|284:96,1,200
252,188,7582,2,0,L|318:262,1,100,2|0,0:0|0:0,0:0:0:0:
418,260,8213,6,0,P|370:344|274:352,1,200,2|2,0:0|0:0,0:0:0:0:
319,262,9161,2,0,P|279:246|223:258,1,100,0|6,0:0|0:0,0:0:0:0:
152,324,9792,2,0,P|108:340|56:329,1,100,0|6,0:0|0:0,0:0:0:0:
100,236,10424,5,4,0:0:0:0:
100,236,10740,2,0,P|116:140|208:112,1,200,2|2,0:0|0:0,0:0:0:0:
208,212,11687,2,0,P|260:200|280:160,1,100,0|2,0:0|0:0,0:0:0:0:
324,72,12319,2,0,P|368:100|376:148,1,100,0|2,0:0|0:0,0:0:0:0:
340,236,12950,5,0,0:0:0:0:
280,156,13266,2,0,P|176:72|24:116,1,300,2|4,0:0|0:0,0:0:0:0:
28,212,14529,2,0,L|28:312,2,100,2|4|6,0:0|0:0|0:0,0:0:0:0:
124,240,15476,6,0,L|224:240,1,100,0|2,0:0|0:0,0:0:0:0:
180,328,16108,2,0,L|280:328,1,100,0|2,0:0|0:0,0:0:0:0:
380,324,16740,5,0,0:0:0:0:
340,232,17055,1,2,0:0:0:0:
308,136,17371,1,0,0:0:0:0:
272,44,17687,1,2,0:0:0:0:
172,44,18003,6,0,L|72:44,2,100,0|2|0,0:0|0:0|0:0,0:0:0:0:
124,132,18950,1,2,0:0:0:0:
184,212,19266,2,0,L|284:212,1,100,0|6,0:0|0:0,0:0:0:0:
237,300,19897,2,0,B|197:340|137:336,1,100,0|6,0:0|0:0,0:0:0:0:
48,332,20529,6,0,B|20:224|20:224|48:176|96:200,1,200,2|0,0:0|0:0,0:0:0:0:
64,104,21476,1,2,0:0:0:0:
144,44,21792,2,0,B|224:-16|296:40|296:40|268:76,1,200,4|0,0:0|0:0,0:0:0:0:
220,152,22740,1,2,0:0:0:0:
320,160,23055,6,0,P|408:263|299:330,1,300,4|2,0:0|0:0,0:0:0:0:
224,259,24319,2,0,P|195:295|200:352,1,100,0|2,0:0|0:0,0:0:0:0:
100,316,24950,1,0,0:0:0:0:
100,316,25266,1,2,0:0:0:0:
100,316,25582,6,0,P|52:232|104:140,2,200,4|0|0,0:0|0:0|0:0,0:0:0:0:
152,228,27161,2,0,L|252:228,2,100,2|0|2,0:0|0:0|0:0,0:0:0:0:
196,136,28108,2,0,L|296:136,1,100,0|2,0:0|0:0,0:0:0:0:
256,44,28740,2,0,L|356:44,1,100,0|2,0:0|0:0,0:0:0:0:
404,132,29371,2,0,L|356:220,2,100,0|2|0,0:0|0:0|0:0,0:0:0:0:
448,40,30319,1,2,0:0:0:0:
448,40,30634,6,0,P|504:124|464:216,2,200
404,132,32213,1,2,0:0:0:0:
404,132,32529,2,0,L|316:132,2,75,4|4|0,0:0|0:0|0:0,0:0:0:0:
404,132,33161,1,4,0:0:0:0:
344,212,33476,2,0,L|244:212,2,100,2|0|2,0:0|0:0|0:0,0:0:0:0:
380,304,34424,2,0,P|368:347|320:367,1,100,4|2,0:0|0:0,0:0:0:0:
220,360,35055,2,0,P|223:315|267:287,1,100,4|6,0:0|0:0,0:0:0:0:
320,204,35687,6,0,P|336:108|264:48,1,200
236,144,36634,1,2,0:0:0:0:
236,144,36950,2,0,L|132:144,2,100,0|2|0,0:0|0:0|0:0,0:0:0:0:
180,60,37897,2,0,L|80:60,1,100,2|0,0:0|0:0,0:0:0:0:
48,156,38529,2,0,L|48:260,1,100,2|0,0:0|0:0,0:0:0:0:
136,208,39161,1,2,0:0:0:0:
136,208,39476,6,0,L|236:208,1,100,0|2,0:0|0:0,0:0:0:0:
204,304,40108,2,0,L|304:304,1,100,0|2,0:0|0:0,0:0:0:0:
340,212,40740,6,0,L|400:292,1,100,4|2,0:0|0:0,0:0:0:0:
444,204,41371,2,0,L|508:284,2,100,0|2|4,0:0|0:0|0:0,0:0:0:0:
392,120,42319,2,0,P|436:92|496:96,2,100,2|0|2,0:0|0:0|0:0,0:0:0:0:
292,120,43266,6,0,P|220:64|116:104,2,200,4|0|4,0:0|0:0|0:0,0:0:0:0:
200,160,44845,1,2,0:0:0:0:
200,260,45161,1,0,0:0:0:0:
100,276,45476,1,2,0:0:0:0:
100,276,45792,6,0,P|48:240|44:144,1,150,4|0,0:0|0:0,0:0:0:0:
120,32,46740,2,0,P|172:68|176:164,1,150
220,296,47687,2,0,P|268:308|292:268,1,100
272,172,48319,6,0,B|336:128|336:128|416:124,1,150,4|0,0:0|0:0,0:0:0:0:
476,256,49266,2,0,B|412:300|412:300|332:304,1,150
196,256,50213,2,0,L|236:352,2,100,2|2|4,0:0|0:0|0:0,0:0:0:0:
108,104,52108,6,0,P|200:72|296:108,2,200
204,280,54634,6,0,P|296:312|392:276,2,200,0|0|4,0:0|0:0|0:0,0:0:0:0:
296,200,57161,5,4,0:0:0:0:
296,200,58424,6,0,P|204:168|108:204,2,200,4|4|4,0:0|0:0|0:0,0:0:0:0:
100,320,60950,5,4,0:0:0:0:
100,320,61897,1,0,0:0:0:0:
412,64,63476,5,4,0:0:0:0:
412,64,64423,1,0,0:0:0:0:
432,236,66003,6,0,P|392:328|296:344,2,200,4|0|0,0:0|0:0|0:0,0:0:0:0:
248,160,67897,2,0,L|316:232,2,100,0|2|0,0:0|0:0|0:0,0:0:0:0:
400,32,69161,2,0,P|484:75|492:171,1,200
156,352,71055,6,0,P|60:328|22:241,2,200,4|0|0,0:0|0:0|0:0,0:0:0:0:
356,352,72950,2,0,P|452:328|489:241,1,200,0|4,0:0|0:0,0:0:0:0:
176,260,74529,5,0,0:0:0:0:
176,260,74845,2,0,P|132:184|196:96,1,200,4|0,0:0|0:0,0:0:0:0:
380,40,76108,1,4,0:0:0:0:
448,228,76740,1,4,0:0:0:0:
448,228,77371,2,0,P|448:272|404:332,2,100,4|2|4,0:0|0:0|0:0,0:0:0:0:
378,155,78319,1,2,0:0:0:0:
348,252,78634,6,0,P|252:288|172:240,2,200,4|0|0,0:0|0:0|0:0,0:0:0:0:
360,152,80213,2,0,L|260:152,2,100,2|0|2,0:0|0:0|0:0,0:0:0:0:
304,68,81160,2,0,L|204:68,1,100,0|2,0:0|0:0,0:0:0:0:
144,148,81792,2,0,L|44:148,1,100,0|2,0:0|0:0,0:0:0:0:
92,236,82423,2,0,L|192:236,2,100,0|2|0,0:0|0:0|0:0,0:0:0:0:
144,324,83371,1,2,0:0:0:0:
244,320,83686,6,0,P|284:224|232:144,2,200
184,236,85265,1,2,0:0:0:0:
184,236,85581,2,0,L|88:236,2,75,4|4|0,0:0|0:0|0:0,0:0:0:0:
184,236,86213,1,4,0:0:0:0:
284,236,86529,2,0,L|384:236,2,100,2|0|2,0:0|0:0|0:0,0:0:0:0:
332,148,87476,2,0,L|384:60,1,100,4|2,0:0|0:0,0:0:0:0:
282,61,88108,2,0,L|232:148,1,100,0|2,0:0|0:0,0:0:0:0:
152,88,88740,6,0,P|136:184|208:244,1,200,4|0,0:0|0:0,0:0:0:0:
232,148,89686,1,2,0:0:0:0:
232,148,90003,2,0,P|284:160|304:200,2,100,0|2|0,0:0|0:0|0:0,0:0:0:0:
216,248,90950,2,0,P|236:296|280:304,1,100,2|0,0:0|0:0,0:0:0:0:
380,304,91581,2,0,L|484:304,1,100,2|0,0:0|0:0,0:0:0:0:
432,216,92213,1,2,0:0:0:0:
432,116,92529,6,0,L|432:16,1,100,0|2,0:0|0:0,0:0:0:0:
344,68,93160,2,0,L|244:68,1,100,0|2,0:0|0:0,0:0:0:0:
180,148,93792,6,0,L|120:68,1,100,4|2,0:0|0:0,0:0:0:0:
68,156,94423,2,0,L|4:76,2,100,0|2|4,0:0|0:0|0:0,0:0:0:0:
100,252,95371,2,0,L|20:312,2,100,2|4|2,0:0|0:0|0:0,0:0:0:0:
168,176,96319,6,0,P|240:240|340:196,2,200,4|0|4,0:0|0:0|0:0,0:0:0:0:
260,144,97897,1,2,0:0:0:0:
352,108,98213,1,4,0:0:0:0:
432,164,98528,1,2,0:0:0:0:
440,264,98845,6,0,P|388:320|296:328,1,150,4|0,0:0|0:0,0:0:0:0:
172,308,99792,2,0,P|201:237|285:198,1,150
404,156,100740,2,0,P|448:134|441:88,1,100
356,40,101371,6,0,L|192:40,1,150,4|0,0:0|0:0,0:0:0:0:
304,152,102319,2,0,L|132:152,1,150
40,248,103266,2,0,L|108:320,1,100,2|2,0:0|0:0,0:0:0:0:
208,340,103897,6,0,P|280:336|328:268,1,150,4|0,0:0|0:0,0:0:0:0:
232,240,104687,2,0,P|252:132|384:204,1,300,0|0,0:0|0:0,0:0:0:0:
