osu file format v12

[General]
AudioFilename: 07 - .mp3
AudioLeadIn: 2000
PreviewTime: 25535
Countdown: 0
SampleSet: Normal
StackLeniency: 0.3
Mode: 0
LetterboxInBreaks: 1

[Editor]
DistanceSpacing: 1.3
BeatDivisor: 4
GridSize: 4

[Metadata]
Title:Nagisa no Koakuma Lovely~Radio
TitleUnicode:†渚の小悪魔ラヴリィ~レイディオ†
Artist:Natsuiro Bikini no Prim
ArtistUnicode:夏色ビキニのPrim
Creator:CSY the corrupt
Version:Advanced
Source:jubeat
Tags:saucer l.e.d mayumi morinaga konami bemani beatmania iidx 20 tricoro reflec beat colette -spring- hi-core dj fuduji ms0080345 jing jih7491
BeatmapID:230333
BeatmapSetID:76709

[Difficulty]
HPDrainRate:5
CircleSize:4
OverallDifficulty:6
ApproachRate:8
SliderMultiplier:1.4
SliderTickRate:1

[Events]
//Background and Video events
0,0,"BG.jpg",0,0
//Break Periods
//Storyboard Layer 0 (Background)
//Storyboard Layer 1 (Fail)
//Storyboard Layer 2 (Pass)
//Storyboard Layer 3 (Foreground)
//Storyboard Sound Samples
//Background Colour Transformations
3,100,163,162,255

[TimingPoints]
319,315.789473684211,4,1,1,70,1,0
5055,-100,4,1,1,50,0,0
5371,-100,4,1,1,65,0,1
5529,-100,4,1,1,65,0,0
14213,-100,4,1,1,70,0,0
14845,-100,4,1,1,75,0,0
15476,-100,4,1,1,65,0,0
20529,-100,4,1,1,70,0,0
21792,-100,4,1,1,75,0,0
23055,-100,4,1,1,80,0,0
24950,-100,4,2,1,45,0,0
25582,-100,4,1,1,65,0,1
34424,-100,4,1,1,70,0,1
35055,-100,4,1,1,75,0,1
35687,-100,4,1,1,65,0,1
45792,-100,4,1,1,65,0,0
47687,-100,4,2,1,5,0,0
48319,-100,4,1,1,65,0,0
50213,-100,4,1,1,60,0,0
50845,-100,4,1,1,65,0,0
66003,-133.333333333333,4,1,1,50,0,0
76108,-100,4,1,1,55,0,0
77371,-100,4,1,1,60,0,0
78634,-100,4,1,1,65,0,1
87476,-100,4,1,1,70,0,1
88108,-100,4,1,1,75,0,1
88740,-100,4,1,1,65,0,1
98845,-100,4,1,1,65,0,0
100740,-100,4,2,1,5,0,0
101371,-100,4,1,1,65,0,0
103266,-100,4,1,1,60,0,0
103897,-100,4,1,1,65,0,0
105634,-100,4,1,1,65,0,1
105792,-100,4,1,1,65,0,0

[Colours]
Combo1 : 255,255,0
Combo2 : 214,3,51
Combo3 : 170,170,255
Combo4 : 0,128,192

[HitObjects]
60,136,319,1,0,0:0:0:0:
128,116,476,1,0,0:0:0:0:
196,96,634,1,0,0:0:0:0:
264,76,792,1,0,0:0:0:0:
332,56,950,1,0,0:0:0:0:
452,248,1582,5,0,0:0:0:0:
384,268,1739,1,0,0:0:0:0:
316,288,1897,1,0,0:0:0:0:
248,308,2055,1,0,0:0:0:0:
180,328,2213,1,0,0:0:0:0:
332,56,2845,6,0,L|420:56,1,70,0|0,0:0|0:0,0:0:0:0:
180,328,3476,2,0,L|92:328,1,70,0|0,0:0|0:0,0:0:0:0:
430,210,4108,6,0,L|480:260,1,70,4|0,0:0|0:0,0:0:0:0:
372,280,4424,2,0,L|295:203,1,70,6|0,0:0|0:0,0:0:0:0:
260,164,4740,1,0,0:0:0:0:
195,97,4897,1,0,0:0:0:0:
261,34,5055,1,2,0:0:0:0:
324,99,5213,1,0,0:0:0:0:
260,164,5371,6,0,P|187:186|120:145,1,140,4|2,0:0|0:0,0:0:0:0:
108,80,5845,1,0,0:0:0:0:
52,140,6003,2,0,P|37:174|46:226,2,70,0|0|2,0:0|0:0|0:0,0:0:0:0:
132,160,6476,1,0,0:0:0:0:
165,278,6634,6,0,P|132:261|108:240,2,70,0|0|2,0:0|0:0|0:0,0:0:0:0:
264,300,7108,2,0,P|299:249|264:184,1,140
208,124,7582,2,0,P|195:89|226:62,1,70,2|0,0:0|0:0,0:0:0:0:
332,32,7897,6,0,B|406:45|406:45|478:98,1,140,0|2,0:0|0:0,0:0:0:0:
504,216,8371,2,0,B|429:202|429:202|357:149,1,140
213,66,8845,2,0,L|160:120,1,70,2|0,0:0|0:0,0:0:0:0:
64,220,9161,5,0,0:0:0:0:
76,324,9319,1,0,0:0:0:0:
160,264,9476,1,6,0:0:0:0:
384,308,9792,5,0,0:0:0:0:
300,248,9950,1,0,0:0:0:0:
396,204,10107,1,6,0:0:0:0:
136,80,10424,6,0,P|175:27|225:61,2,140,4|2|0,0:0|0:0|0:0,0:0:0:0:
196,140,11213,1,0,0:0:0:0:
260,192,11371,2,0,P|284:166|278:134,1,70,2|0,0:0|0:0,0:0:0:0:
120,192,11687,6,0,P|148:220|204:224,2,70,0|0|2,0:0|0:0|0:0,0:0:0:0:
36,204,12161,2,0,P|6:274|54:317,1,140
128,328,12634,1,2,0:0:0:0:
212,328,12792,1,0,0:0:0:0:
292,300,12950,6,0,P|348:256|400:176,1,140,0|2,0:0|0:0,0:0:0:0:
188,112,13424,2,0,P|198:182|241:267,1,140
356,108,13897,2,0,P|321:92|270:82,1,70,2|0,0:0|0:0,0:0:0:0:
113,135,14213,6,0,L|48:160,1,70,4|0,0:0|0:0,0:0:0:0:
112,272,14529,2,0,L|177:296,1,70,2|0,0:0|0:0,0:0:0:0:
364,300,14845,2,0,L|298:275,1,70,4|0,0:0|0:0,0:0:0:0:
258,88,15161,2,0,L|324:64,1,70,2|0,0:0|0:0,0:0:0:0:
404,108,15476,6,0,P|440:169|422:251,1,140,4|2,0:0|0:0,0:0:0:0:
364,300,15950,1,0,0:0:0:0:
168,160,16266,5,0,0:0:0:0:
87,174,16424,1,2,0:0:0:0:
141,239,16582,1,0,0:0:0:0:
237,109,16740,2,0,P|179:74|113:94,1,140,0|2,0:0|0:0,0:0:0:0:
87,174,17213,1,0,0:0:0:0:
376,336,17529,5,0,0:0:0:0:
452,296,17687,1,2,0:0:0:0:
452,212,17845,1,0,0:0:0:0:
372,112,18003,2,0,L|372:252,1,140,0|2,0:0|0:0,0:0:0:0:
376,336,18476,1,0,0:0:0:0:
144,344,18792,5,0,0:0:0:0:
75,295,18950,1,2,0:0:0:0:
105,215,19108,1,0,0:0:0:0:
240,241,19266,2,0,L|173:263,1,70
75,295,19582,1,6,0:0:0:0:
19,230,19740,2,0,P|31:158|84:124,1,140
100,124,20134,1,0,0:0:0:0:
116,124,20213,1,6,0:0:0:0:
208,124,20371,1,0,0:0:0:0:
268,56,20529,5,4,0:0:0:0:
396,224,20845,1,2,0:0:0:0:
228,352,21161,1,0,0:0:0:0:
228,260,21319,1,0,0:0:0:0:
152,308,21476,1,2,0:0:0:0:
152,216,21634,1,0,0:0:0:0:
76,264,21792,5,4,0:0:0:0:
76,52,22108,1,2,0:0:0:0:
284,88,22424,2,0,L|360:104,1,70
324,188,22740,2,0,L|400:204,1,70,2|0,0:0|0:0,0:0:0:0:
368,292,23055,5,4,0:0:0:0:
277,307,23213,1,0,0:0:0:0:
186,323,23371,1,2,0:0:0:0:
96,339,23529,1,0,0:0:0:0:
36,272,23687,1,0,0:0:0:0:
94,200,23845,1,0,0:0:0:0:
153,129,24003,1,2,0:0:0:0:
212,59,24161,1,0,0:0:0:0:
368,84,24319,6,0,P|384:116|360:148,1,70
232,224,24634,2,0,P|216:192|240:160,1,70,2|0,0:0|0:0,0:0:0:0:
328,292,24950,2,0,P|280:340|208:340,1,140,0|2,0:0|0:0,0:0:0:0:
56,100,25582,6,0,B|112:56|112:56|188:56,1,140,4|2,0:0|0:0,0:0:0:0:
220,136,26055,1,0,0:0:0:0:
296,84,26213,2,0,L|360:136,1,70
440,120,26529,2,0,L|432:212,1,70,2|0,0:0|0:0,0:0:0:0:
488,264,26845,5,0,0:0:0:0:
396,276,27003,2,0,L|308:248,2,70,0|2|0,0:0|0:0|0:0,0:0:0:0:
360,360,27476,2,0,L|272:376,1,70
200,364,27792,2,0,L|131:351,1,70,2|0,0:0|0:0,0:0:0:0:
68,284,28108,5,0,0:0:0:0:
42,195,28266,1,0,0:0:0:0:
130,171,28424,1,2,0:0:0:0:
155,258,28582,1,0,0:0:0:0:
244,284,28740,2,0,L|336:284,1,70
280,200,29055,2,0,L|376:200,1,70,2|0,0:0|0:0,0:0:0:0:
316,116,29371,5,0,0:0:0:0:
248,56,29529,2,0,P|216:44|180:44,1,70,0|2,0:0|0:0,0:0:0:0:
104,96,29845,1,0,0:0:0:0:
184,136,30003,1,0,0:0:0:0:
172,228,30161,1,0,0:0:0:0:
156,236,30240,1,0,0:0:0:0:
140,244,30319,1,2,0:0:0:0:
52,228,30476,1,0,0:0:0:0:
156,336,30634,6,0,P|188:341|224:334,1,70
372,228,30950,1,2,0:0:0:0:
284,200,31108,2,0,P|284:267|355:320,1,140
452,184,31582,1,2,0:0:0:0:
484,100,31740,2,0,P|432:52|348:56,1,140
284,92,32213,1,2,0:0:0:0:
364,136,32371,1,0,0:0:0:0:
284,184,32529,6,0,L|176:212,2,105,4|4|4,0:0|0:0|0:0,0:0:0:0:
368,224,33161,2,0,P|384:256|368:312,1,70,0|0,0:0|0:0,0:0:0:0:
304,336,33476,2,0,P|288:304|304:248,1,70,2|0,0:0|0:0,0:0:0:0:
368,224,33792,1,0,0:0:0:0:
360,132,33950,1,0,0:0:0:0:
344,124,34029,1,0,0:0:0:0:
328,116,34108,1,2,0:0:0:0:
236,116,34266,1,0,0:0:0:0:
136,168,34424,6,0,L|72:200,1,70,4|0,0:0|0:0,0:0:0:0:
97,335,34740,2,0,L|160:304,1,70,2|0,0:0|0:0,0:0:0:0:
342,359,35055,2,0,L|280:328,1,70,4|0,0:0|0:0,0:0:0:0:
304,192,35371,2,0,L|366:223,1,70,6|0,0:0|0:0,0:0:0:0:
448,268,35687,6,0,P|445:309|410:335,2,70,0|0|2,0:0|0:0|0:0,0:0:0:0:
436,176,36161,2,0,P|400:116|332:104,1,140
248,128,36634,1,2,0:0:0:0:
93,180,36792,2,0,P|147:217|220:216,2,140
160,116,37582,1,0,0:0:0:0:
318,201,37740,2,0,P|324:280|292:330,1,140
204,340,38213,6,0,B|144:324|120:280|120:280|76:280,1,140,0|2,0:0|0:0,0:0:0:0:
24,212,38687,2,0,B|11:164|11:164|45:70,2,140
202,190,39476,6,0,P|184:152|100:164,1,140,0|2,0:0|0:0,0:0:0:0:
268,312,40108,2,0,P|286:350|371:339,1,140,0|2,0:0|0:0,0:0:0:0:
464,96,40740,6,0,P|490:129|483:172,2,70,4|0|2,0:0|0:0|0:0,0:0:0:0:
380,60,41213,1,0,0:0:0:0:
292,76,41371,1,0,0:0:0:0:
248,156,41529,2,0,P|260:192|304:216,1,70,0|2,0:0|0:0,0:0:0:0:
372,236,41845,6,0,P|336:296|268:296,1,140
130,244,42319,2,0,P|160:236|196:248,1,70,2|0,0:0|0:0,0:0:0:0:
112,332,42634,2,0,P|60:300|44:248,2,105
296,228,43266,5,4,0:0:0:0:
304,136,43424,1,0,0:0:0:0:
213,129,43581,1,6,0:0:0:0:
206,220,43739,1,0,0:0:0:0:
296,228,43897,5,0,0:0:0:0:
386,236,44055,1,0,0:0:0:0:
379,327,44212,1,2,0:0:0:0:
288,320,44370,1,0,0:0:0:0:
256,192,44529,12,0,45476,0:0:0:0:
220,72,45792,5,4,0:0:0:0:
312,72,45950,1,0,0:0:0:0:
404,72,46108,1,0,0:0:0:0:
496,72,46266,1,0,0:0:0:0:
292,312,46740,5,0,0:0:0:0:
200,312,46898,1,0,0:0:0:0:
108,312,47056,1,0,0:0:0:0:
16,312,47214,1,0,0:0:0:0:
238,112,47687,6,0,P|173:115|176:176,1,140
444,240,48319,6,0,P|464:268|452:308,1,70,4|0,0:0|0:0,0:0:0:0:
368,316,48634,2,0,P|348:288|360:248,1,70
68,144,49266,6,0,P|48:116|60:76,1,70
144,68,49582,2,0,P|164:96|152:136,1,70
400,84,50213,6,0,L|372:52,2,35,2|0|0,0:0|0:0|0:0,0:0:0:0:
372,172,50529,1,2,0:0:0:0:
356,172,50608,1,0,0:0:0:0:
340,172,50687,1,0,0:0:0:0:
324,172,50766,1,0,0:0:0:0:
308,172,50845,6,0,L|232:216,1,70,4|0,0:0|0:0,0:0:0:0:
312,272,51161,2,0,L|236:316,1,70,2|0,0:0|0:0,0:0:0:0:
160,312,51476,1,0,0:0:0:0:
84,264,51634,1,0,0:0:0:0:
164,220,51792,1,2,0:0:0:0:
88,172,51950,1,0,0:0:0:0:
164,124,52108,6,0,P|200:132|240:168,2,70,0|0|2,0:0|0:0|0:0,0:0:0:0:
84,264,52582,1,0,0:0:0:0:
160,312,52740,2,0,P|200:316|238:283,1,70
325,218,53055,2,0,P|284:213|246:246,1,70,2|0,0:0|0:0,0:0:0:0:
312,302,53371,6,0,L|368:344,1,70
460,340,53687,1,2,0:0:0:0:
460,340,53845,1,0,0:0:0:0:
500,256,54003,2,0,L|500:156,1,70
452,108,54319,1,2,0:0:0:0:
452,108,54476,1,0,0:0:0:0:
376,56,54634,6,0,P|312:40|288:100,2,140,0|2|0,0:0|0:0|0:0,0:0:0:0:
368,148,55424,1,0,0:0:0:0:
356,160,55503,1,0,0:0:0:0:
344,172,55582,1,2,0:0:0:0:
252,176,55740,1,0,0:0:0:0:
110,149,55897,6,0,P|144:88|204:100,1,140,4|2,0:0|0:0,0:0:0:0:
252,176,56371,1,0,0:0:0:0:
184,236,56529,2,0,L|96:236,2,70,0|0|2,0:0|0:0|0:0,0:0:0:0:
252,300,57003,1,0,0:0:0:0:
410,315,57161,6,0,P|376:376|316:364,1,140,4|2,0:0|0:0,0:0:0:0:
252,300,57634,1,0,0:0:0:0:
312,232,57792,2,0,L|388:224,1,70
416,140,58108,2,0,L|346:147,1,70,2|0,0:0|0:0,0:0:0:0:
256,156,58424,5,4,0:0:0:0:
164,164,58582,1,0,0:0:0:0:
112,88,58740,1,2,0:0:0:0:
204,80,58898,1,0,0:0:0:0:
164,164,59055,2,0,L|128:240,1,70,4|0,0:0|0:0,0:0:0:0:
188,300,59371,2,0,L|217:236,1,70,2|0,0:0|0:0,0:0:0:0:
308,232,59687,6,0,L|364:228,3,35,4|0|0|0,0:0|0:0|0:0|0:0,0:0:0:0:
368,192,60003,2,0,L|396:148,3,35,2|0|0|0,0:0|0:0|0:0|0:0,0:0:0:0:
412,124,60319,2,0,L|468:120,3,35,4|0|0|0,0:0|0:0|0:0|0:0,0:0:0:0:
472,84,60635,2,0,L|500:40,3,35,2|0|0|0,0:0|0:0|0:0|0:0,0:0:0:0:
464,16,60950,5,4,0:0:0:0:
372,20,61108,1,0,0:0:0:0:
280,28,61266,2,0,L|232:80,1,70
32,328,61897,5,0,0:0:0:0:
124,324,62055,1,0,0:0:0:0:
216,316,62213,2,0,L|264:264,1,70
448,156,63476,6,0,L|436:248,1,70,4|0,0:0|0:0,0:0:0:0:
426,317,63792,1,0,0:0:0:0:
342,353,63950,1,0,0:0:0:0:
64,228,64424,6,0,L|76:136,1,70
86,67,64740,1,0,0:0:0:0:
170,31,64898,1,0,0:0:0:0:
256,192,66003,5,4,0:0:0:0:
404,284,66476,1,0,0:0:0:0:
444,244,66634,2,0,L|444:128,1,105.000004005432,0|2,0:0|0:0,0:0:0:0:
392,36,67266,2,0,L|316:36,1,52.5000020027161
252,112,67740,2,0,L|320:112,1,52.5000020027161
376,204,68213,1,2,0:0:0:0:
292,284,68529,6,0,B|244:312|244:312|136:312,1,157.500006008148
100,272,69161,2,0,B|72:228|72:228|72:160,1,105.000004005432,0|2,0:0|0:0,0:0:0:0:
140,80,69792,2,0,L|200:128,1,52.5000020027161
296,100,70266,2,0,L|356:148,1,52.5000020027161
300,244,70740,1,2,0:0:0:0:
184,244,71055,5,4,0:0:0:0:
320,352,71529,2,0,L|380:352,1,52.5000020027161
460,276,72003,1,2,0:0:0:0:
400,188,72319,1,0,0:0:0:0:
400,188,72476,1,0,0:0:0:0:
460,100,72792,1,0,0:0:0:0:
460,100,72950,1,0,0:0:0:0:
372,40,73266,1,2,0:0:0:0:
272,68,73582,5,4,0:0:0:0:
172,96,73897,1,0,0:0:0:0:
172,200,74213,1,0,0:0:0:0:
72,228,74528,1,2,0:0:0:0:
136,312,74845,1,4,0:0:0:0:
233,345,75160,1,0,0:0:0:0:
293,260,75476,1,0,0:0:0:0:
391,295,75791,1,2,0:0:0:0:
480,116,76108,6,0,L|480:186,1,70,4|0,0:0|0:0,0:0:0:0:
396,160,76424,1,0,0:0:0:0:
400,68,76582,1,0,0:0:0:0:
480,116,76740,1,4,0:0:0:0:
396,160,76897,2,0,L|316:160,1,70
252,216,77213,1,0,0:0:0:0:
160,184,77371,5,4,0:0:0:0:
144,176,77450,1,0,0:0:0:0:
128,168,77529,1,0,0:0:0:0:
112,160,77608,1,0,0:0:0:0:
96,152,77687,1,2,0:0:0:0:
80,144,77766,1,0,0:0:0:0:
64,136,77845,1,0,0:0:0:0:
48,128,77924,1,0,0:0:0:0:
32,120,78003,2,0,L|32:40,1,70,4|0,0:0|0:0,0:0:0:0:
156,20,78319,2,0,L|232:60,1,70,2|0,0:0|0:0,0:0:0:0:
260,172,78634,6,0,B|275:203|275:235|243:235|243:263|259:307,2,140,4|2|0,0:0|0:0|0:0,0:0:0:0:
312,96,79424,1,0,0:0:0:0:
404,100,79582,2,0,P|436:112|468:148,1,70,2|0,0:0|0:0,0:0:0:0:
500,220,79897,6,0,L|468:304,1,70
412,220,80213,2,0,L|380:304,1,70,2|0,0:0|0:0,0:0:0:0:
344,368,80529,1,0,0:0:0:0:
284,300,80687,2,0,P|249:289|208:315,1,70,0|2,0:0|0:0,0:0:0:0:
152,364,81003,1,0,0:0:0:0:
64,348,81161,6,0,P|34:330|29:293,2,70,0|0|2,0:0|0:0|0:0,0:0:0:0:
124,280,81634,1,0,0:0:0:0:
112,188,81792,2,0,P|78:196|50:228,1,70
124,280,82108,2,0,P|158:276|185:255,1,70,2|0,0:0|0:0,0:0:0:0:
204,164,82424,5,0,0:0:0:0:
144,96,82582,1,0,0:0:0:0:
212,36,82740,2,0,L|296:36,1,70,2|0,0:0|0:0,0:0:0:0:
368,60,83055,1,0,0:0:0:0:
433,125,83213,1,0,0:0:0:0:
368,188,83371,1,2,0:0:0:0:
304,125,83529,1,0,0:0:0:0:
132,180,83687,6,0,P|112:208|112:252,2,70,0|0|2,0:0|0:0|0:0,0:0:0:0:
196,248,84161,2,0,P|160:320|88:324,1,140
28,284,84634,1,2,0:0:0:0:
8,196,84792,2,0,B|28:132|28:132|96:76,1,140
230,129,85266,2,0,P|203:137|164:128,1,70,2|0,0:0|0:0,0:0:0:0:
268,48,85582,6,0,B|313:81|313:81|321:152,2,105,4|4|4,0:0|0:0|0:0,0:0:0:0:
163,127,86213,2,0,P|176:200|240:192,1,140,0|2,0:0|0:0,0:0:0:0:
400,320,86845,2,0,L|268:360,2,105
440,168,87476,6,0,L|463:233,1,70,4|0,0:0|0:0,0:0:0:0:
292,208,87792,2,0,L|268:273,1,70,2|0,0:0|0:0,0:0:0:0:
328,92,88108,2,0,L|351:26,1,70,4|0,0:0|0:0,0:0:0:0:
144,108,88424,2,0,L|120:42,1,70,6|0,0:0|0:0,0:0:0:0:
12,96,88740,6,0,P|0:136|16:172,1,70,4|0,0:0|0:0,0:0:0:0:
92,196,89055,1,2,0:0:0:0:
227,134,89213,2,0,P|236:184|172:236,1,140
92,196,89687,1,2,0:0:0:0:
96,288,89845,6,0,P|136:320|228:312,2,140
356,152,90792,2,0,P|346:224|297:265,1,140
212,240,91266,6,0,P|178:225|160:184,2,70,0|0|2,0:0|0:0|0:0,0:0:0:0:
244,156,91740,2,0,L|204:92,1,70
84,150,92055,2,0,L|116:88,1,70,0|2,0:0|0:0,0:0:0:0:
168,12,92371,1,0,0:0:0:0:
312,36,92529,6,0,P|368:69|364:148,1,140,0|2,0:0|0:0,0:0:0:0:
200,348,93161,2,0,P|143:314|147:235,1,140,0|2,0:0|0:0,0:0:0:0:
484,300,93792,6,0,P|456:320|396:328,2,70,4|0|2,0:0|0:0|0:0,0:0:0:0:
484,208,94266,2,0,P|456:188|396:180,1,70
332,196,94582,1,0,0:0:0:0:
192,292,94740,1,2,0:0:0:0:
280,276,94898,2,0,P|266:239|244:217,1,70,0|4,0:0|0:0,0:0:0:0:
156,200,95213,5,0,0:0:0:0:
36,292,95371,2,0,P|69:291|100:272,1,70,2|0,0:0|0:0,3:0:0:0:
68,120,95687,2,0,P|24:149|2:195,2,105,4|4|4,0:0|0:0|0:0,0:0:0:0:
156,92,96319,5,4,0:0:0:0:
244,80,96476,1,0,0:0:0:0:
332,64,96634,1,6,0:0:0:0:
420,48,96792,1,0,0:0:0:0:
488,108,96950,1,0,0:0:0:0:
440,188,97108,1,0,0:0:0:0:
392,268,97266,1,2,0:0:0:0:
348,348,97424,1,0,0:0:0:0:
256,192,97582,12,0,98529,0:0:0:0:
101,175,98845,5,4,0:0:0:0:
110,85,99003,1,0,0:0:0:0:
19,77,99161,1,0,0:0:0:0:
12,168,99319,1,0,0:0:0:0:
391,225,99792,5,0,0:0:0:0:
382,315,99950,1,0,0:0:0:0:
473,323,100108,1,0,0:0:0:0:
480,232,100266,1,0,0:0:0:0:
176,208,100740,6,0,P|173:268|238:271,1,140
424,56,101371,6,0,P|398:31|360:32,1,70,4|0,0:0|0:0,0:0:0:0:
302,96,101687,2,0,P|327:120|365:119,1,70
88,328,102319,6,0,P|113:352|151:351,1,70
210,288,102635,2,0,P|184:263|146:264,1,70
132,68,103266,6,0,L|88:68,2,35,2|0|0,0:0|0:0|0:0,0:0:0:0:
216,104,103582,1,2,0:0:0:0:
232,112,103661,1,0,0:0:0:0:
248,120,103740,1,0,0:0:0:0:
264,128,103819,1,0,0:0:0:0:
280,136,103897,6,0,L|360:136,1,70,4|0,0:0|0:0,0:0:0:0:
416,200,104213,1,0,0:0:0:0:
356,268,104371,1,0,0:0:0:0:
56,148,104687,5,0,0:0:0:0:
140,108,104845,1,4,0:0:0:0:
132,200,105003,1,0,0:0:0:0:
124,292,105161,6,0,L|200:272,1,70
388,92,105476,2,0,L|312:112,1,70,0|4,0:0|0:0,0:0:0:0:
