osu file format v14

[General]
AudioFilename: Venice violins.mp3
AudioLeadIn: 0
PreviewTime: 350
Countdown: 0
SampleSet: Normal
StackLeniency: 0.7
Mode: 1
LetterboxInBreaks: 0
WidescreenStoryboard: 0

[Editor]
Bookmarks: 77,7577,22000,29615,44154,58461,73808,88577,103231,125384,140261
DistanceSpacing: 0.8
BeatDivisor: 4
GridSize: 32
TimelineZoom: 2.600002

[Metadata]
Title:Venice violins
TitleUnicode:Venice violins
Artist:Nathan McCree
ArtistUnicode:Nathan McCree
Creator:DarkDunskin
Version:Oni
Source:Tomb Raider
Tags:eidos squareenix enix square lara croft winston marco bartolli
BeatmapID:803184
BeatmapSetID:365956

[Difficulty]
HPDrainRate:5
CircleSize:5
OverallDifficulty:5
ApproachRate:5
SliderMultiplier:1.4
SliderTickRate:1

[Events]
//Background and Video events
0,0,"trii___venice_by_sk8terwawa-d52qjgs.png",0,55
//Break Periods
//Storyboard Layer 0 (Background)
//Storyboard Layer 1 (Fail)
//Storyboard Layer 2 (Pass)
//Storyboard Layer 3 (Foreground)
//Storyboard Sound Samples

[TimingPoints]
345,461.538461538462,4,1,0,80,1,0
44657,-100,4,1,0,80,0,1
55734,-100,4,1,0,80,0,0
74196,-100,4,1,0,80,0,1
88042,-100,4,1,0,80,0,0
103734,-100,4,1,0,80,0,1
117580,-100,4,1,0,80,0,0
125888,-100,4,1,0,20,0,0
127734,-100,4,1,0,35,0,0
129580,-100,4,1,0,50,0,0
131426,-100,4,1,0,65,0,0
133273,-100,4,1,0,80,0,1
138811,-100,4,1,0,80,0,0
140657,-100,4,1,0,80,0,1
150811,521.739130434783,4,1,0,80,1,0
150811,-88.4955752212389,4,1,0,80,0,0
151854,461.538461538462,4,1,0,80,1,0

[HitObjects]
256,192,345,5,4,0:0:0:0:
256,192,1266,1,0,0:0:0:0:
256,192,1958,1,8,0:0:0:0:
256,192,2035,1,0,0:0:0:0:
256,192,2112,1,0,0:0:0:0:
256,192,2189,1,0,0:0:0:0:
256,192,4035,1,4,0:0:0:0:
256,192,4958,1,0,0:0:0:0:
256,192,5650,1,8,0:0:0:0:
256,192,5727,1,0,0:0:0:0:
256,192,5804,1,0,0:0:0:0:
256,192,5881,1,0,0:0:0:0:
256,192,7727,1,8,0:0:0:0:
256,192,7843,1,0,0:0:0:0:
256,192,7958,1,0,0:0:0:0:
256,192,8073,1,0,0:0:0:0:
256,192,8189,1,8,0:0:0:0:
256,192,8304,1,0,0:0:0:0:
256,192,8419,1,0,0:0:0:0:
256,192,8535,1,0,0:0:0:0:
256,192,8650,1,8,0:0:0:0:
256,192,8766,1,0,0:0:0:0:
256,192,8881,1,0,0:0:0:0:
256,192,8997,1,0,0:0:0:0:
256,192,9112,1,8,0:0:0:0:
256,192,9227,1,0,0:0:0:0:
256,192,9342,1,8,0:0:0:0:
256,192,9458,1,0,0:0:0:0:
256,192,9573,1,8,0:0:0:0:
256,192,9689,1,0,0:0:0:0:
256,192,9804,1,8,0:0:0:0:
256,192,9919,1,8,0:0:0:0:
256,192,10035,1,8,0:0:0:0:
256,192,10150,1,0,0:0:0:0:
256,192,10266,1,8,0:0:0:0:
256,192,10381,1,8,0:0:0:0:
256,192,10496,1,8,0:0:0:0:
256,192,10612,1,0,0:0:0:0:
256,192,10727,1,8,0:0:0:0:
256,192,10842,1,8,0:0:0:0:
256,192,10958,1,8,0:0:0:0:
256,192,11073,1,0,0:0:0:0:
256,192,11189,1,8,0:0:0:0:
256,192,11304,1,0,0:0:0:0:
256,192,11419,1,8,0:0:0:0:
256,192,11535,1,0,0:0:0:0:
256,192,11650,1,0,0:0:0:0:
256,192,11766,1,0,0:0:0:0:
256,192,11881,1,8,0:0:0:0:
256,192,11996,1,0,0:0:0:0:
256,192,12112,1,0,0:0:0:0:
256,192,12227,1,0,0:0:0:0:
256,192,12343,1,8,0:0:0:0:
256,192,12458,1,0,0:0:0:0:
256,192,12573,1,0,0:0:0:0:
256,192,12689,1,0,0:0:0:0:
256,192,12804,1,8,0:0:0:0:
256,192,12919,1,0,0:0:0:0:
256,192,13035,1,8,0:0:0:0:
256,192,13150,1,0,0:0:0:0:
256,192,13266,1,8,0:0:0:0:
256,192,13381,1,0,0:0:0:0:
256,192,13496,1,8,0:0:0:0:
256,192,13612,1,8,0:0:0:0:
256,192,13727,1,8,0:0:0:0:
256,192,13843,1,0,0:0:0:0:
256,192,13958,1,8,0:0:0:0:
256,192,14073,1,8,0:0:0:0:
256,192,14189,1,8,0:0:0:0:
256,192,14304,1,0,0:0:0:0:
256,192,14419,1,8,0:0:0:0:
256,192,14535,1,8,0:0:0:0:
256,192,14650,1,8,0:0:0:0:
256,192,14766,1,0,0:0:0:0:
256,192,14881,1,8,0:0:0:0:
256,192,14996,1,0,0:0:0:0:
256,192,15112,1,8,0:0:0:0:
256,192,15227,1,8,0:0:0:0:
256,192,15343,1,0,0:0:0:0:
256,192,15458,1,0,0:0:0:0:
256,192,15573,1,8,0:0:0:0:
256,192,15689,1,8,0:0:0:0:
256,192,15804,1,0,0:0:0:0:
256,192,15919,1,0,0:0:0:0:
256,192,16035,1,8,0:0:0:0:
256,192,16150,1,8,0:0:0:0:
256,192,16266,1,0,0:0:0:0:
256,192,16381,1,0,0:0:0:0:
256,192,16496,1,8,0:0:0:0:
256,192,16612,1,0,0:0:0:0:
256,192,16727,1,8,0:0:0:0:
256,192,16843,1,0,0:0:0:0:
256,192,16958,1,8,0:0:0:0:
256,192,17073,1,8,0:0:0:0:
256,192,17189,1,0,0:0:0:0:
256,192,17304,1,0,0:0:0:0:
256,192,17419,1,8,0:0:0:0:
256,192,17535,1,8,0:0:0:0:
256,192,17650,1,0,0:0:0:0:
256,192,17766,1,0,0:0:0:0:
256,192,17881,1,8,0:0:0:0:
256,192,17996,1,8,0:0:0:0:
256,192,18112,1,0,0:0:0:0:
256,192,18227,1,0,0:0:0:0:
256,192,18343,1,8,0:0:0:0:
256,192,18458,1,0,0:0:0:0:
256,192,18573,1,8,0:0:0:0:
256,192,18689,1,0,0:0:0:0:
256,192,18804,1,8,0:0:0:0:
256,192,18919,1,8,0:0:0:0:
256,192,19035,1,8,0:0:0:0:
256,192,19150,1,0,0:0:0:0:
256,192,19266,1,8,0:0:0:0:
256,192,19381,1,8,0:0:0:0:
256,192,19496,1,8,0:0:0:0:
256,192,19612,1,0,0:0:0:0:
256,192,19727,1,8,0:0:0:0:
256,192,19843,1,8,0:0:0:0:
256,192,19958,1,8,0:0:0:0:
256,192,20073,1,0,0:0:0:0:
256,192,20189,1,8,0:0:0:0:
256,192,20304,1,0,0:0:0:0:
256,192,20419,1,8,0:0:0:0:
256,192,20535,1,0,0:0:0:0:
256,192,20650,1,8,0:0:0:0:
256,192,22496,5,4,0:0:0:0:
256,192,23419,1,0,0:0:0:0:
256,192,24111,1,8,0:0:0:0:
256,192,24189,1,8,0:0:0:0:
256,192,24266,1,8,0:0:0:0:
256,192,24343,1,0,0:0:0:0:
256,192,26189,1,4,0:0:0:0:
256,192,27112,1,0,0:0:0:0:
256,192,27803,1,8,0:0:0:0:
256,192,27881,1,8,0:0:0:0:
256,192,27958,1,8,0:0:0:0:
256,192,28035,1,0,0:0:0:0:
256,192,29881,1,8,0:0:0:0:
256,192,29997,1,0,0:0:0:0:
256,192,30112,1,0,0:0:0:0:
256,192,30227,1,0,0:0:0:0:
256,192,30343,1,8,0:0:0:0:
256,192,30458,1,0,0:0:0:0:
256,192,30573,1,0,0:0:0:0:
256,192,30689,1,0,0:0:0:0:
256,192,30804,1,8,0:0:0:0:
256,192,30920,1,0,0:0:0:0:
256,192,31035,1,0,0:0:0:0:
256,192,31151,1,0,0:0:0:0:
256,192,31266,1,8,0:0:0:0:
256,192,31381,1,0,0:0:0:0:
256,192,31496,1,8,0:0:0:0:
256,192,31612,1,0,0:0:0:0:
256,192,31727,1,8,0:0:0:0:
256,192,31843,1,0,0:0:0:0:
256,192,31958,1,8,0:0:0:0:
256,192,32073,1,8,0:0:0:0:
256,192,32189,1,8,0:0:0:0:
256,192,32304,1,0,0:0:0:0:
256,192,32420,1,8,0:0:0:0:
256,192,32535,1,8,0:0:0:0:
256,192,32650,1,8,0:0:0:0:
256,192,32766,1,0,0:0:0:0:
256,192,32881,1,8,0:0:0:0:
256,192,32996,1,8,0:0:0:0:
256,192,33112,1,8,0:0:0:0:
256,192,33227,1,0,0:0:0:0:
256,192,33343,1,8,0:0:0:0:
256,192,33458,1,0,0:0:0:0:
256,192,33573,1,8,0:0:0:0:
256,192,33689,1,0,0:0:0:0:
256,192,33804,1,0,0:0:0:0:
256,192,33920,1,0,0:0:0:0:
256,192,34035,1,8,0:0:0:0:
256,192,34150,1,0,0:0:0:0:
256,192,34266,1,0,0:0:0:0:
256,192,34381,1,0,0:0:0:0:
256,192,34497,1,8,0:0:0:0:
256,192,34612,1,0,0:0:0:0:
256,192,34727,1,0,0:0:0:0:
256,192,34843,1,0,0:0:0:0:
256,192,34958,1,8,0:0:0:0:
256,192,35073,1,0,0:0:0:0:
256,192,35189,1,8,0:0:0:0:
256,192,35304,1,0,0:0:0:0:
256,192,35420,1,8,0:0:0:0:
256,192,35535,1,0,0:0:0:0:
256,192,35650,1,8,0:0:0:0:
256,192,35766,1,8,0:0:0:0:
256,192,35881,1,8,0:0:0:0:
256,192,35997,1,0,0:0:0:0:
256,192,36112,1,8,0:0:0:0:
256,192,36227,1,8,0:0:0:0:
256,192,36343,1,8,0:0:0:0:
256,192,36458,1,0,0:0:0:0:
256,192,36573,1,8,0:0:0:0:
256,192,36689,1,8,0:0:0:0:
256,192,36804,1,8,0:0:0:0:
256,192,36920,1,0,0:0:0:0:
256,192,37035,1,8,0:0:0:0:
256,192,37150,1,0,0:0:0:0:
256,192,37266,1,8,0:0:0:0:
256,192,37381,1,8,0:0:0:0:
256,192,37497,1,0,0:0:0:0:
256,192,37612,1,0,0:0:0:0:
256,192,37727,1,8,0:0:0:0:
256,192,37843,1,8,0:0:0:0:
256,192,37958,1,0,0:0:0:0:
256,192,38073,1,0,0:0:0:0:
256,192,38189,1,8,0:0:0:0:
256,192,38304,1,8,0:0:0:0:
256,192,38420,1,0,0:0:0:0:
256,192,38535,1,0,0:0:0:0:
256,192,38650,1,8,0:0:0:0:
256,192,38766,1,0,0:0:0:0:
256,192,38881,1,8,0:0:0:0:
256,192,38997,1,0,0:0:0:0:
256,192,39112,1,8,0:0:0:0:
256,192,39227,1,8,0:0:0:0:
256,192,39343,1,0,0:0:0:0:
256,192,39458,1,0,0:0:0:0:
256,192,39573,1,8,0:0:0:0:
256,192,39689,1,8,0:0:0:0:
256,192,39804,1,0,0:0:0:0:
256,192,39920,1,0,0:0:0:0:
256,192,40035,1,8,0:0:0:0:
256,192,40150,1,8,0:0:0:0:
256,192,40266,1,0,0:0:0:0:
256,192,40381,1,0,0:0:0:0:
256,192,40497,1,8,0:0:0:0:
256,192,40612,1,0,0:0:0:0:
256,192,40727,1,8,0:0:0:0:
256,192,40843,1,0,0:0:0:0:
256,192,40958,1,8,0:0:0:0:
256,192,41073,1,8,0:0:0:0:
256,192,41189,1,8,0:0:0:0:
256,192,41304,1,0,0:0:0:0:
256,192,41420,1,8,0:0:0:0:
256,192,41535,1,8,0:0:0:0:
256,192,41650,1,8,0:0:0:0:
256,192,41766,1,0,0:0:0:0:
256,192,41881,1,8,0:0:0:0:
256,192,41997,1,8,0:0:0:0:
256,192,42112,1,8,0:0:0:0:
256,192,42227,1,0,0:0:0:0:
256,192,42343,1,8,0:0:0:0:
256,192,42458,1,0,0:0:0:0:
256,192,42573,1,8,0:0:0:0:
256,192,42689,1,0,0:0:0:0:
256,192,42804,1,8,0:0:0:0:
256,192,44650,5,4,0:0:0:0:
256,192,44881,1,0,0:0:0:0:
256,192,44996,1,0,0:0:0:0:
256,192,45112,1,8,0:0:0:0:
256,192,45343,1,0,0:0:0:0:
256,192,45419,1,0,0:0:0:0:
256,192,45496,1,0,0:0:0:0:
256,192,45573,1,8,0:0:0:0:
256,192,45804,1,8,0:0:0:0:
256,192,46035,1,8,0:0:0:0:
256,192,46150,1,8,0:0:0:0:
256,192,46266,1,0,0:0:0:0:
256,192,46381,1,0,0:0:0:0:
256,192,46496,1,8,0:0:0:0:
256,192,46727,1,0,0:0:0:0:
256,192,46843,1,0,0:0:0:0:
256,192,46958,1,8,0:0:0:0:
256,192,47189,1,8,0:0:0:0:
256,192,47266,1,8,0:0:0:0:
256,192,47343,1,8,0:0:0:0:
256,192,47419,1,8,0:0:0:0:
256,192,47650,1,8,0:0:0:0:
256,192,47881,1,8,0:0:0:0:
256,192,47996,1,8,0:0:0:0:
256,192,48112,1,0,0:0:0:0:
256,192,48227,1,8,0:0:0:0:
256,192,48343,1,0,0:0:0:0:
256,192,48573,1,0,0:0:0:0:
256,192,48689,1,0,0:0:0:0:
256,192,48804,1,8,0:0:0:0:
256,192,49035,1,0,0:0:0:0:
256,192,49112,1,0,0:0:0:0:
256,192,49189,1,0,0:0:0:0:
256,192,49266,1,8,0:0:0:0:
256,192,49496,1,8,0:0:0:0:
256,192,49727,1,8,0:0:0:0:
256,192,49843,1,8,0:0:0:0:
256,192,49958,1,0,0:0:0:0:
256,192,50073,1,0,0:0:0:0:
256,192,50189,1,8,0:0:0:0:
256,192,50419,1,0,0:0:0:0:
256,192,50535,1,0,0:0:0:0:
256,192,50650,1,8,0:0:0:0:
256,192,50881,1,8,0:0:0:0:
256,192,50958,1,8,0:0:0:0:
256,192,51035,1,8,0:0:0:0:
256,192,51112,1,8,0:0:0:0:
256,192,51343,1,8,0:0:0:0:
256,192,51573,1,8,0:0:0:0:
256,192,51689,1,8,0:0:0:0:
256,192,51804,1,0,0:0:0:0:
256,192,51919,1,8,0:0:0:0:
256,192,52035,1,0,0:0:0:0:
256,192,52266,1,0,0:0:0:0:
256,192,52381,1,0,0:0:0:0:
256,192,52496,1,8,0:0:0:0:
256,192,52727,1,0,0:0:0:0:
256,192,52804,1,0,0:0:0:0:
256,192,52881,1,0,0:0:0:0:
256,192,52958,1,8,0:0:0:0:
256,192,53189,1,8,0:0:0:0:
256,192,53419,1,8,0:0:0:0:
256,192,53535,1,8,0:0:0:0:
256,192,53650,1,0,0:0:0:0:
256,192,53766,1,0,0:0:0:0:
256,192,53881,1,8,0:0:0:0:
256,192,54112,1,0,0:0:0:0:
256,192,54227,1,0,0:0:0:0:
256,192,54343,1,8,0:0:0:0:
256,192,54573,1,8,0:0:0:0:
256,192,54650,1,8,0:0:0:0:
256,192,54727,1,8,0:0:0:0:
256,192,54804,1,8,0:0:0:0:
256,192,55035,1,8,0:0:0:0:
256,192,55266,1,8,0:0:0:0:
256,192,55496,1,8,0:0:0:0:
256,192,55727,1,8,0:0:0:0:
256,192,55843,1,4,0:0:0:0:
256,192,56650,1,8,0:0:0:0:
256,192,56766,1,0,0:0:0:0:
256,192,56881,1,8,0:0:0:0:
256,192,56996,1,0,0:0:0:0:
256,192,57112,1,8,0:0:0:0:
256,192,57227,1,0,0:0:0:0:
256,192,57343,1,0,0:0:0:0:
256,192,57458,1,0,0:0:0:0:
256,192,57573,1,8,0:0:0:0:
256,192,59419,5,0,0:0:0:0:
256,192,59534,1,0,0:0:0:0:
256,192,59650,1,8,0:0:0:0:
256,192,59765,1,0,0:0:0:0:
256,192,59880,1,0,0:0:0:0:
256,192,60111,1,8,0:0:0:0:
256,192,60343,1,0,0:0:0:0:
256,192,60573,1,8,0:0:0:0:
256,192,60804,1,0,0:0:0:0:
256,192,61035,1,8,0:0:0:0:
256,192,61266,1,0,0:0:0:0:
256,192,61496,1,8,0:0:0:0:
256,192,61727,1,0,0:0:0:0:
256,192,61958,1,8,0:0:0:0:
256,192,62189,1,0,0:0:0:0:
256,192,62419,1,8,0:0:0:0:
256,192,62535,1,0,0:0:0:0:
256,192,62650,1,0,0:0:0:0:
256,192,62881,1,8,0:0:0:0:
256,192,63112,1,0,0:0:0:0:
256,192,63227,1,0,0:0:0:0:
256,192,63343,1,8,0:0:0:0:
256,192,63458,1,0,0:0:0:0:
256,192,63573,1,0,0:0:0:0:
256,192,63804,1,8,0:0:0:0:
256,192,64035,1,0,0:0:0:0:
256,192,64266,1,8,0:0:0:0:
256,192,64496,1,0,0:0:0:0:
256,192,64727,1,8,0:0:0:0:
256,192,64958,1,0,0:0:0:0:
256,192,65189,1,8,0:0:0:0:
256,192,65419,1,0,0:0:0:0:
256,192,65650,1,8,0:0:0:0:
256,192,65881,1,0,0:0:0:0:
256,192,66112,1,8,0:0:0:0:
256,192,66227,1,8,0:0:0:0:
256,192,66343,1,0,0:0:0:0:
256,192,66573,1,8,0:0:0:0:
256,192,66804,5,0,0:0:0:0:
256,192,66919,1,0,0:0:0:0:
256,192,67035,1,8,0:0:0:0:
256,192,67150,1,0,0:0:0:0:
256,192,67265,1,0,0:0:0:0:
256,192,67496,1,8,0:0:0:0:
256,192,67728,1,0,0:0:0:0:
256,192,67958,1,8,0:0:0:0:
256,192,68189,1,0,0:0:0:0:
256,192,68420,1,8,0:0:0:0:
256,192,68651,1,0,0:0:0:0:
256,192,68881,1,8,0:0:0:0:
256,192,69112,1,0,0:0:0:0:
256,192,69343,1,8,0:0:0:0:
256,192,69574,1,0,0:0:0:0:
256,192,69804,1,8,0:0:0:0:
256,192,69920,1,0,0:0:0:0:
256,192,70035,1,0,0:0:0:0:
256,192,70266,1,8,0:0:0:0:
256,192,70497,1,0,0:0:0:0:
256,192,70612,1,0,0:0:0:0:
256,192,70728,1,8,0:0:0:0:
256,192,70843,1,0,0:0:0:0:
256,192,70958,1,0,0:0:0:0:
256,192,71189,1,8,0:0:0:0:
256,192,71420,1,0,0:0:0:0:
256,192,71651,1,8,0:0:0:0:
256,192,71881,1,0,0:0:0:0:
256,192,72112,1,8,0:0:0:0:
256,192,72343,1,0,0:0:0:0:
256,192,72574,1,8,0:0:0:0:
256,192,72804,1,0,0:0:0:0:
256,192,73035,1,8,0:0:0:0:
256,192,73266,1,12,0:0:0:0:
256,192,74189,5,0,0:0:0:0:
256,192,74304,1,0,0:0:0:0:
256,192,74420,1,8,0:0:0:0:
256,192,74535,1,0,0:0:0:0:
256,192,74650,1,0,0:0:0:0:
256,192,74881,1,8,0:0:0:0:
256,192,75113,1,0,0:0:0:0:
256,192,75227,1,0,0:0:0:0:
256,192,75343,1,8,0:0:0:0:
256,192,75574,1,0,0:0:0:0:
256,192,75689,1,8,0:0:0:0:
256,192,75805,1,8,0:0:0:0:
256,192,76036,1,0,0:0:0:0:
256,192,76150,1,0,0:0:0:0:
256,192,76266,1,8,0:0:0:0:
256,192,76497,1,0,0:0:0:0:
256,192,76612,1,0,0:0:0:0:
256,192,76728,1,8,0:0:0:0:
256,192,76843,1,8,0:0:0:0:
256,192,76959,1,0,0:0:0:0:
256,192,77189,1,8,0:0:0:0:
256,192,77266,1,8,0:0:0:0:
256,192,77343,1,8,0:0:0:0:
256,192,77420,1,0,0:0:0:0:
256,192,77651,1,8,0:0:0:0:
256,192,77882,1,0,0:0:0:0:
256,192,77997,1,0,0:0:0:0:
256,192,78113,1,8,0:0:0:0:
256,192,78228,1,0,0:0:0:0:
256,192,78343,1,0,0:0:0:0:
256,192,78574,1,8,0:0:0:0:
256,192,78805,1,0,0:0:0:0:
256,192,78919,1,8,0:0:0:0:
256,192,79036,1,8,0:0:0:0:
256,192,79266,1,0,0:0:0:0:
256,192,79381,1,0,0:0:0:0:
256,192,79497,1,8,0:0:0:0:
256,192,79728,1,0,0:0:0:0:
256,192,79843,1,8,0:0:0:0:
256,192,79959,1,8,0:0:0:0:
256,192,80189,1,0,0:0:0:0:
256,192,80304,1,0,0:0:0:0:
256,192,80420,1,8,0:0:0:0:
256,192,80535,1,8,0:0:0:0:
256,192,80651,1,0,0:0:0:0:
256,192,80882,1,8,0:0:0:0:
256,192,80997,1,8,0:0:0:0:
256,192,81113,1,0,0:0:0:0:
256,192,81343,1,8,0:0:0:0:
256,192,81573,5,0,0:0:0:0:
256,192,81688,1,0,0:0:0:0:
256,192,81804,1,8,0:0:0:0:
256,192,81919,1,0,0:0:0:0:
256,192,82034,1,0,0:0:0:0:
256,192,82265,1,8,0:0:0:0:
256,192,82497,1,0,0:0:0:0:
256,192,82612,1,0,0:0:0:0:
256,192,82727,1,8,0:0:0:0:
256,192,82958,1,0,0:0:0:0:
256,192,83073,1,8,0:0:0:0:
256,192,83189,1,8,0:0:0:0:
256,192,83420,1,0,0:0:0:0:
256,192,83535,1,0,0:0:0:0:
256,192,83650,1,8,0:0:0:0:
256,192,83881,1,0,0:0:0:0:
256,192,83996,1,0,0:0:0:0:
256,192,84112,1,8,0:0:0:0:
256,192,84227,1,8,0:0:0:0:
256,192,84343,1,0,0:0:0:0:
256,192,84573,1,8,0:0:0:0:
256,192,84650,1,8,0:0:0:0:
256,192,84727,1,8,0:0:0:0:
256,192,84804,1,0,0:0:0:0:
256,192,85035,1,8,0:0:0:0:
256,192,85266,1,0,0:0:0:0:
256,192,85381,1,0,0:0:0:0:
256,192,85497,1,8,0:0:0:0:
256,192,85612,1,0,0:0:0:0:
256,192,85727,1,0,0:0:0:0:
256,192,85958,1,8,0:0:0:0:
256,192,86189,1,0,0:0:0:0:
256,192,86304,1,8,0:0:0:0:
256,192,86420,1,8,0:0:0:0:
256,192,86650,1,0,0:0:0:0:
256,192,86766,1,0,0:0:0:0:
256,192,86881,1,8,0:0:0:0:
256,192,87112,1,0,0:0:0:0:
256,192,87227,1,8,0:0:0:0:
256,192,87343,1,8,0:0:0:0:
256,192,87573,1,0,0:0:0:0:
256,192,87804,1,8,0:0:0:0:
256,192,88035,1,12,0:0:0:0:
256,192,88958,1,4,0:0:0:0:
256,192,89189,1,0,0:0:0:0:
256,192,89419,1,0,0:0:0:0:
256,192,89650,1,0,0:0:0:0:
256,192,89881,1,0,0:0:0:0:
256,192,90112,1,0,0:0:0:0:
256,192,90343,1,0,0:0:0:0:
256,192,90573,1,0,0:0:0:0:
256,192,90804,1,12,0:0:0:0:
256,192,91035,1,8,0:0:0:0:
256,192,91266,1,8,0:0:0:0:
256,192,91496,1,8,0:0:0:0:
256,192,91727,1,8,0:0:0:0:
256,192,91958,1,8,0:0:0:0:
256,192,92189,1,8,0:0:0:0:
256,192,92419,1,8,0:0:0:0:
256,192,92650,1,4,0:0:0:0:
256,192,92881,1,0,0:0:0:0:
256,192,93112,1,0,0:0:0:0:
256,192,93343,1,0,0:0:0:0:
256,192,93573,1,0,0:0:0:0:
256,192,93804,1,0,0:0:0:0:
256,192,94035,1,0,0:0:0:0:
256,192,94266,1,0,0:0:0:0:
256,192,94496,1,12,0:0:0:0:
256,192,94727,1,8,0:0:0:0:
256,192,94958,1,8,0:0:0:0:
256,192,95189,1,8,0:0:0:0:
256,192,95419,1,8,0:0:0:0:
256,192,95650,1,8,0:0:0:0:
256,192,95881,1,8,0:0:0:0:
256,192,96112,1,8,0:0:0:0:
256,192,96343,1,4,0:0:0:0:
256,192,96573,1,0,0:0:0:0:
256,192,96804,1,0,0:0:0:0:
256,192,97035,1,0,0:0:0:0:
256,192,97266,1,0,0:0:0:0:
256,192,97496,1,0,0:0:0:0:
256,192,97727,1,0,0:0:0:0:
256,192,97958,1,0,0:0:0:0:
256,192,98189,1,12,0:0:0:0:
256,192,98419,1,8,0:0:0:0:
256,192,98650,1,8,0:0:0:0:
256,192,98881,1,8,0:0:0:0:
256,192,99112,1,8,0:0:0:0:
256,192,99343,1,8,0:0:0:0:
256,192,99573,1,8,0:0:0:0:
256,192,99804,1,8,0:0:0:0:
256,192,100035,1,8,0:0:0:0:
256,192,100150,1,4,0:0:0:0:
256,192,100958,1,8,0:0:0:0:
256,192,101073,1,0,0:0:0:0:
256,192,101189,1,8,0:0:0:0:
256,192,101304,1,0,0:0:0:0:
256,192,101419,1,8,0:0:0:0:
256,192,101535,1,0,0:0:0:0:
256,192,101650,1,0,0:0:0:0:
256,192,101766,1,0,0:0:0:0:
256,192,101881,1,8,0:0:0:0:
256,192,103727,5,0,0:0:0:0:
256,192,103842,1,0,0:0:0:0:
256,192,103958,1,8,0:0:0:0:
256,192,104073,1,0,0:0:0:0:
256,192,104188,1,0,0:0:0:0:
256,192,104419,1,8,0:0:0:0:
256,192,104651,1,0,0:0:0:0:
256,192,104765,1,0,0:0:0:0:
256,192,104881,1,8,0:0:0:0:
256,192,105112,1,0,0:0:0:0:
256,192,105227,1,8,0:0:0:0:
256,192,105343,1,8,0:0:0:0:
256,192,105574,1,0,0:0:0:0:
256,192,105688,1,0,0:0:0:0:
256,192,105804,1,8,0:0:0:0:
256,192,106035,1,0,0:0:0:0:
256,192,106150,1,0,0:0:0:0:
256,192,106266,1,8,0:0:0:0:
256,192,106381,1,8,0:0:0:0:
256,192,106497,1,0,0:0:0:0:
256,192,106727,1,8,0:0:0:0:
256,192,106804,1,8,0:0:0:0:
256,192,106881,1,8,0:0:0:0:
256,192,106958,1,0,0:0:0:0:
256,192,107189,1,8,0:0:0:0:
256,192,107420,1,0,0:0:0:0:
256,192,107535,1,0,0:0:0:0:
256,192,107651,1,8,0:0:0:0:
256,192,107766,1,0,0:0:0:0:
256,192,107881,1,0,0:0:0:0:
256,192,108112,1,8,0:0:0:0:
256,192,108343,1,0,0:0:0:0:
256,192,108457,1,8,0:0:0:0:
256,192,108574,1,8,0:0:0:0:
256,192,108804,1,0,0:0:0:0:
256,192,108919,1,0,0:0:0:0:
256,192,109035,1,8,0:0:0:0:
256,192,109266,1,0,0:0:0:0:
256,192,109381,1,8,0:0:0:0:
256,192,109497,1,8,0:0:0:0:
256,192,109727,1,0,0:0:0:0:
256,192,109843,1,0,0:0:0:0:
256,192,109958,1,8,0:0:0:0:
256,192,110073,1,8,0:0:0:0:
256,192,110189,1,0,0:0:0:0:
256,192,110420,1,8,0:0:0:0:
256,192,110535,1,8,0:0:0:0:
256,192,110651,1,0,0:0:0:0:
256,192,110881,1,8,0:0:0:0:
256,192,111111,5,0,0:0:0:0:
256,192,111226,1,0,0:0:0:0:
256,192,111342,1,8,0:0:0:0:
256,192,111457,1,0,0:0:0:0:
256,192,111572,1,0,0:0:0:0:
256,192,111803,1,8,0:0:0:0:
256,192,112035,1,0,0:0:0:0:
256,192,112150,1,0,0:0:0:0:
256,192,112265,1,8,0:0:0:0:
256,192,112496,1,0,0:0:0:0:
256,192,112611,1,8,0:0:0:0:
256,192,112727,1,8,0:0:0:0:
256,192,112958,1,0,0:0:0:0:
256,192,113073,1,0,0:0:0:0:
256,192,113188,1,8,0:0:0:0:
256,192,113419,1,0,0:0:0:0:
256,192,113535,1,0,0:0:0:0:
256,192,113650,1,8,0:0:0:0:
256,192,113766,1,8,0:0:0:0:
256,192,113881,1,0,0:0:0:0:
256,192,114111,1,8,0:0:0:0:
256,192,114188,1,8,0:0:0:0:
256,192,114265,1,8,0:0:0:0:
256,192,114342,1,0,0:0:0:0:
256,192,114573,1,8,0:0:0:0:
256,192,114804,1,0,0:0:0:0:
256,192,114919,1,0,0:0:0:0:
256,192,115035,1,8,0:0:0:0:
256,192,115150,1,0,0:0:0:0:
256,192,115265,1,0,0:0:0:0:
256,192,115496,1,8,0:0:0:0:
256,192,115727,1,0,0:0:0:0:
256,192,115842,1,8,0:0:0:0:
256,192,115958,1,8,0:0:0:0:
256,192,116188,1,0,0:0:0:0:
256,192,116304,1,0,0:0:0:0:
256,192,116419,1,8,0:0:0:0:
256,192,116650,1,0,0:0:0:0:
256,192,116765,1,8,0:0:0:0:
256,192,116881,1,8,0:0:0:0:
256,192,117111,1,0,0:0:0:0:
256,192,117342,1,8,0:0:0:0:
256,192,117573,1,12,0:0:0:0:
256,192,118496,1,4,0:0:0:0:
256,192,119419,1,0,0:0:0:0:
256,192,120112,1,8,0:0:0:0:
256,192,120189,1,0,0:0:0:0:
256,192,120266,1,0,0:0:0:0:
256,192,120343,1,0,0:0:0:0:
256,192,122189,1,4,0:0:0:0:
256,192,123112,1,0,0:0:0:0:
256,192,123804,1,8,0:0:0:0:
256,192,123881,1,0,0:0:0:0:
256,192,123958,1,0,0:0:0:0:
256,192,124035,1,0,0:0:0:0:
256,192,125881,1,8,0:0:0:0:
256,192,125997,1,0,0:0:0:0:
256,192,126112,1,0,0:0:0:0:
256,192,126227,1,0,0:0:0:0:
256,192,126343,1,8,0:0:0:0:
256,192,126458,1,0,0:0:0:0:
256,192,126573,1,0,0:0:0:0:
256,192,126689,1,0,0:0:0:0:
256,192,126804,1,8,0:0:0:0:
256,192,126920,1,0,0:0:0:0:
256,192,127035,1,0,0:0:0:0:
256,192,127151,1,0,0:0:0:0:
256,192,127266,1,8,0:0:0:0:
256,192,127381,1,0,0:0:0:0:
256,192,127496,1,8,0:0:0:0:
256,192,127612,1,0,0:0:0:0:
256,192,127727,1,8,0:0:0:0:
256,192,127843,1,0,0:0:0:0:
256,192,127958,1,8,0:0:0:0:
256,192,128073,1,8,0:0:0:0:
256,192,128189,1,8,0:0:0:0:
256,192,128304,1,0,0:0:0:0:
256,192,128420,1,8,0:0:0:0:
256,192,128535,1,8,0:0:0:0:
256,192,128650,1,8,0:0:0:0:
256,192,128766,1,0,0:0:0:0:
256,192,128881,1,8,0:0:0:0:
256,192,128996,1,8,0:0:0:0:
256,192,129112,1,8,0:0:0:0:
256,192,129227,1,0,0:0:0:0:
256,192,129343,1,8,0:0:0:0:
256,192,129458,1,0,0:0:0:0:
256,192,129573,1,8,0:0:0:0:
256,192,129689,1,0,0:0:0:0:
256,192,129804,1,0,0:0:0:0:
256,192,129920,1,0,0:0:0:0:
256,192,130035,1,8,0:0:0:0:
256,192,130150,1,0,0:0:0:0:
256,192,130266,1,0,0:0:0:0:
256,192,130381,1,0,0:0:0:0:
256,192,130497,1,8,0:0:0:0:
256,192,130612,1,0,0:0:0:0:
256,192,130727,1,0,0:0:0:0:
256,192,130843,1,0,0:0:0:0:
256,192,130958,1,8,0:0:0:0:
256,192,131073,1,0,0:0:0:0:
256,192,131189,1,8,0:0:0:0:
256,192,131304,1,0,0:0:0:0:
256,192,131420,1,8,0:0:0:0:
256,192,131535,1,0,0:0:0:0:
256,192,131650,1,8,0:0:0:0:
256,192,131766,1,8,0:0:0:0:
256,192,131881,1,8,0:0:0:0:
256,192,131997,1,0,0:0:0:0:
256,192,132112,1,8,0:0:0:0:
256,192,132227,1,8,0:0:0:0:
256,192,132343,1,8,0:0:0:0:
256,192,132458,1,0,0:0:0:0:
256,192,132573,1,8,0:0:0:0:
256,192,132689,1,8,0:0:0:0:
256,192,132804,1,8,0:0:0:0:
256,192,132920,1,0,0:0:0:0:
256,192,133035,1,8,0:0:0:0:
256,192,133150,1,0,0:0:0:0:
256,192,133266,1,8,0:0:0:0:
256,192,133343,1,8,0:0:0:0:
256,192,133419,1,8,0:0:0:0:
256,192,133497,1,8,0:0:0:0:
256,192,133612,1,0,0:0:0:0:
256,192,133727,1,8,0:0:0:0:
256,192,133804,1,8,0:0:0:0:
256,192,133880,1,8,0:0:0:0:
256,192,133958,1,8,0:0:0:0:
256,192,134073,1,0,0:0:0:0:
256,192,134189,1,8,0:0:0:0:
256,192,134266,1,8,0:0:0:0:
256,192,134342,1,8,0:0:0:0:
256,192,134420,1,8,0:0:0:0:
256,192,134535,1,0,0:0:0:0:
256,192,134650,1,8,0:0:0:0:
256,192,134766,1,0,0:0:0:0:
256,192,134881,1,8,0:0:0:0:
256,192,134997,1,0,0:0:0:0:
256,192,135112,1,8,0:0:0:0:
256,192,135189,1,8,0:0:0:0:
256,192,135265,1,8,0:0:0:0:
256,192,135343,1,8,0:0:0:0:
256,192,135458,1,0,0:0:0:0:
256,192,135573,1,8,0:0:0:0:
256,192,135650,1,8,0:0:0:0:
256,192,135726,1,8,0:0:0:0:
256,192,135804,1,8,0:0:0:0:
256,192,135919,1,0,0:0:0:0:
256,192,136035,1,8,0:0:0:0:
256,192,136112,1,8,0:0:0:0:
256,192,136188,1,8,0:0:0:0:
256,192,136266,1,8,0:0:0:0:
256,192,136381,1,0,0:0:0:0:
256,192,136497,1,8,0:0:0:0:
256,192,136612,1,0,0:0:0:0:
256,192,136727,1,8,0:0:0:0:
256,192,136843,1,0,0:0:0:0:
256,192,136958,1,8,0:0:0:0:
256,192,137035,1,8,0:0:0:0:
256,192,137112,1,8,0:0:0:0:
256,192,137189,1,8,0:0:0:0:
256,192,137304,1,0,0:0:0:0:
256,192,137419,1,8,0:0:0:0:
256,192,137496,1,8,0:0:0:0:
256,192,137573,1,8,0:0:0:0:
256,192,137650,1,8,0:0:0:0:
256,192,137766,1,0,0:0:0:0:
256,192,137881,1,8,0:0:0:0:
256,192,137958,1,8,0:0:0:0:
256,192,138035,1,8,0:0:0:0:
256,192,138112,1,8,0:0:0:0:
256,192,138227,1,0,0:0:0:0:
256,192,138343,1,8,0:0:0:0:
256,192,138458,1,0,0:0:0:0:
256,192,138573,1,8,0:0:0:0:
256,192,138689,1,0,0:0:0:0:
256,192,138804,1,8,0:0:0:0:
256,192,140650,5,4,0:0:0:0:
256,192,140881,1,0,0:0:0:0:
256,192,140996,1,0,0:0:0:0:
256,192,141112,1,8,0:0:0:0:
256,192,141343,1,0,0:0:0:0:
256,192,141419,1,0,0:0:0:0:
256,192,141496,1,0,0:0:0:0:
256,192,141573,1,8,0:0:0:0:
256,192,141804,1,8,0:0:0:0:
256,192,142035,1,8,0:0:0:0:
256,192,142150,1,8,0:0:0:0:
256,192,142266,1,0,0:0:0:0:
256,192,142381,1,0,0:0:0:0:
256,192,142496,1,8,0:0:0:0:
256,192,142727,1,0,0:0:0:0:
256,192,142843,1,0,0:0:0:0:
256,192,142958,1,8,0:0:0:0:
256,192,143189,1,8,0:0:0:0:
256,192,143266,1,8,0:0:0:0:
256,192,143343,1,8,0:0:0:0:
256,192,143419,1,8,0:0:0:0:
256,192,143650,1,8,0:0:0:0:
256,192,143881,1,8,0:0:0:0:
256,192,143996,1,8,0:0:0:0:
256,192,144112,1,0,0:0:0:0:
256,192,144227,1,8,0:0:0:0:
256,192,144343,1,0,0:0:0:0:
256,192,144573,1,0,0:0:0:0:
256,192,144689,1,0,0:0:0:0:
256,192,144804,1,8,0:0:0:0:
256,192,145035,1,0,0:0:0:0:
256,192,145112,1,0,0:0:0:0:
256,192,145189,1,0,0:0:0:0:
256,192,145266,1,8,0:0:0:0:
256,192,145496,1,8,0:0:0:0:
256,192,145727,1,8,0:0:0:0:
256,192,145843,1,8,0:0:0:0:
256,192,145958,1,0,0:0:0:0:
256,192,146073,1,0,0:0:0:0:
256,192,146189,1,8,0:0:0:0:
256,192,146419,1,0,0:0:0:0:
256,192,146535,1,0,0:0:0:0:
256,192,146650,1,8,0:0:0:0:
256,192,146881,1,8,0:0:0:0:
256,192,146958,1,8,0:0:0:0:
256,192,147035,1,8,0:0:0:0:
256,192,147112,1,8,0:0:0:0:
256,192,147343,1,8,0:0:0:0:
256,192,147573,1,8,0:0:0:0:
256,192,147689,1,8,0:0:0:0:
256,192,147804,1,0,0:0:0:0:
256,192,147919,1,8,0:0:0:0:
256,192,148035,1,0,0:0:0:0:
256,192,148266,1,0,0:0:0:0:
256,192,148381,1,0,0:0:0:0:
256,192,148496,1,8,0:0:0:0:
256,192,148727,1,0,0:0:0:0:
256,192,148804,1,0,0:0:0:0:
256,192,148881,1,0,0:0:0:0:
256,192,148958,1,8,0:0:0:0:
256,192,149189,1,8,0:0:0:0:
256,192,149419,1,8,0:0:0:0:
256,192,149535,1,8,0:0:0:0:
256,192,149650,1,0,0:0:0:0:
256,192,149766,1,0,0:0:0:0:
256,192,149881,1,8,0:0:0:0:
256,192,150112,1,0,0:0:0:0:
256,192,150227,1,0,0:0:0:0:
256,192,150343,1,8,0:0:0:0:
256,192,150573,1,8,0:0:0:0:
256,192,150650,1,8,0:0:0:0:
256,192,150727,1,8,0:0:0:0:
256,192,150811,1,8,0:0:0:0:
256,192,151071,1,8,0:0:0:0:
256,192,151332,1,8,0:0:0:0:
256,192,151593,1,8,0:0:0:0:
256,192,151854,1,8,0:0:0:0:
256,192,151969,1,4,0:0:0:0:
256,192,153007,1,8,0:0:0:0:
256,192,153123,1,0,0:0:0:0:
256,192,153238,1,8,0:0:0:0:
256,192,153354,1,0,0:0:0:0:
256,192,153469,1,8,0:0:0:0:
256,192,153584,1,0,0:0:0:0:
256,192,153700,1,8,0:0:0:0:
256,192,153815,1,0,0:0:0:0:
256,192,153930,1,8,0:0:0:0:
256,192,154046,1,0,0:0:0:0:
256,192,154161,1,0,0:0:0:0:
256,192,154277,1,0,0:0:0:0:
256,192,154392,1,8,0:0:0:0:
