osu file format v14

[General]
AudioFilename: future diary - kuusou mesorogiwi english cover song natewantstobattle and amanda lee leeandlie.mp3
AudioLeadIn: 0
PreviewTime: 51650
Countdown: 0
SampleSet: Soft
StackLeniency: 0.7
Mode: 0
LetterboxInBreaks: 0
WidescreenStoryboard: 1

[Editor]
Bookmarks: 16824,26216,28824,28955,29346,29476,29868,29998,32998,33129,33520,33650,34042,34172,34563,42911,72911
DistanceSpacing: 0.6
BeatDivisor: 4
GridSize: 4
TimelineZoom: 2.799999

[Metadata]
Title:Kuusou Mesorogiwi
TitleUnicode:Kuusou Mesorogiwi
Artist:NateWantsToBattle feat. Amanda Lee
ArtistUnicode:NateWantsToBattle feat. Amanda Lee
Creator:Okoratu
Version:Survival Game
Source:未来日記
Tags:Mirai Nikki Yousei Teikoku Gasai Yuno Eins Zwei Drei german counting tv size version cover Shawn Christmas LeeandLie Future Diary & + and
BeatmapID:784977
BeatmapSetID:356752

[Difficulty]
HPDrainRate:6.5
CircleSize:4.3
OverallDifficulty:8.5
ApproachRate:9.5
SliderMultiplier:1.7
SliderTickRate:1

[Events]
//Background and Video events
0,0,"mirai nikki.jpg",0,0
Video,0,"Mirai Nikki - OP.avi"
//Break Periods
//Storyboard Layer 0 (Background)
//Storyboard Layer 1 (Fail)
//Storyboard Layer 2 (Pass)
//Storyboard Layer 3 (Foreground)
//Storyboard Sound Samples

[TimingPoints]
130,521.739130434783,4,2,2,40,1,0
130,-125,4,2,2,40,0,0
2216,-117.647058823529,4,2,2,60,0,0
2738,-117.647058823529,4,2,2,30,0,0
3260,-117.647058823529,4,2,2,50,0,0
3782,-111.111111111111,4,2,2,40,0,0
4303,-200,4,2,2,60,0,0
4825,-200,4,2,2,10,0,0
6390,-200,4,2,2,50,0,0
6912,-125,4,2,2,60,0,0
7434,-125,4,2,2,50,0,0
7956,-125,4,2,2,60,0,0
8477,260.869565217391,4,2,1,80,1,0
16824,-111.111111111111,4,2,2,80,0,0
25172,-111.111111111111,4,2,2,70,0,0
26216,-125,4,2,1,70,0,0
26868,-125,4,2,1,85,0,0
27259,-125,4,2,1,70,0,0
27911,-125,4,2,1,85,0,0
28303,-111.111111111111,4,2,2,80,0,0
28433,-111.111111111111,4,2,3,80,0,0
28563,-111.111111111111,4,2,2,80,0,0
28955,-111.111111111111,4,2,3,80,0,0
29085,-111.111111111111,4,2,2,80,0,0
29476,-111.111111111111,4,2,3,80,0,0
29607,-111.111111111111,4,2,2,80,0,0
29998,-111.111111111111,4,2,3,80,0,0
30129,-111.111111111111,4,2,2,80,0,0
30390,-125,4,2,1,70,0,0
31042,-125,4,2,1,85,0,0
31433,-125,4,2,1,70,0,0
32085,-125,4,2,1,85,0,0
32216,-125,4,2,2,70,0,0
32476,-111.111111111111,4,2,2,80,0,0
32607,-111.111111111111,4,2,3,80,0,0
32737,-111.111111111111,4,2,2,80,0,0
33129,-111.111111111111,4,2,3,80,0,0
33259,-111.111111111111,4,2,2,80,0,0
33650,-111.111111111111,4,2,3,80,0,0
33781,-111.111111111111,4,2,2,80,0,0
34172,-111.111111111111,4,2,3,80,0,0
34303,-111.111111111111,4,2,2,80,0,0
34563,-142.857142857143,4,2,1,80,0,0
35476,-100,4,2,1,90,0,0
36650,-142.857142857143,4,2,1,80,0,0
37563,-100,4,2,1,90,0,0
38476,-100,4,2,2,90,0,0
38737,-111.111111111111,4,2,1,70,0,0
42911,-125,4,2,1,70,0,0
51259,-125,4,2,3,70,0,0
51781,-125,4,2,2,70,0,0
52042,-125,4,2,1,70,0,0
52303,-83.3333333333333,4,2,1,100,0,1
52368,-100,4,2,1,85,0,1
52694,-71.4285714285714,4,2,1,85,0,1
53476,-100,4,2,1,85,0,1
56476,-83.3333333333333,4,2,1,85,0,1
56868,-71.4285714285714,4,2,1,85,0,1
57650,-100,4,2,1,85,0,1
60390,-100,4,2,3,85,0,0
60650,-100,4,2,1,100,0,1
60716,-100,4,2,1,85,0,1
67955,-100,4,2,1,95,0,0
68737,-74.0740740740741,4,2,1,100,0,0
68998,-100,4,2,1,80,0,1
69063,-100,4,2,1,90,0,1
72911,-100,4,2,2,90,0,1
73172,-100,4,2,1,90,0,1
76303,-142.857142857143,4,2,1,100,0,1
76368,-142.857142857143,4,2,1,70,0,1
76824,-142.857142857143,4,2,2,90,0,1
77346,-125,4,2,1,70,0,0
85172,-125,4,2,3,70,0,0
85433,-125,4,2,2,70,0,0
85563,-125,4,2,1,70,0,0
86216,-125,4,2,1,10,0,0
86281,-125,4,2,1,70,0,0
86346,-125,4,2,1,10,0,0
86607,-125,4,2,1,50,0,0

[Colours]
Combo1 : 251,23,142
Combo2 : 105,160,235
Combo3 : 177,70,200
Combo4 : 244,139,94
Combo5 : 159,247,28

[HitObjects]
95,102,130,6,0,B|153:72|159:124|252:92,1,136,2|0,0:0|0:0,0:0:0:0:
350,51,1173,2,0,P|363:97|316:184,1,136,2|0,0:0|0:0,0:0:0:0:
70,72,2216,6,0,B|94:63|106:38|106:38|125:59|154:66|154:66|170:171|111:133|133:251,1,289.000005512238,2|2,0:0|0:0,0:0:0:0:
367,228,3782,2,0,L|380:179,1,38.2499988327027,2|0,0:0|0:0,0:0:0:0:
435,302,4043,2,0,L|436:357,1,38.2499988327027,2|0,0:0|0:0,0:0:0:0:
456,202,4303,6,0,P|433:163|305:299,1,340,2|2,0:0|0:0,0:0:0:0:
264,62,6912,22,0,P|239:45|190:33,1,68,2|0,0:0|0:0,0:0:0:0:
43,112,7434,1,2,0:0:0:0:
290,159,7695,1,2,0:0:0:0:
43,112,7956,5,2,0:0:0:0:
192,114,8086,1,0,0:0:0:0:
37,195,8216,1,2,0:0:0:0:
129,60,8347,1,0,0:0:0:0:
118,223,8477,6,0,P|110:263|128:328,1,85,6|0,1:2|0:0,0:0:0:0:
284,179,8737,2,0,L|264:-9,1,170,10|0,0:0|1:0,0:0:0:0:
183,148,9129,1,2,0:0:0:0:
359,234,9259,1,8,0:0:0:0:
177,55,9390,2,0,P|118:78|98:120,1,85,2|0,0:0|1:0,0:0:0:0:
358,107,9650,2,0,L|362:14,1,85,2|8,0:0|0:0,0:0:0:0:
204,214,9911,1,2,1:2:0:0:
385,201,10042,1,0,0:0:0:0:
262,72,10172,1,2,1:2:0:0:
322,263,10303,2,0,P|329:297|319:367,1,85,10|0,0:0|0:0,0:0:0:0:
424,262,10563,6,0,P|462:232|479:185,1,85,4|0,1:0|0:0,0:0:0:0:
211,148,10824,2,0,P|153:166|161:268,1,170,10|0,0:0|1:0,0:0:0:0:
388,305,11216,2,0,L|378:195,1,85,2|8,0:0|0:0,0:0:0:0:
200,34,11476,1,2,0:0:0:0:
290,230,11607,2,0,P|305:283|293:341,1,85,2|0,1:2|0:0,0:0:0:0:
146,125,11868,1,8,0:0:0:0:
367,136,11998,2,0,P|408:95|317:74,1,170,2|0,1:2|0:0,0:0:0:0:
201,178,12390,1,10,0:0:0:0:
403,219,12520,1,0,0:0:0:0:
186,102,12650,22,0,P|145:120|122:165,1,85,6|0,1:2|0:0,0:0:0:0:
367,136,12911,2,0,P|395:102|322:9,1,170,10|0,0:0|1:0,0:0:0:0:
288,224,13303,1,2,0:0:0:0:
472,139,13433,1,8,0:0:0:0:
266,95,13563,2,0,P|220:93|161:53,1,85,2|0,0:0|1:0,0:0:0:0:
48,255,13824,2,0,P|96:232|155:240,1,85,2|8,0:0|0:0,0:0:0:0:
405,241,14085,1,2,1:2:0:0:
236,309,14216,1,0,0:0:0:0:
255,121,14346,1,2,1:2:0:0:
342,288,14476,2,0,P|338:341|295:372,1,85,10|0,0:0|0:0,0:0:0:0:
340,203,14737,6,0,P|376:169|424:168,1,85,4|0,1:0|0:0,0:0:0:0:
202,118,14998,2,0,L|218:287,1,170,10|0,0:0|1:0,0:0:0:0:
314,44,15390,2,0,P|363:18|415:25,1,85,2|8,0:2|0:0,0:0:0:0:
283,218,15650,1,2,0:0:0:0:
201,51,15781,2,0,P|165:11|158:95,1,170,2|8,1:2|0:0,0:0:0:0:
378,143,16172,2,0,P|414:202|363:308,1,170,2|0,1:2|0:0,0:0:0:0:
314,45,16563,2,0,L|422:19,1,85,10|0,0:0|0:0,0:0:0:0:
293,216,16824,6,0,P|258:186|250:145,1,76.4999976654053,6|0,1:2|0:0,0:0:0:0:
400,216,17085,1,10,1:2:0:0:
304,311,17216,1,0,1:2:0:0:
333,135,17346,2,0,P|334:73|322:39,1,76.4999976654053,2|0,0:0|1:0,0:0:0:0:
225,270,17607,2,0,P|218:307|222:345,1,76.4999976654053,10|0,1:2|0:0,0:0:0:0:
158,171,17868,5,2,1:2:0:0:
55,206,17998,1,2,0:0:0:0:
141,284,18129,1,8,1:2:0:0:
221,113,18259,2,0,P|157:85|78:136,1,152.999995330811,2|0,1:2|1:0,0:0:0:0:
264,195,18650,2,0,L|362:171,1,76.4999976654053,8|0,0:0|0:0,0:0:0:0:
210,15,18911,22,0,L|220:102,1,76.4999976654053,2|0,1:2|0:0,0:0:0:0:
403,69,19172,1,10,1:2:0:0:
291,16,19303,1,0,1:2:0:0:
348,177,19433,2,0,P|356:218|352:263,1,76.4999976654053,2|0,0:0|1:0,0:0:0:0:
134,130,19694,2,0,P|137:80|160:47,1,76.4999976654053,10|0,1:2|0:0,0:0:0:0:
469,165,19955,6,0,L|476:269,1,76.4999976654053,2|0,1:2|0:0,0:0:0:0:
320,87,20216,1,8,1:2:0:0:
481,40,20346,1,0,1:0:0:0:
296,200,20476,2,0,L|202:184,1,76.4999976654053,2|0,1:2|0:0,0:0:0:0:
401,10,20737,1,8,1:2:0:0:
399,173,20868,1,0,1:0:0:0:
209,31,20998,6,0,P|173:19|129:26,1,76.4999976654053,2|0,1:2|0:0,0:0:0:0:
255,138,21259,1,10,1:2:0:0:
324,13,21390,1,8,1:2:0:0:
165,110,21520,2,0,P|162:163|173:205,1,76.4999976654053,2|0,0:0|1:0,0:0:0:0:
352,323,21781,2,0,P|355:270|344:228,1,76.4999976654053,10|0,1:2|0:0,0:0:0:0:
68,97,22042,5,2,1:2:0:0:
102,272,22172,1,2,0:0:0:0:
166,185,22303,1,8,1:2:0:0:
9,215,22433,2,0,L|26:373,1,152.999995330811,10|0,1:2|1:2,0:0:0:0:
166,185,22824,2,0,P|197:158|256:149,1,76.4999976654053,10|0,1:2|0:0,0:0:0:0:
450,234,23085,22,0,L|441:312,1,76.4999976654053,2|0,1:2|0:0,0:0:0:0:
325,113,23346,2,0,L|316:22,1,76.4999976654053,10|8,1:2|0:0,0:0:0:0:
224,282,23607,2,0,L|215:360,1,76.4999976654053,2|0,0:0|1:0,0:0:0:0:
141,98,23868,2,0,L|132:7,1,76.4999976654053,10|0,0:2|0:0,0:0:0:0:
64,226,24129,5,2,1:2:0:0:
247,120,24259,1,2,0:0:0:0:
186,213,24390,1,8,1:2:0:0:
140,98,24520,1,8,1:2:0:0:
247,120,24650,1,2,1:2:0:0:
241,335,24781,1,2,0:0:0:0:
186,213,24911,1,8,1:2:0:0:
326,233,25042,1,8,1:2:0:0:
241,335,25172,6,0,P|194:332|154:312,1,76.4999976654053,0|0,1:0|1:0,0:0:0:0:
396,163,25433,2,0,P|443:158|476:175,1,76.4999976654053,8|0,1:2|1:0,0:0:0:0:
256,259,25694,1,0,1:0:0:0:
279,140,25824,1,0,1:0:0:0:
387,197,25955,1,8,1:2:0:0:
379,235,26020,1,0,1:0:0:0:
371,273,26085,1,0,1:0:0:0:
364,310,26150,1,0,1:0:0:0:
356,348,26215,5,2,1:2:0:0:
279,140,26476,1,2,0:0:0:0:
468,142,26737,2,0,L|474:242,1,68,8|0,1:2|1:0,0:0:0:0:
362,103,26998,2,0,L|357:35,1,68,0|0,1:0|1:0,0:0:0:0:
257,182,27259,22,0,P|244:224|278:337,1,136,0|2,0:0|1:2,0:0:0:0:
260,65,27781,2,0,L|174:78,1,68,8|0,1:2|1:0,0:0:0:0:
82,159,28042,2,0,L|161:177,1,68,0|0,1:0|1:0,0:0:0:0:
84,55,28303,5,0,1:0:0:0:
7,131,28433,1,0,1:0:0:0:
192,75,28563,2,0,P|232:81|277:113,1,76.4999976654053,8|0,0:0|1:0,0:0:0:0:
239,290,28824,1,0,1:0:0:0:
213,199,28955,1,0,1:0:0:0:
362,157,29085,2,0,P|377:108|371:65,1,76.4999976654053,8|0,0:0|1:0,0:0:0:0:
303,224,29346,5,0,1:0:0:0:
329,315,29477,1,0,1:0:0:0:
275,133,29607,2,0,P|240:113|187:114,1,76.4999976654053,8|0,0:0|1:0,0:0:0:0:
144,299,29868,1,0,1:0:0:0:
239,290,29998,1,0,1:0:0:0:
116,173,30129,1,8,0:0:0:0:
199,355,30259,1,8,0:0:0:0:
200,150,30390,6,0,P|171:82|111:63,1,136,6|2,0:0|0:0,0:0:0:0:
316,212,30911,2,0,L|313:125,1,68,8|0,1:2|1:0,0:0:0:0:
255,10,31172,2,0,L|252:94,1,68,0|0,1:0|1:0,0:0:0:0:
390,55,31433,22,0,P|428:40|478:44,1,68,0|0,0:0|0:0,0:0:0:0:
416,217,31694,2,0,P|405:255|405:303,1,68,2|0,0:0|0:0,0:0:0:0:
267,161,31955,2,0,P|259:117|244:88,1,68,8|0,1:2|1:0,0:0:0:0:
106,250,32216,1,0,1:0:0:0:
103,283,32281,1,0,1:0:0:0:
115,315,32346,1,0,1:0:0:0:
138,339,32411,1,0,1:0:0:0:
169,353,32476,6,0,P|208:336|251:338,1,76.4999976654053,0|0,1:0|1:0,0:0:0:0:
344,193,32737,2,0,L|332:86,1,76.4999976654053,8|0,0:0|1:0,0:0:0:0:
183,212,32998,1,0,1:0:0:0:
278,271,33129,1,0,1:0:0:0:
189,121,33259,2,0,P|134:117|86:94,1,76.4999976654053,8|0,0:0|1:0,0:0:0:0:
243,27,33520,5,0,1:0:0:0:
288,124,33650,1,0,1:0:0:0:
380,25,33781,2,0,P|431:12|480:23,1,76.4999976654053,8|0,0:0|1:0,0:0:0:0:
389,175,34042,1,0,1:0:0:0:
430,89,34172,1,0,1:0:0:0:
435,239,34303,2,0,P|437:288|449:330,1,76.4999976654053,8|0,0:0|1:0,0:0:0:0:
328,337,34563,5,10,0:0:0:0:
284,256,34694,1,0,0:0:0:0:
201,309,34824,2,0,P|157:319|117:311,1,59.4999981842042,10|0,0:0|0:0,0:0:0:0:
56,279,35085,1,8,0:0:0:0:
120,189,35216,2,0,P|123:145|106:110,1,59.4999981842042,2|8,0:0|0:0,0:0:0:0:
21,39,35476,22,0,L|114:31,1,85,0|0,1:0|1:0,0:0:0:0:
278,46,35737,1,2,0:0:0:0:
166,245,35868,2,0,P|131:270|143:190,1,170,12|0,0:0|1:0,0:0:0:0:
272,287,36259,1,0,0:0:0:0:
347,124,36390,2,0,L|386:21,1,85,12|0,0:0|0:0,0:0:0:0:
166,35,36650,5,10,0:0:0:0:
139,117,36781,1,0,0:0:0:0:
224,96,36911,1,8,0:0:0:0:
52,34,37042,2,0,P|37:73|38:96,1,59.4999981842042,2|8,0:0|0:0,0:0:0:0:
164,282,37303,2,0,L|184:215,1,59.4999981842042,2|8,0:0|0:0,0:0:0:0:
248,42,37563,6,0,P|186:30|145:44,1,85,2|0,1:2|0:0,0:0:0:0:
325,207,37824,2,0,P|337:133|428:95,1,170,4|0,0:0|1:0,0:0:0:0:
388,326,38216,2,0,B|355:331|355:331|293:316,1,85,6|0,0:0|0:0,0:0:0:0:
260,133,38476,1,0,1:0:0:0:
299,119,38541,1,0,1:0:0:0:
342,121,38606,1,0,1:0:0:0:
380,139,38671,1,0,1:0:0:0:
408,170,38737,6,0,L|433:78,1,76.4999976654053,4|0,1:0|0:0,0:0:0:0:
258,14,38998,1,8,0:0:0:0:
294,203,39129,2,0,L|308:286,1,76.4999976654053,4|0,1:3|0:0,0:0:0:0:
113,162,39390,2,0,P|104:117|125:68,1,76.4999976654053,0|0,1:2|0:0,0:0:0:0:
378,214,39650,22,0,P|385:251|376:287,1,76.4999976654053,4|0,1:3|0:0,0:0:0:0:
285,128,39911,2,0,P|338:86|441:102,1,152.999995330811,14|0,0:0|1:0,0:0:0:0:
288,232,40303,1,2,1:2:0:0:
223,72,40433,1,8,0:0:0:0:
373,182,40563,2,0,P|387:220|379:265,1,76.4999976654053,2|0,1:2|0:0,0:0:0:0:
188,171,40824,6,0,L|215:-5,1,152.999995330811,4|8,1:0|0:0,0:0:0:0:
256,216,41216,2,0,L|262:315,1,76.4999976654053,4|0,1:3|0:0,0:0:0:0:
105,177,41476,1,0,0:0:0:0:
299,138,41607,1,0,1:0:0:0:
182,262,41737,6,0,P|187:212|185:168,1,76.4999976654053,4|0,1:3|0:0,0:0:0:0:
45,27,41998,2,0,P|16:77|79:144,1,152.999995330811,10|0,0:0|0:0,0:0:0:0:
315,29,42390,2,0,P|281:14|243:13,1,76.4999976654053,2|0,1:2|0:0,0:0:0:0:
441,177,42650,1,8,0:0:0:0:
471,53,42781,1,8,0:0:0:0:
355,161,42911,6,0,L|361:250,1,68,6|0,0:0|0:0,0:0:0:0:
446,306,43172,1,10,0:0:0:0:
510,245,43303,1,0,1:2:0:0:
360,309,43433,2,0,P|338:337|339:391,1,68,2|0,0:0|1:0,0:0:0:0:
203,288,43694,22,0,P|172:258|176:153,1,136,10|0,0:0|0:0,0:0:0:0:
210,81,44085,1,0,0:0:0:0:
302,152,44216,2,0,P|315:189|306:229,1,68,10|0,0:2|1:0,0:0:0:0:
210,81,44476,2,0,L|216:4,1,68,2|0,0:0|1:0,0:0:0:0:
389,46,44737,2,0,L|395:128,1,68,10|0,0:0|0:0,0:0:0:0:
455,229,44998,6,0,B|451:269|451:269|437:287|437:287|433:366,1,136,4|8,0:1|0:0,0:0:0:0:
296,167,45390,2,0,P|247:161|173:227,1,136,2|0,1:2|1:0,0:0:0:0:
299,313,45781,2,0,L|364:286,1,68,10|0,0:0|0:0,0:0:0:0:
388,97,46042,5,2,0:0:0:0:
345,219,46172,1,0,0:0:0:0:
484,182,46303,2,0,L|469:93,1,68,10|0,0:0|1:0,0:0:0:0:
304,14,46563,2,0,L|292:81,1,68,2|0,0:0|1:0,0:0:0:0:
421,248,46824,1,8,0:0:0:0:
380,65,46955,1,8,0:0:0:0:
199,186,47085,6,0,L|216:277,1,68,6|0,0:0|0:0,0:0:0:0:
273,129,47346,1,10,0:0:0:0:
172,98,47476,1,0,1:0:0:0:
101,195,47607,2,0,P|56:212|8:209,1,68,2|0,0:0|1:0,0:0:0:0:
159,31,47868,2,0,L|176:122,1,68,10|0,0:0|0:0,0:0:0:0:
264,327,48129,22,0,P|262:274|336:202,1,136,4|10,0:1|0:0,0:0:0:0:
491,327,48520,2,0,B|453:312|453:312|400:316|400:316|334:287,1,136,2|0,1:2|1:0,0:0:0:0:
201,153,48911,2,0,L|292:145,1,68,8|0,0:0|0:0,0:0:0:0:
168,312,49172,6,0,L|75:296,1,68,2|0,0:0|0:0,0:0:0:0:
31,215,49433,1,10,0:0:0:0:
123,150,49563,1,0,1:0:0:0:
54,44,49694,2,0,P|31:18|3:0,1,68,2|0,0:0|1:0,0:0:0:0:
53,142,49955,1,10,0:0:0:0:
351,29,50216,5,2,1:2:0:0:
455,183,50346,1,8,1:2:0:0:
195,117,50476,1,10,1:2:0:0:
403,100,50607,1,0,1:2:0:0:
233,205,50737,1,2,1:2:0:0:
281,7,50868,1,0,1:2:0:0:
480,120,50998,1,10,1:2:0:0:
233,205,51129,1,10,1:2:0:0:
311,89,51259,1,0,1:2:0:0:
230,257,51781,5,0,1:0:0:0:
230,213,51846,1,0,1:0:0:0:
211,173,51911,1,0,1:0:0:0:
176,147,51976,1,0,1:0:0:0:
133,139,52041,1,0,1:0:0:0:
99,145,52107,1,0,1:0:0:0:
69,130,52172,1,0,1:0:0:0:
54,101,52237,1,0,1:0:0:0:
60,68,52303,6,0,B|95:56|110:24|110:24|95:190,1,203.999993774414,6|8,1:2|0:0,0:0:0:0:
160,348,52694,2,0,B|201:354|227:310|213:254|134:245|134:245|216:212,1,237.999992736817,2|0,1:2|1:0,0:0:0:0:
288,8,53085,2,0,B|261:-10|213:8|215:53|224:71|224:71|182:67|152:106|164:153|208:166,1,237.999992736817,10|0,0:2|0:0,0:0:0:0:
329,85,53476,21,0,1:0:0:0:
113,53,53607,2,0,P|72:67|44:101,1,85,8|0,0:0|0:0,0:0:0:0:
112,298,53868,1,0,1:0:0:0:
128,149,53998,1,0,1:0:0:0:
18,283,54129,2,0,L|26:383,1,85,8|0,0:0|0:0,0:0:0:0:
197,196,54390,6,0,P|246:181|345:268,1,170,2|8,1:2|0:0,0:0:0:0:
220,332,54781,2,0,P|236:282|343:243,1,170,2|0,1:2|1:0,0:0:0:0:
368,74,55172,2,0,L|338:241,1,170,14|0,0:0|1:0,0:0:0:0:
174,99,55563,5,0,0:0:0:0:
279,37,55694,1,8,1:2:0:0:
284,156,55824,1,8,1:2:0:0:
192,11,55955,2,0,P|138:12|97:40,1,85,0|0,1:0|0:0,0:0:0:0:
284,156,56216,2,0,P|326:158|372:134,1,85,8|8,0:0|0:0,0:0:0:0:
149,215,56476,6,0,B|136:349|136:349|151:317|186:305,1,203.999993774414,6|8,1:2|0:0,0:0:0:0:
364,140,56868,2,0,B|404:145|430:101|416:45|338:36|338:36|420:2,1,237.999992736817,2|0,1:2|1:0,0:0:0:0:
115,35,57259,2,0,B|86:42|67:75|76:119|118:129|118:129|107:142|88:183|127:220|160:214,1,237.999992736817,10|0,0:0|0:0,0:0:0:0:
307,288,57650,21,0,1:0:0:0:
209,111,57781,2,0,P|202:35|224:-3,1,85,8|0,0:0|0:0,0:0:0:0:
447,109,58042,2,0,P|450:153|425:199,1,85,0|0,1:0|1:0,0:0:0:0:
236,181,58303,1,8,0:0:0:0:
316,26,58433,1,0,0:0:0:0:
317,221,58563,6,0,B|312:284|312:284|335:320|335:320|329:407,1,170,2|8,1:2|0:0,0:0:0:0:
195,164,58955,2,0,L|378:145,1,170,2|0,1:2|1:0,0:0:0:0:
116,12,59346,2,0,B|117:63|117:63|130:90|130:90|119:124|119:124|119:214,1,170,14|0,0:0|0:0,0:0:0:0:
238,295,59737,5,0,0:0:0:0:
231,86,59868,2,0,P|233:45|251:-4,1,85,8|8,0:0|0:0,0:0:0:0:
111,185,60129,2,0,P|126:246|118:295,1,85,0|0,1:0|0:0,0:0:0:0:
293,117,60390,1,0,1:0:0:0:
331,99,60455,1,0,1:0:0:0:
373,96,60520,1,0,1:0:0:0:
413,110,60585,1,0,1:0:0:0:
445,137,60650,22,0,L|446:238,1,85,2|0,1:2|0:0,0:0:0:0:
296,255,60911,1,8,0:0:0:0:
373,96,61042,1,0,1:0:0:0:
375,337,61172,2,0,P|364:240|373:154,1,170,2|8,1:2|0:0,0:0:0:0:
237,68,61563,6,0,P|143:31|67:85,1,170,0|0,1:0|1:0,0:0:0:0:
212,301,61955,2,0,L|312:272,1,85,10|0,0:0|0:0,0:0:0:0:
373,96,62216,2,0,L|354:12,1,85,2|0,1:2|1:0,0:0:0:0:
212,301,62476,2,0,L|230:383,1,85,10|0,0:2|0:0,0:0:0:0:
191,154,62737,6,0,P|140:127|28:199,1,170,4|8,1:0|0:0,0:0:0:0:
339,279,63129,2,0,B|372:253|372:253|389:96,1,170,0|0,1:0|1:0,0:0:0:0:
183,41,63520,2,0,L|191:138,1,85,8|0,0:0|0:0,0:0:0:0:
375,29,63781,5,2,0:0:0:0:
238,0,63911,1,0,1:0:0:0:
305,135,64042,2,0,B|308:163|308:163|300:231,1,85,10|0,0:0|0:0,0:0:0:0:
64,194,64303,1,2,1:2:0:0:
169,114,64433,1,0,0:0:0:0:
137,269,64563,1,8,0:0:0:0:
94,89,64694,1,8,0:0:0:0:
216,246,64824,22,0,B|223:276|223:276|218:342,1,85,6|0,0:0|0:0,0:0:0:0:
24,259,65085,1,8,0:0:0:0:
226,161,65216,2,0,P|286:183|287:291,1,170,2|0,1:2|1:0,0:0:0:0:
167,84,65607,2,0,L|181:-2,1,85,8|0,0:0|0:0,0:0:0:0:
422,217,65868,6,0,L|427:320,1,85,2|0,1:2|0:0,0:0:0:0:
241,382,66129,1,8,0:0:0:0:
226,161,66259,2,0,P|260:99|293:83,1,85,2|0,1:2|1:0,0:0:0:0:
268,286,66520,1,0,0:0:0:0:
167,84,66650,2,0,P|146:45|98:24,1,85,10|0,0:0|0:0,0:0:0:0:
102,274,66911,6,0,B|113:382,1,85,2|0,1:2|1:0,0:0:0:0:
225,161,67172,2,0,P|269:120|391:152,1,170,8|0,0:0|1:0,0:0:0:0:
264,303,67563,1,0,1:0:0:0:
302,204,67694,1,8,0:0:0:0:
350,361,67824,1,8,0:0:0:0:
222,237,67955,6,0,L|48:206,1,170,2|0,1:2|0:0,0:0:0:0:
302,204,68346,2,0,L|476:173,1,170,2|0,1:2|0:0,0:0:0:0:
214,19,68737,2,0,L|229:173,1,114.750000437737,2|0,1:2|1:0,0:0:0:0:
394,306,68998,22,0,L|396:196,1,85,14|0,0:0|0:0,0:0:0:0:
314,36,69259,2,0,L|323:140,1,85,10|0,0:0|0:0,0:0:0:0:
507,132,69520,1,8,1:2:0:0:
416,38,69650,1,4,1:3:0:0:
457,249,69781,1,8,1:2:0:0:
507,132,69911,1,4,1:3:0:0:
317,250,70042,6,0,B|307:284|307:284|305:361,1,85,10|0,0:0|0:0,0:0:0:0:
167,137,70303,2,0,B|164:101|164:101|140:28,1,85,10|0,0:0|0:0,0:0:0:0:
92,288,70563,1,8,1:2:0:0:
222,239,70694,1,4,1:3:0:0:
50,132,70824,1,8,1:2:0:0:
151,243,70955,1,4,1:3:0:0:
244,50,71085,6,0,P|291:31|362:43,1,85,10|0,0:0|0:0,0:0:0:0:
423,217,71346,2,0,B|420:253|420:253|424:273|424:273|421:319,1,85,10|0,0:0|0:0,0:0:0:0:
294,140,71607,1,10,1:2:0:0:
450,98,71737,1,4,1:3:0:0:
325,282,71868,1,10,1:2:0:0:
368,92,71998,1,4,1:3:0:0:
463,294,72129,38,0,L|452:394,1,85,10|0,0:0|0:0,0:0:0:0:
471,302,72324,1,0,1:0:0:0:
471,302,72390,2,0,P|473:240|458:199,1,85,8|0,0:0|0:0,0:0:0:0:
282,55,72650,2,0,L|295:151,1,85,10|0,0:0|0:0,0:0:0:0:
372,384,72911,1,4,1:3:0:0:
393,347,72976,1,0,1:0:0:0:
395,305,73041,1,0,1:0:0:0:
377,267,73106,1,0,1:0:0:0:
344,241,73172,6,0,B|310:244|310:244|291:254|291:254|247:258,1,85,14|0,0:0|0:0,0:0:0:0:
90,113,73433,2,0,L|188:122,1,85,10|0,0:0|0:0,0:0:0:0:
184,350,73694,1,8,1:2:0:0:
118,235,73824,1,4,1:3:0:0:
250,115,73955,1,8,1:2:0:0:
206,269,74085,1,4,1:3:0:0:
166,77,74216,6,0,P|193:40|255:24,1,85,10|0,0:0|0:0,0:0:0:0:
280,253,74476,2,0,P|285:302|278:356,1,85,10|0,0:0|0:0,0:0:0:0:
176,178,74737,1,8,1:2:0:0:
360,247,74868,1,4,1:3:0:0:
169,285,74998,1,8,1:2:0:0:
323,152,75128,1,4,1:3:0:0:
323,152,75193,1,0,1:2:0:0:
323,152,75259,6,0,P|349:144|414:157,1,85,10|0,0:0|0:0,0:0:0:0:
169,285,75520,2,0,P|119:290|76:268,1,85,10|0,0:0|0:0,0:0:0:0:
238,31,75781,2,0,L|249:135,1,85,8|4,0:0|1:3,0:0:0:0:
311,232,75976,1,0,1:0:0:0:
311,232,76042,2,0,L|321:132,1,85,8|4,0:0|1:3,0:0:0:0:
90,74,76303,21,2,1:2:0:0:
87,248,76476,1,0,1:2:0:0:
257,332,76650,1,0,1:2:0:0:
90,74,76824,5,2,1:2:0:0:
148,341,76998,1,0,1:2:0:0:
354,150,77172,1,0,1:2:0:0:
74,230,77346,6,0,L|71:302,1,68,4|0,1:2|1:0,0:0:0:0:
191,181,77607,2,0,B|185:128|185:128|173:104|173:104|168:32,1,136,8|0,0:0|1:0,0:0:0:0:
285,42,77998,1,0,1:0:0:0:
110,169,78129,2,0,P|80:136|92:61,1,102,8|0,0:0|0:0,0:0:0:0:
101,53,78390,6,0,L|199:46,1,68,0|0,1:0|1:0,0:0:0:0:
293,219,78650,2,0,B|284:257|284:257|292:283|292:283|273:300|273:300|257:362,1,136,8|0,0:0|1:0,0:0:0:0:
152,286,79042,1,0,1:0:0:0:
268,142,79172,2,0,P|322:140|368:187,1,102,8|0,0:0|0:0,0:0:0:0:
386,202,79433,22,0,L|402:104,1,68,0|0,1:0|1:0,0:0:0:0:
176,44,79694,2,0,B|182:87|182:87|174:104|174:104|186:167,1,102,8|0,0:0|0:0,0:0:0:0:
208,174,79955,2,0,P|216:226|200:261,1,68,0|0,1:0|1:0,0:0:0:0:
22,258,80216,2,0,P|51:215|121:211,1,102,8|0,0:0|0:0,0:0:0:0:
125,226,80476,6,0,L|119:318,1,68,0|0,1:0|1:0,0:0:0:0:
64,130,80737,1,8,0:0:0:0:
198,238,80868,2,0,B|214:282|214:282|205:378,1,136,8|0,0:0|1:0,0:0:0:0:
133,144,81259,1,8,0:0:0:0:
273,47,81390,1,8,0:0:0:0:
318,268,81520,6,0,L|313:338,1,68,0|0,1:0|1:0,0:0:0:0:
245,169,81781,2,0,B|291:157|291:157|330:162|330:162|389:147,1,136,8|0,0:0|1:0,0:0:0:0:
439,274,82172,1,0,1:0:0:0:
331,87,82303,2,0,P|304:60|255:57,1,68,8|0,0:0|0:0,0:0:0:0:
120,90,82563,5,0,1:0:0:0:
193,208,82694,1,0,1:0:0:0:
39,131,82824,2,0,L|39:34,1,68,8|0,0:0|0:0,0:0:0:0:
117,266,83085,2,0,L|117:356,1,68,0|0,1:0|1:0,0:0:0:0:
188,129,83346,2,0,P|231:120|292:163,1,102,8|0,0:0|0:0,0:0:0:0:
301,188,83607,22,0,L|304:274,1,68,0|0,1:0|1:0,0:0:0:0:
238,48,83868,2,0,B|280:44|280:44|312:60|312:60|385:58,1,136,8|0,0:0|1:0,0:0:0:0:
193,208,84259,1,0,1:0:0:0:
366,146,84390,2,0,P|397:144|447:179,1,68,8|0,0:0|0:0,0:0:0:0:
215,277,84650,5,0,1:0:0:0:
213,136,84781,1,0,1:0:0:0:
323,245,84911,2,0,L|317:340,1,68,8|0,0:0|0:0,0:0:0:0:
353,96,85172,1,0,1:0:0:0:
438,240,85303,1,0,1:0:0:0:
275,177,85433,1,0,1:0:0:0:
461,100,85563,2,0,L|475:177,1,68,0|0,1:0|0:0,0:0:0:0:
216,71,85955,6,0,P|170:137|184:231,2,170,0|0|0,0:0|0:0|0:0,0:0:0:0:
