osu file format v14

[General]
AudioFilename: future diary - kuusou mesorogiwi english cover song natewantstobattle and amanda lee leeandlie.mp3
AudioLeadIn: 0
PreviewTime: 51650
Countdown: 0
SampleSet: Soft
StackLeniency: 0.7
Mode: 0
LetterboxInBreaks: 0
WidescreenStoryboard: 1

[Editor]
DistanceSpacing: 1.6
BeatDivisor: 4
GridSize: 4
TimelineZoom: 1.399999

[Metadata]
Title:Kuusou Mesorogiwi
TitleUnicode:Kuusou Mesorogiwi
Artist:NateWantsToBattle feat. Amanda Lee
ArtistUnicode:NateWantsToBattle feat. Amanda Lee
Creator:Okoratu
Version:Hard
Source:未来日記
Tags:Mirai Nikki Yousei Teikoku Gasai Yuno Eins Zwei Drei german counting tv size version cover Shawn Christmas LeeandLie Future Diary & + and
BeatmapID:784972
BeatmapSetID:356752

[Difficulty]
HPDrainRate:5
CircleSize:3.5
OverallDifficulty:6
ApproachRate:8
SliderMultiplier:1.2
SliderTickRate:1

[Events]
//Background and Video events
0,0,"mirai nikki.jpg",0,0
Video,0,"Mirai Nikki - OP.avi"
//Break Periods
//Storyboard Layer 0 (Background)
//Storyboard Layer 1 (Fail)
//Storyboard Layer 2 (Pass)
//Storyboard Layer 3 (Foreground)
//Storyboard Sound Samples

[TimingPoints]
130,521.739130434783,4,2,2,40,1,0
130,-125,4,2,2,40,0,0
2216,-117.647058823529,4,2,2,60,0,0
2738,-117.647058823529,4,2,2,30,0,0
3260,-117.647058823529,4,2,2,50,0,0
3782,-111.111111111111,4,2,2,40,0,0
4303,-200,4,2,2,60,0,0
4825,-200,4,2,2,10,0,0
6390,-200,4,2,2,50,0,0
6912,-100,4,2,2,60,0,0
7434,-100,4,2,2,50,0,0
7956,-100,4,2,2,60,0,0
8477,260.869565217391,4,2,1,80,1,0
16824,-105.263157894737,4,2,2,80,0,0
25172,-105.263157894737,4,2,2,70,0,0
26216,-105.263157894737,4,2,1,70,0,0
26868,-105.263157894737,4,2,1,85,0,0
27259,-105.263157894737,4,2,1,70,0,0
27911,-105.263157894737,4,2,1,85,0,0
28303,-105.263157894737,4,2,3,80,0,0
28563,-105.263157894737,4,2,2,80,0,0
29085,-105.263157894737,4,2,2,80,0,0
29607,-105.263157894737,4,2,2,80,0,0
29998,-105.263157894737,4,2,3,80,0,0
30129,-105.263157894737,4,2,2,80,0,0
30390,-105.263157894737,4,2,1,70,0,0
31042,-105.263157894737,4,2,1,85,0,0
31433,-105.263157894737,4,2,1,70,0,0
32216,-105.263157894737,4,2,2,70,0,0
32476,-105.263157894737,4,2,3,80,0,0
32737,-105.263157894737,4,2,2,80,0,0
33259,-105.263157894737,4,2,2,80,0,0
33781,-105.263157894737,4,2,2,80,0,0
34172,-105.263157894737,4,2,3,80,0,0
34303,-105.263157894737,4,2,2,80,0,0
34563,-105.263157894737,4,2,1,80,0,0
35476,-100,4,2,1,90,0,0
36650,-105.263157894737,4,2,1,80,0,0
37563,-100,4,2,1,90,0,0
38476,-100,4,2,2,90,0,0
38737,-105.263157894737,4,2,1,70,0,0
42911,-125,4,2,1,70,0,0
51259,-125,4,2,3,70,0,0
51781,-125,4,2,2,70,0,0
52042,-125,4,2,1,70,0,0
52303,-90.9090909090909,4,2,1,100,0,1
52368,-90.9090909090909,4,2,1,100,0,1
53476,-100,4,2,1,85,0,1
56476,-90.9090909090909,4,2,1,85,0,1
57650,-100,4,2,1,85,0,1
60390,-100,4,2,3,85,0,0
60650,-100,4,2,1,100,0,1
60716,-100,4,2,1,85,0,1
67955,-100,4,2,1,95,0,0
68737,-74.0740740740741,4,2,1,100,0,0
68998,-100,4,2,1,80,0,1
69063,-100,4,2,1,90,0,1
72911,-100,4,2,2,90,0,1
73172,-100,4,2,1,90,0,1
76303,-100,4,2,1,100,0,1
76368,-100,4,2,1,70,0,1
76824,-83.3333333333334,4,2,2,90,0,1
77346,-105.263157894737,4,2,1,70,0,0
85172,-105.263157894737,4,2,3,70,0,0
85433,-105.263157894737,4,2,2,70,0,0
85563,-105.263157894737,4,2,1,70,0,0
86216,-105.263157894737,4,2,1,10,0,0
86281,-105.263157894737,4,2,1,70,0,0
86346,-105.263157894737,4,2,1,10,0,0
86607,-105.263157894737,4,2,1,50,0,0

[Colours]
Combo1 : 251,23,142
Combo2 : 105,160,235
Combo3 : 177,70,200
Combo4 : 244,139,94
Combo5 : 159,247,28

[HitObjects]
326,217,130,6,0,P|332:172|316:110,1,96,2|0,0:0|0:0,0:0:0:0:
206,76,1173,2,0,P|179:82|101:67,1,96,2|0,0:0|0:0,0:0:0:0:
24,171,2216,6,0,B|67:151|124:162|110:187|187:189|232:165,1,204.000003890991,2|2,0:0|0:0,0:0:0:0:
360,136,3782,2,0,L|369:215,1,53.9999983520508,2|2,0:0|0:0,0:0:0:0:
444,158,4303,6,0,P|446:119|284:87,1,240,2|2,0:0|0:0,0:0:0:0:
267,231,6912,22,0,P|273:275|273:312,1,60,2|0,0:0|0:0,0:0:0:0:
199,317,7434,2,0,P|163:317|131:328,1,60,2|2,0:0|0:0,0:0:0:0:
65,347,7956,5,2,0:0:0:0:
72,239,8216,1,2,0:0:0:0:
79,124,8477,5,6,1:2:0:0:
79,124,8737,2,0,P|96:91|186:86,1,120,10|0,0:0|1:0,0:0:0:0:
228,131,9129,2,0,L|224:256,2,120,2|2|2,0:0|0:0|0:0,0:0:0:0:
356,42,9911,2,0,P|401:31|423:39,1,60,2|0,1:2|0:0,0:0:0:0:
454,107,10172,1,2,1:2:0:0:
454,107,10303,2,0,P|445:153|448:229,1,120,10|4,0:0|1:0,0:0:0:0:
346,344,10824,6,0,P|311:310|222:313,1,120,10|0,0:0|1:0,0:0:0:0:
173,342,11216,2,0,P|188:293|165:216,1,120,2|2,0:0|0:0,0:0:0:0:
120,168,11607,2,0,L|-6:161,1,120,2|8,1:2|0:0,0:0:0:0:
61,85,11998,2,0,L|186:81,1,120,2|0,1:2|0:0,0:0:0:0:
255,114,12390,2,0,P|254:154|260:182,1,60,10|0,0:0|0:0,0:0:0:0:
292,248,12650,21,6,1:2:0:0:
292,248,12911,2,0,P|340:225|419:244,1,120,10|0,0:0|1:0,0:0:0:0:
473,272,13303,2,0,P|468:229|480:127,1,120,2|2,0:0|0:0,0:0:0:0:
383,25,13824,1,2,0:0:0:0:
255,114,14085,2,0,P|257:153|255:185,1,60,2|0,1:2|0:0,0:0:0:0:
200,231,14346,1,2,1:2:0:0:
200,231,14476,2,0,B|148:214|148:214|57:234,1,120,10|4,0:0|1:0,0:0:0:0:
84,71,14998,6,0,P|107:38|197:26,1,120,10|0,0:0|1:0,0:0:0:0:
257,44,15390,2,0,L|267:172,1,120,2|2,0:2|0:0,0:0:0:0:
298,235,15781,2,0,B|308:200|308:200|388:138,1,120,2|8,1:2|0:0,0:0:0:0:
445,116,16172,2,0,L|457:251,1,120,2|0,1:2|0:0,0:0:0:0:
466,313,16563,1,10,0:0:0:0:
334,262,16824,6,0,P|271:248|212:270,1,113.999996955872,6|10,1:2|1:2,0:0:0:0:
164,306,17216,1,0,1:2:0:0:
164,306,17346,2,0,L|147:381,1,56.9999984779358,2|0,0:0|1:0,0:0:0:0:
77,359,17607,2,0,L|64:292,1,56.9999984779358,10|0,1:2|0:0,0:0:0:0:
17,246,17868,6,0,P|12:194|47:128,1,113.999996955872,2|8,1:2|1:2,0:0:0:0:
98,97,18259,2,0,P|147:108|224:98,1,113.999996955872,2|0,1:2|1:0,0:0:0:0:
274,64,18650,2,0,P|309:57|346:65,1,56.9999984779358,8|0,0:0|0:0,0:0:0:0:
391,100,18911,22,0,B|399:153|399:153|389:220,1,113.999996955872,2|10,1:2|1:2,0:0:0:0:
365,283,19303,1,0,1:2:0:0:
302,243,19433,2,0,B|242:234|242:234|189:242,1,113.999996955872,2|10,0:0|1:2,0:0:0:0:
44,275,19955,6,0,B|28:216|66:214|42:137,1,113.999996955872,2|8,1:2|1:2,0:0:0:0:
27,90,20346,1,0,1:0:0:0:
83,42,20476,2,0,P|122:22|200:32,1,113.999996955872,2|8,1:2|1:2,0:0:0:0:
312,112,20998,6,0,P|376:127|445:109,1,113.999996955872,2|10,1:2|1:2,0:0:0:0:
479,70,21390,1,8,1:2:0:0:
479,70,21520,2,0,L|455:3,1,56.9999984779358,2|0,0:0|1:0,0:0:0:0:
387,32,21781,2,0,L|320:6,1,56.9999984779358,10|0,1:2|0:0,0:0:0:0:
264,37,22042,6,0,P|227:71|153:62,1,113.999996955872,2|8,1:2|1:2,0:0:0:0:
98,38,22433,2,0,B|72:72|72:72|82:162,1,113.999996955872,10|0,1:2|1:2,0:0:0:0:
135,192,22824,2,0,L|128:258,1,56.9999984779358,10|0,1:2|0:0,0:0:0:0:
130,323,23085,22,0,P|150:288|242:280,1,113.999996955872,2|10,1:2|1:2,0:0:0:0:
282,305,23476,1,8,0:0:0:0:
323,243,23607,2,0,P|338:185|329:122,1,113.999996955872,2|10,0:0|0:2,0:0:0:0:
211,44,24129,6,0,L|141:52,1,56.9999984779358,2|2,1:2|0:0,0:0:0:0:
80,60,24390,1,8,1:2:0:0:
80,60,24520,1,8,1:2:0:0:
80,60,24650,2,0,P|85:106|76:180,1,113.999996955872,2|8,1:2|1:2,0:0:0:0:
62,246,25042,1,8,1:2:0:0:
132,223,25172,6,0,P|179:210|254:235,1,113.999996955872,0|8,1:0|1:2,0:0:0:0:
347,329,25694,2,0,L|356:250,1,56.9999984779358,0|0,1:0|1:0,0:0:0:0:
418,236,25955,2,0,L|419:164,1,56.9999984779358,8|0,1:2|1:0,0:0:0:0:
459,116,26216,6,0,P|446:81|357:65,1,113.999996955872,2|2,1:2|0:0,0:0:0:0:
234,93,26737,2,0,L|215:170,1,56.9999984779358,8|0,1:2|1:0,0:0:0:0:
151,118,26998,2,0,P|121:109|90:111,1,56.9999984779358,0|0,1:0|1:0,0:0:0:0:
41,160,27259,22,0,L|43:289,1,113.999996955872,0|2,0:0|1:2,0:0:0:0:
176,340,27781,2,0,P|186:308|178:217,1,113.999996955872,8|0,1:2|1:0,0:0:0:0:
227,86,28303,6,0,P|260:58|348:71,1,113.999996955872,4|8,1:3|0:0,0:0:0:0:
394,103,28694,1,0,1:0:0:0:
394,103,28824,2,0,B|389:151|389:151|396:225,1,113.999996955872,0|8,1:0|0:0,0:0:0:0:
405,295,29216,1,0,1:0:0:0:
405,295,29346,6,0,P|347:275|291:299,1,113.999996955872,0|8,1:0|0:0,0:0:0:0:
231,322,29737,1,0,1:0:0:0:
231,322,29868,2,0,L|218:258,1,56.9999984779358,0|0,1:0|1:0,0:0:0:0:
145,268,30129,2,0,L|135:340,1,56.9999984779358,8|8,0:0|0:0,0:0:0:0:
68,352,30390,6,0,P|43:313|48:222,1,113.999996955872,6|2,0:0|0:0,0:0:0:0:
88,106,30911,2,0,L|151:114,1,56.9999984779358,8|0,1:2|1:0,0:0:0:0:
199,163,31172,2,0,L|262:171,1,56.9999984779358,0|0,1:0|1:0,0:0:0:0:
329,174,31433,22,0,P|349:130|334:62,1,113.999996955872,0|2,0:0|0:0,0:0:0:0:
197,16,31955,2,0,B|150:18|150:18|128:29|128:29|64:33,1,113.999996955872,8|0,1:2|1:0,0:0:0:0:
26,76,32346,1,0,1:0:0:0:
26,76,32476,6,0,P|35:118|31:192,1,113.999996955872,4|8,1:3|0:0,0:0:0:0:
29,267,32868,1,0,1:0:0:0:
29,267,32998,2,0,P|71:248|151:260,1,113.999996955872,0|8,1:0|0:0,0:0:0:0:
204,297,33390,1,0,1:0:0:0:
204,297,33520,6,0,P|252:310|315:296,1,113.999996955872,0|8,1:0|0:0,0:0:0:0:
394,171,34042,2,0,L|386:98,1,56.9999984779358,0|0,1:0|1:0,0:0:0:0:
349,50,34303,2,0,L|275:48,1,56.9999984779358,8|0,0:0|1:0,0:0:0:0:
226,82,34563,6,0,L|234:157,2,56.9999984779358,10|0|10,0:0|0:0|0:0,0:0:0:0:
165,37,34955,2,0,P|103:17|58:47,1,113.999996955872,0|2,0:0|0:0,0:0:0:0:
36,193,35476,22,0,L|41:281,1,60,0|0,1:0|1:0,0:0:0:0:
98,312,35737,1,2,0:0:0:0:
98,312,35868,2,0,P|137:278|222:298,1,120,12|0,0:0|1:0,0:0:0:0:
343,337,36390,2,0,P|386:344|413:334,1,60,12|0,0:0|0:0,0:0:0:0:
443,279,36650,6,0,L|436:148,1,113.999996955872,10|8,0:0|0:0,0:0:0:0:
478,102,37042,2,0,P|451:62|378:42,1,113.999996955872,2|2,0:0|0:0,0:0:0:0:
246,100,37563,6,0,P|217:118|180:120,1,60,2|0,1:2|0:0,0:0:0:0:
116,99,37824,2,0,P|73:95|19:157,1,120,4|0,0:0|1:0,0:0:0:0:
46,219,38216,2,0,B|55:269|55:269|54:353,1,120,6|0,0:0|1:0,0:0:0:0:
202,328,38737,6,0,L|266:335,2,56.9999984779358,4|0|8,1:0|0:0|0:0,0:0:0:0:
161,265,39129,2,0,B|158:233|158:233|173:141,1,113.999996955872,4|0,1:3|1:2,0:0:0:0:
281,52,39650,22,0,P|325:59|356:56,1,56.9999984779358,4|0,1:3|0:0,0:0:0:0:
410,44,39911,2,0,P|454:41|496:93,1,113.999996955872,14|0,0:0|1:0,0:0:0:0:
483,165,40303,1,2,1:2:0:0:
340,205,40563,1,2,1:2:0:0:
340,205,40824,6,0,L|222:223,1,113.999996955872,4|8,1:0|0:0,0:0:0:0:
153,234,41216,2,0,B|156:193|156:193|147:157|147:157|152:104,1,113.999996955872,4|0,1:3|0:0,0:0:0:0:
142,47,41607,1,0,1:0:0:0:
142,47,41737,2,0,L|64:52,1,56.9999984779358,4|0,1:3|0:0,0:0:0:0:
29,100,41998,6,0,P|42:155|32:216,1,113.999996955872,10|0,0:0|0:0,0:0:0:0:
24,285,42390,2,0,B|58:267|58:267|146:288,1,113.999996955872,2|8,1:2|0:0,0:0:0:0:
249,326,42911,6,0,L|262:219,1,96,6|10,0:0|0:0,0:0:0:0:
276,154,43303,1,0,1:2:0:0:
276,154,43433,2,0,P|314:150|336:139,1,48,2|0,0:0|1:0,0:0:0:0:
380,96,43694,22,0,P|367:62|308:35,1,96,10|0,0:0|0:0,0:0:0:0:
162,28,44216,2,0,L|166:82,1,48,10|0,0:2|1:0,0:0:0:0:
114,133,44476,2,0,L|118:187,1,48,2|0,0:0|1:0,0:0:0:0:
65,237,44737,2,0,L|69:291,1,48,10|0,0:0|0:0,0:0:0:0:
120,341,44998,6,0,P|132:307|190:287,1,96,4|8,0:1|0:0,0:0:0:0:
259,306,45390,2,0,P|303:315|361:304,1,96,2|0,1:2|1:0,0:0:0:0:
423,276,45781,2,0,B|411:234|442:237|425:165,1,96,10|2,0:0|0:0,0:0:0:0:
433,27,46303,5,10,0:0:0:0:
297,92,46563,2,0,P|261:100|201:75,1,96,2|8,0:0|0:0,0:0:0:0:
141,38,46955,1,8,0:0:0:0:
141,38,47085,6,0,B|94:32|94:32|47:59,1,96,6|10,0:0|0:0,0:0:0:0:
8,204,47607,1,2,0:0:0:0:
88,334,47868,1,10,0:0:0:0:
198,226,48129,22,0,P|237:209|298:230,1,96,4|10,0:1|0:0,0:0:0:0:
353,260,48520,2,0,L|367:360,1,96,2|0,1:2|1:0,0:0:0:0:
443,359,48911,2,0,L|456:296,1,48,8|0,0:0|0:0,0:0:0:0:
500,251,49172,6,0,P|510:162|423:114,1,192,2|2,0:0|0:0,0:0:0:0:
287,168,49955,2,0,L|290:226,1,48,10|0,0:0|0:0,0:0:0:0:
237,272,50216,6,0,P|200:287|138:256,1,96,2|10,1:2|1:2,0:0:0:0:
93,215,50607,1,0,1:2:0:0:
93,215,50737,2,0,L|104:112,1,96,2|10,1:2|1:2,0:0:0:0:
174,89,51129,2,0,L|178:34,1,48,10|0,1:2|1:2,0:0:0:0:
484,63,51781,6,0,P|487:97|484:124,1,48,0|0,1:0|1:0,0:0:0:0:
429,163,52042,2,0,P|425:199|428:224,1,48,0|0,1:0|1:0,0:0:0:0:
450,300,52303,6,0,P|410:268|325:270,1,132.00000402832,6|8,1:2|0:0,0:0:0:0:
256,321,52694,2,0,B|248:274|248:274|256:188,1,132.00000402832,2|0,1:2|1:0,0:0:0:0:
259,97,53085,2,0,B|197:72|197:72|130:86,1,132.00000402832,10|0,0:2|0:0,0:0:0:0:
26,215,53607,22,0,P|39:258|40:291,1,60,8|0,0:0|0:0,0:0:0:0:
73,350,53868,2,0,P|98:329|132:322,1,60,0|0,1:0|1:0,0:0:0:0:
204,346,54129,2,0,P|233:353|280:345,1,60,8|0,0:0|0:0,0:0:0:0:
329,298,54390,6,0,L|335:162,1,120,2|8,1:2|0:0,0:0:0:0:
415,201,54781,2,0,L|409:320,1,120,2|0,1:2|1:0,0:0:0:0:
490,344,55172,2,0,L|495:224,1,120,14|0,0:0|1:0,0:0:0:0:
425,70,55694,5,8,1:2:0:0:
425,70,55824,1,8,1:2:0:0:
425,70,55955,2,0,L|352:67,1,60,0|0,1:0|0:0,0:0:0:0:
297,118,56216,2,0,L|226:113,1,60,8|8,0:0|0:0,0:0:0:0:
172,48,56476,6,0,P|130:37|56:87,1,132.00000402832,6|8,1:2|0:0,0:0:0:0:
73,173,56868,2,0,B|78:219|78:219|65:316,1,132.00000402832,2|0,1:2|1:0,0:0:0:0:
142,357,57259,2,0,B|151:293|151:293|215:244,1,132.00000402832,10|0,0:0|0:0,0:0:0:0:
365,200,57781,22,0,P|381:233|385:268,1,60,8|0,0:0|0:0,0:0:0:0:
446,313,58042,2,0,P|463:265|484:240,1,60,0|0,1:0|1:0,0:0:0:0:
503,181,58303,2,0,P|506:141|496:106,1,60,8|0,0:0|0:0,0:0:0:0:
446,58,58563,6,0,B|394:82|394:82|324:65,1,120,2|8,1:2|0:0,0:0:0:0:
249,51,58955,2,0,B|255:94|255:94|244:125|244:125|251:176,1,120,2|0,1:2|1:0,0:0:0:0:
261,251,59346,2,0,B|214:210|214:210|142:219,1,120,14|0,0:0|0:0,0:0:0:0:
57,47,59868,6,0,L|127:38,1,60,8|8,0:0|0:0,0:0:0:0:
187,84,60129,2,0,L|151:155,1,60,0|0,1:0|0:0,0:0:0:0:
89,184,60390,2,0,L|63:124,1,60,0|0,1:0|1:0,0:0:0:0:
7,190,60650,22,0,B|23:230|23:230|18:319,1,120,2|8,1:2|0:0,0:0:0:0:
72,372,61042,1,0,1:0:0:0:
141,324,61172,2,0,P|172:309|251:330,1,120,2|8,1:2|0:0,0:0:0:0:
326,367,61563,6,0,B|325:330|325:330|338:290|338:290|337:244,1,120,0|0,1:0|1:0,0:0:0:0:
330,164,61955,1,10,0:0:0:0:
217,39,62216,1,2,1:2:0:0:
175,201,62476,1,10,0:2:0:0:
294,82,62737,6,0,P|347:77|405:118,1,120,4|8,1:0|0:0,0:0:0:0:
448,182,63129,1,0,1:0:0:0:
398,249,63259,2,0,B|379:287|379:287|385:369,1,120,2|8,1:2|0:0,0:0:0:0:
307,330,63650,6,0,P|259:312|174:338,1,120,0|0,0:0|1:0,0:0:0:0:
112,351,64042,2,0,L|106:226,1,120,10|2,0:0|1:2,0:0:0:0:
191,86,64563,2,0,L|206:155,1,60,8|8,0:0|0:0,0:0:0:0:
252,213,64824,22,0,P|256:156|314:112,1,120,6|8,0:0|0:0,0:0:0:0:
384,124,65216,2,0,B|426:112|443:155|503:136,1,120,2|0,1:2|1:0,0:0:0:0:
471,57,65607,2,0,P|427:41|396:39,1,60,8|0,0:0|0:0,0:0:0:0:
330,47,65868,6,0,B|292:62|292:62|202:44,1,120,2|8,1:2|0:0,0:0:0:0:
132,25,66259,2,0,P|138:70|122:154,1,120,2|0,1:2|0:0,0:0:0:0:
87,217,66650,1,10,0:0:0:0:
240,149,66911,6,0,P|277:139|320:296,1,240,2|0,1:2|1:0,0:0:0:0:
260,316,67563,1,0,1:0:0:0:
260,316,67694,2,0,P|211:304|176:308,1,60,8|8,0:0|0:0,0:0:0:0:
122,332,67955,6,0,B|106:289|106:289|120:205,1,120,2|0,1:2|0:0,0:0:0:0:
91,135,68346,2,0,B|130:111|130:111|215:110,1,120,2|0,1:2|0:0,0:0:0:0:
275,162,68737,2,0,L|278:263,1,81.0000003089905,2|0,1:2|1:0,0:0:0:0:
337,301,68998,22,0,P|336:263|405:215,1,120,14|10,0:0|0:0,0:0:0:0:
487,73,69520,2,0,L|407:56,1,60,8|4,1:2|1:3,0:0:0:0:
350,93,69781,2,0,L|325:161,1,60,8|4,1:2|1:3,0:0:0:0:
417,140,70042,5,10,0:0:0:0:
294,25,70303,1,10,0:0:0:0:
227,178,70563,2,0,L|203:246,1,60,8|4,1:2|1:3,0:0:0:0:
139,285,70824,2,0,L|123:219,1,60,8|4,1:2|1:3,0:0:0:0:
146,145,71085,5,10,0:0:0:0:
308,188,71346,1,10,0:0:0:0:
208,323,71607,2,0,P|172:357|89:349,1,120,10|10,1:2|1:2,0:0:0:0:
40,303,71998,1,4,1:3:0:0:
65,222,72129,6,0,B|72:182|72:182|65:94,1,120,10|8,0:0|0:0,0:0:0:0:
216,27,72650,2,0,L|228:94,1,60,10|0,0:0|0:0,0:0:0:0:
283,148,72911,2,0,L|309:80,1,60,4|0,1:3|1:0,0:0:0:0:
342,16,73172,21,14,0:0:0:0:
363,182,73433,1,10,0:0:0:0:
213,106,73694,2,0,L|134:85,1,60,8|4,1:2|1:3,0:0:0:0:
84,136,73955,2,0,L|86:208,1,60,8|4,1:2|1:3,0:0:0:0:
168,180,74216,5,10,0:0:0:0:
76,39,74476,1,10,0:0:0:0:
9,193,74737,2,0,P|1:237|21:320,1,120,8|8,1:2|1:2,0:0:0:0:
84,360,75129,1,4,1:3:0:0:
155,316,75259,6,0,P|196:295|272:310,1,120,10|10,0:0|0:0,0:0:0:0:
430,347,75781,2,0,L|431:279,1,60,8|4,0:0|1:3,0:0:0:0:
492,229,76042,2,0,L|464:160,1,60,8|4,0:0|1:3,0:0:0:0:
406,117,76303,6,0,P|402:65|409:26,2,80,2|0|0,1:2|1:2|1:2,0:0:0:0:
324,165,76824,2,0,P|308:110|311:53,2,95.9999970703126,2|0|0,1:2|1:2|1:2,0:0:0:0:
235,149,77346,22,0,P|205:141|165:143,1,56.9999984779358,4|0,1:2|1:0,0:0:0:0:
108,164,77607,2,0,L|113:288,1,113.999996955872,8|0,0:0|1:0,0:0:0:0:
227,371,78129,6,0,P|250:322|314:313,1,113.999996955872,8|0,0:0|1:0,0:0:0:0:
379,336,78520,1,0,1:0:0:0:
379,336,78650,2,0,B|381:294|381:294|388:263|388:263|388:208,1,113.999996955872,8|0,0:0|1:0,0:0:0:0:
414,76,79172,1,8,0:0:0:0:
267,97,79433,6,0,P|232:101|191:93,1,56.9999984779358,0|0,1:0|1:0,0:0:0:0:
143,66,79694,2,0,P|103:59|35:93,1,113.999996955872,8|0,0:0|1:0,0:0:0:0:
7,234,80216,6,0,P|24:271|26:344,1,113.999996955872,8|0,0:0|1:0,0:0:0:0:
104,374,80607,1,0,1:0:0:0:
104,374,80737,1,8,0:0:0:0:
104,374,80868,2,0,B|146:346|146:346|227:354,1,113.999996955872,8|0,0:0|1:0,0:0:0:0:
282,367,81259,2,0,L|284:285,1,56.9999984779358,8|8,0:0|0:0,0:0:0:0:
353,286,81520,22,0,L|347:215,1,56.9999984779358,0|0,1:0|1:0,0:0:0:0:
288,185,81781,2,0,B|292:141|292:141|357:99,1,113.999996955872,8|0,0:0|1:0,0:0:0:0:
477,25,82303,6,0,P|440:6|349:7,1,113.999996955872,8|0,0:0|1:0,0:0:0:0:
296,21,82694,1,0,1:0:0:0:
296,21,82824,2,0,P|253:39|183:32,1,113.999996955872,8|0,0:0|1:0,0:0:0:0:
40,8,83346,1,8,0:0:0:0:
78,151,83607,6,0,P|82:196|80:235,1,56.9999984779358,0|0,1:0|1:0,0:0:0:0:
95,280,83868,2,0,P|113:244|198:229,1,113.999996955872,8|0,0:0|1:0,0:0:0:0:
325,250,84390,1,8,0:0:0:0:
331,102,84650,6,0,P|341:66|405:29,1,113.999996955872,0|8,1:0|0:0,0:0:0:0:
477,158,85172,2,0,L|474:234,1,56.9999984779358,0|0,1:0|1:0,0:0:0:0:
417,262,85433,1,0,1:0:0:0:
417,262,85563,2,0,P|374:250|344:250,1,56.9999984779358,0|0,1:0|0:0,0:0:0:0:
219,291,85955,22,0,B|210:232|210:232|146:153,2,142.49999619484,0|0|0,0:0|0:0|0:0,0:0:0:0:
