osu file format v14

[General]
AudioFilename: future diary - kuusou mesorogiwi english cover song natewantstobattle and amanda lee leeandlie.mp3
AudioLeadIn: 0
PreviewTime: 51650
Countdown: 0
SampleSet: Soft
StackLeniency: 0.7
Mode: 0
LetterboxInBreaks: 0
WidescreenStoryboard: 1

[Editor]
DistanceSpacing: 0.83
BeatDivisor: 8
GridSize: 4
TimelineZoom: 1.399999

[Metadata]
Title:Kuusou Mesorogiwi
TitleUnicode:Kuusou Mesorogiwi
Artist:NateWantsToBattle feat. Amanda Lee
ArtistUnicode:NateWantsToBattle feat. Amanda Lee
Creator:Okoratu
Version:Easy
Source:未来日記
Tags:Mirai Nikki Yousei Teikoku Gasai Yuno Eins Zwei Drei german counting tv size version cover Shawn Christmas LeeandLie Future Diary & + and
BeatmapID:784970
BeatmapSetID:356752

[Difficulty]
HPDrainRate:2.7
CircleSize:2.6
OverallDifficulty:2.7
ApproachRate:3.6
SliderMultiplier:0.8
SliderTickRate:1

[Events]
//Background and Video events
0,0,"mirai nikki.jpg",0,0
Video,0,"Mirai Nikki - OP.avi"
//Break Periods
//Storyboard Layer 0 (Background)
//Storyboard Layer 1 (Fail)
//Storyboard Layer 2 (Pass)
//Storyboard Layer 3 (Foreground)
//Storyboard Sound Samples

[TimingPoints]
130,521.739130434783,4,2,2,40,1,0
1695,-100,4,2,2,30,0,0
2216,-100,4,2,2,60,0,0
2738,-100,4,2,2,30,0,0
3260,-100,4,2,2,50,0,0
3782,-100,4,2,2,40,0,0
4303,-100,4,2,2,60,0,0
4825,-100,4,2,2,10,0,0
6390,-100,4,2,2,50,0,0
6912,-100,4,2,2,60,0,0
7434,-100,4,2,2,50,0,0
7956,-100,4,2,2,60,0,0
8477,260.869565217391,4,2,1,80,1,0
16824,-100,4,2,2,80,0,0
25172,-100,4,2,2,70,0,0
26216,-100,4,2,1,70,0,0
26868,-100,4,2,1,85,0,0
27259,-100,4,2,1,70,0,0
27911,-100,4,2,1,85,0,0
28303,-100,4,2,3,80,0,0
29085,-100,4,2,2,80,0,0
29607,-100,4,2,2,80,0,0
30129,-100,4,2,2,80,0,0
30390,-100,4,2,1,70,0,0
31042,-100,4,2,1,85,0,0
31433,-100,4,2,1,70,0,0
32216,-100,4,2,2,70,0,0
32476,-100,4,2,3,80,0,0
32737,-100,4,2,2,80,0,0
33781,-100,4,2,2,80,0,0
34303,-100,4,2,2,80,0,0
34563,-100,4,2,1,80,0,0
35476,-100,4,2,1,90,0,0
36650,-100,4,2,1,80,0,0
37563,-100,4,2,1,90,0,0
38476,-100,4,2,2,90,0,0
38737,-100,4,2,1,70,0,0
51259,-100,4,2,3,70,0,0
51781,-100,4,2,2,70,0,0
52042,-100,4,2,1,70,0,0
52303,-100,4,2,1,100,0,1
52368,-100,4,2,1,85,0,1
60390,-100,4,2,3,85,0,0
60650,-100,4,2,1,100,0,1
60716,-100,4,2,1,85,0,1
67955,-100,4,2,1,95,0,0
68737,-100,4,2,1,100,0,0
68998,-100,4,2,1,80,0,1
69063,-100,4,2,1,90,0,1
72911,-100,4,2,2,90,0,1
73172,-100,4,2,1,90,0,1
76303,-100,4,2,1,100,0,1
76368,-100,4,2,1,70,0,1
76824,-100,4,2,2,90,0,1
77346,-100,4,2,1,70,0,0
85172,-100,4,2,3,70,0,0
85433,-100,4,2,2,70,0,0
85563,-100,4,2,1,70,0,0
86216,-100,4,2,1,10,0,0
86281,-100,4,2,1,70,0,0
86346,-100,4,2,1,10,0,0
86607,-100,4,2,1,50,0,0

[Colours]
Combo1 : 251,23,142
Combo2 : 105,160,235
Combo3 : 177,70,200
Combo4 : 244,139,94
Combo5 : 159,247,28

[HitObjects]
196,88,130,6,0,P|228:80|283:73,1,80,2|0,0:0|0:0,0:0:0:0:
358,101,1173,2,0,P|376:226|371:275,2,160,2|2|2,0:0|0:0|0:0,0:0:0:0:
293,41,3782,1,2,0:0:0:0:
246,115,4303,6,0,P|118:114|203:19,1,320,2|2,0:0|0:0,0:0:0:0:
289,31,6912,5,2,0:0:0:0:
353,90,7434,2,0,P|364:141|358:178,1,80,2|2,0:0|0:0,0:0:0:0:
351,300,8477,21,6,1:2:0:0:
265,279,8737,2,0,P|228:265|142:279,1,120,10|2,0:0|0:0,0:0:0:0:
61,280,9390,2,0,L|51:190,2,80,2|2|2,0:0|0:0|1:2,0:0:0:0:
152,380,10303,1,6,0:0:0:0:
260,247,10824,6,0,B|253:180|253:180|258:127,2,120,10|2|2,0:0|0:0|1:2,0:0:0:0:
358,158,11998,2,0,P|360:121|314:42,1,120,2|10,1:2|0:0,0:0:0:0:
235,39,12650,5,6,1:2:0:0:
147,48,12911,2,0,P|117:98|118:171,1,120,10|2,0:0|0:0,0:0:0:0:
154,236,13563,2,0,L|155:325,2,80,2|2|2,0:0|0:0|1:2,0:0:0:0:
274,181,14476,1,10,0:0:0:0:
412,290,14998,6,0,L|418:171,2,120,10|2|2,0:0|0:2|1:2,0:0:0:0:
292,347,16172,2,0,P|250:330|165:343,1,120,2|10,1:2|0:0,0:0:0:0:
93,364,16824,22,0,P|86:299|90:277,1,80,6|10,1:2|1:2,0:0:0:0:
121,203,17346,2,0,L|34:193,1,80,2|10,0:0|1:2,0:0:0:0:
55,106,17868,2,0,P|89:81|198:113,1,160,2|0,1:2|0:0,0:0:0:0:
255,172,18650,1,8,0:0:0:0:
341,188,18911,6,0,P|361:147|363:106,1,80,2|10,1:2|1:2,0:0:0:0:
370,25,19433,2,0,L|285:18,1,80,2|10,0:0|1:2,0:0:0:0:
203,34,19955,1,2,1:2:0:0:
165,205,20476,1,2,1:2:0:0:
104,39,20998,6,0,L|24:46,1,80,2|10,1:2|1:2,0:0:0:0:
29,134,21520,2,0,L|32:225,1,80,2|10,0:0|1:2,0:0:0:0:
117,236,22042,2,0,P|140:174|192:145,2,120,2|10|10,1:2|1:2|1:2,0:0:0:0:
149,317,23085,6,0,L|228:312,1,80,2|10,1:2|1:2,0:0:0:0:
292,247,23607,2,0,L|380:254,1,80,2|10,0:0|0:2,0:0:0:0:
452,289,24129,1,2,1:2:0:0:
474,114,24650,1,2,1:2:0:0:
318,34,25172,22,0,P|261:30|197:103,1,160,0|0,1:0|1:0,0:0:0:0:
184,189,25955,1,8,1:2:0:0:
181,277,26216,6,0,L|154:354,2,80,2|2|8,1:2|0:0|1:2,0:0:0:0:
257,234,26998,1,0,1:0:0:0:
315,300,27259,2,0,P|356:329|451:286,1,160,0|8,0:0|1:2,0:0:0:0:
475,205,28042,1,0,1:0:0:0:
497,119,28303,6,0,P|502:68|417:7,1,160,4|0,1:3|1:0,0:0:0:0:
341,39,29085,2,0,B|277:64|252:17|183:49,1,160,8|8,0:0|0:0,0:0:0:0:
109,96,29868,2,0,L|115:184,1,80,0|8,1:0|0:0,0:0:0:0:
196,209,30390,6,0,L|204:127,2,80,6|2|8,0:0|0:0|1:2,0:0:0:0:
175,294,31172,1,0,1:0:0:0:
259,269,31433,2,0,P|307:246|406:299,1,160,0|8,0:0|1:2,0:0:0:0:
462,348,32216,1,0,1:0:0:0:
481,262,32476,22,0,B|462:184|508:184|490:93,1,160,4|0,1:3|1:0,0:0:0:0:
441,32,33259,2,0,B|368:55|368:55|271:43,1,160,8|8,0:0|0:0,0:0:0:0:
197,32,34042,2,0,P|160:28|115:36,1,80,0|8,1:0|0:0,0:0:0:0:
57,99,34563,6,0,P|46:175|141:242,1,200,10|2,0:0|0:0,0:0:0:0:
223,230,35476,2,0,P|281:213|341:234,1,120,0|12,1:0|0:0,0:0:0:0:
395,295,36129,2,0,P|439:310|481:303,1,80,0|12,1:0|0:0,0:0:0:0:
477,218,36650,6,0,B|449:145|507:141|485:45|424:29,1,200,10|2,0:0|0:0,0:0:0:0:
351,21,37563,1,2,1:2:0:0:
273,63,37824,2,0,P|241:77|159:60,1,120,0|6,0:0|0:0,0:0:0:0:
77,30,38476,1,0,1:0:0:0:
40,110,38737,6,0,P|28:161|32:241,1,120,4|4,1:0|1:3,0:0:0:0:
72,305,39390,2,0,L|164:294,1,80,0|4,1:2|1:3,0:0:0:0:
208,228,39911,2,0,B|257:221|257:221|332:239,1,120,14|2,0:0|1:2,0:0:0:0:
408,267,40563,1,2,1:2:0:0:
442,186,40824,22,0,P|458:141|384:55,1,160,4|0,1:0|1:0,0:0:0:0:
311,36,41607,1,0,0:0:0:0:
261,108,41868,2,0,P|224:128|105:98,1,160,2|2,0:0|1:2,0:0:0:0:
116,295,42911,6,0,P|151:275|264:315,1,160,6|2,0:0|0:0,0:0:0:0:
343,330,43694,2,0,P|348:273|422:191,1,160,10|10,0:0|0:2,0:0:0:0:
462,124,44476,2,0,P|465:88|447:40,1,80,2|10,0:0|0:0,0:0:0:0:
364,32,44998,6,0,L|230:35,1,120,4|2,0:1|1:2,0:0:0:0:
114,62,45781,2,0,B|96:123|142:119|116:223,1,160,10|10,0:0|0:0,0:0:0:0:
42,266,46563,2,0,L|51:359,1,80,2|8,0:0|0:0,0:0:0:0:
134,319,47085,6,0,P|220:276|360:338,1,240,6|10,0:0|0:0,0:0:0:0:
396,249,48129,2,0,L|387:123,2,120,4|2|8,0:1|1:2|0:0,0:0:0:0:
481,226,49172,22,0,P|505:157|403:24,1,240,2|10,0:0|0:0,0:0:0:0:
334,54,50216,2,0,B|260:109|164:82|221:44|73:23|36:92,1,320,2|0,1:2|1:2,0:0:0:0:
95,256,51781,6,0,P|112:293|118:346,1,80,0|0,1:0|1:0,0:0:0:0:
202,357,52303,38,0,B|221:296|221:296|270:253,2,120,6|2|10,1:2|1:2|0:2,0:0:0:0:
179,182,53607,6,0,L|180:91,1,80,8|0,0:0|1:0,0:0:0:0:
232,31,54129,1,8,0:0:0:0:
310,69,54390,2,0,P|352:78|425:47,2,120,2|2|14,1:2|1:2|0:0,0:0:0:0:
138,29,55694,5,8,1:2:0:0:
72,88,55955,2,0,L|65:178,1,80,0|8,1:0|0:0,0:0:0:0:
139,215,56476,38,0,B|142:254|142:254|130:341,2,120,6|2|10,1:2|1:2|0:0,0:0:0:0:
243,72,57781,6,0,P|265:59|329:59,1,80,8|0,0:0|1:0,0:0:0:0:
391,105,58303,1,8,0:0:0:0:
379,191,58563,2,0,P|372:238|388:313,2,120,2|2|14,1:2|1:2|0:0,0:0:0:0:
258,62,59868,6,0,P|224:55|170:66,1,80,8|0,0:0|1:0,0:0:0:0:
104,108,60390,1,0,1:0:0:0:
98,195,60650,2,0,L|105:288,1,80,2|8,1:2|0:0,0:0:0:0:
174,327,61172,2,0,P|190:290|370:279,1,240,2|10,1:2|0:0,0:0:0:0:
452,275,62216,6,0,L|455:188,1,80,2|10,1:2|0:2,0:0:0:0:
489,114,62737,2,0,L|443:40,1,80,4|8,1:0|0:0,0:0:0:0:
361,23,63259,2,0,B|230:-9|153:134|261:210|334:150|321:98,1,320,2|2,1:2|1:2,0:0:0:0:
135,69,64824,6,0,P|63:89|75:173,1,160,6|0,0:0|0:0,0:0:0:0:
126,228,65607,1,8,0:0:0:0:
208,197,65868,2,0,B|241:185|241:185|336:194,2,120,2|2|10,1:2|1:2|0:0,0:0:0:0:
211,284,66911,22,0,P|278:325|354:301,1,160,2|0,1:2|1:0,0:0:0:0:
409,236,67694,1,8,0:0:0:0:
401,148,67955,2,0,B|395:99|395:99|415:30,2,120,2|2|2,1:2|1:2|1:2,0:0:0:0:
315,128,68998,6,0,P|262:107|174:163,1,160,14|8,0:0|1:2,0:0:0:0:
122,223,69781,1,8,1:2:0:0:
53,163,70042,2,0,P|32:131|73:22,1,160,10|8,0:0|1:2,0:0:0:0:
155,14,70824,1,8,1:2:0:0:
242,20,71085,6,0,L|417:33,1,160,10|10,0:0|1:2,0:0:0:0:
464,93,71868,1,10,1:2:0:0:
408,161,72129,2,0,P|394:198|395:244,1,80,10|8,0:0|0:0,0:0:0:0:
369,322,72650,2,0,P|332:313|288:310,1,80,10|4,0:0|1:3,0:0:0:0:
206,337,73172,6,0,B|210:256|119:226|-2:238|33:13|177:-14|251:65,1,480,14|8,0:0|1:2,0:0:0:0:
286,132,74998,1,8,1:2:0:0:
330,55,75259,2,0,B|427:-16|517:93|491:159,1,240,10|8,0:0|0:0,0:0:0:0:
452,224,76303,2,0,B|452:228|421:256|351:285|355:344,1,160,2|2,1:2|1:2,0:0:0:0:
284,182,77346,22,0,P|238:122|222:114,1,80,4|8,1:2|0:0,0:0:0:0:
154,85,77868,1,0,1:0:0:0:
100,154,78129,2,0,L|92:248,1,80,8|0,0:0|1:0,0:0:0:0:
138,309,78650,2,0,P|188:296|230:301,1,80,8|0,0:0|1:0,0:0:0:0:
301,320,79172,2,0,P|349:335|389:326,1,80,8|0,0:0|1:0,0:0:0:0:
457,293,79694,6,0,L|456:200,1,80,8|0,0:0|1:0,0:0:0:0:
453,124,80216,1,8,0:0:0:0:
382,71,80476,2,0,P|343:49|257:53,2,120,0|8|8,1:0|0:0|0:0,0:0:0:0:
368,154,81520,6,0,L|372:251,1,80,0|8,1:0|0:0,0:0:0:0:
301,288,82042,2,0,L|276:208,1,80,0|8,1:0|0:0,0:0:0:0:
221,143,82563,2,0,P|184:129|140:130,1,80,0|8,1:0|0:0,0:0:0:0:
124,215,83085,2,0,P|105:228|34:225,1,80,0|8,1:0|0:0,0:0:0:0:
15,150,83607,5,0,1:0:0:0:
13,61,83868,2,0,P|47:44|93:47,1,80,8|0,0:0|1:0,0:0:0:0:
173,69,84390,1,8,0:0:0:0:
221,143,84650,2,0,P|265:169|372:133,1,160,0|0,1:0|1:0,0:0:0:0:
414,68,85433,1,0,2:0:0:0:
404,243,85955,22,0,L|401:360,2,100
