osu file format v13

[General]
AudioFilename: Nat.mp3
AudioLeadIn: 0
PreviewTime: 53166
Countdown: 1
SampleSet: Normal
StackLeniency: 0.7
Mode: 0
LetterboxInBreaks: 1
WidescreenStoryboard: 0

[Editor]
Bookmarks: 53332
DistanceSpacing: 1.5
BeatDivisor: 4
GridSize: 4
TimelineZoom: 1.1

[Metadata]
Title:Vernemsya k istokam
TitleUnicode:Вернемся к истокам
Artist:Natashkin Atomniy Musoroprovod
ArtistUnicode:Наташкин Атомный Мусоропровод
Creator:Stone-Cold
Version:Insane
Source:
Tags:
BeatmapID:473213
BeatmapSetID:199536

[Difficulty]
HPDrainRate:7
CircleSize:4.5
OverallDifficulty:8
ApproachRate:8.5
SliderMultiplier:1.6
SliderTickRate:1

[Events]
//Background and Video events
0,0,"close-up_drop_black_blue_rain_4502_1920x1080.jpg",0,0
//Break Periods
2,42782,51324
2,74782,79324
//Storyboard Layer 0 (Background)
//Storyboard Layer 1 (Fail)
//Storyboard Layer 2 (Pass)
//Storyboard Layer 3 (Foreground)
//Storyboard Sound Samples
//Background Colour Transformations
3,100,163,162,255

[TimingPoints]
5333,333.333333333333,4,1,0,20,1,0
53333,-100,4,1,0,20,0,1
63999,-100,4,1,0,20,0,0
84666,333.333333333333,4,1,0,20,1,0
105999,-100,4,1,0,20,0,1
127332,-100,4,1,0,20,0,0

[Colours]
Combo1 : 0,0,89
Combo2 : 0,0,128
Combo3 : 0,0,160

[HitObjects]
84,152,15999,5,0,0:0:0:0:
220,68,16332,1,0,0:0:0:0:
220,68,16499,1,0,0:0:0:0:
372,112,16832,1,0,0:0:0:0:
436,164,16999,1,0,0:0:0:0:
460,240,17166,1,0,0:0:0:0:
436,316,17332,5,0,1:1:0:0:
396,316,17416,1,0,0:0:0:0:
356,308,17499,1,0,0:0:0:0:
328,280,17582,1,0,0:0:0:0:
300,252,17666,1,0,0:0:0:0:
264,236,17749,1,0,0:0:0:0:
224,228,17832,1,0,0:0:0:0:
184,240,17916,1,0,0:0:0:0:
164,276,17999,6,0,L|136:304,3,40,0|0|0|0,0:0|0:0|0:0|0:0,0:0:0:0:
96,316,18332,2,0,L|56:308,3,40,0|0|0|0,0:0|0:0|0:0|0:0,0:0:0:0:
36,272,18666,5,0,0:0:0:0:
88,120,18999,1,0,0:0:0:0:
88,120,19166,1,0,0:0:0:0:
316,44,19666,1,0,0:0:0:0:
428,156,19999,5,0,0:0:0:0:
416,236,20166,1,0,0:0:0:0:
348,276,20332,1,0,0:0:0:0:
296,216,20499,6,0,L|300:176,1,40
260,188,20666,2,0,L|244:152,1,40
212,176,20832,2,0,L|180:152,1,40
168,188,20999,2,0,L|132:172,1,40
136,212,21166,2,0,L|96:212,1,40
112,248,21332,5,0,0:0:0:0:
152,320,21499,1,0,0:0:0:0:
232,332,21666,1,8,0:0:0:0:
312,316,21832,6,0,L|312:276,1,40
352,264,21999,1,0,0:0:0:0:
376,228,22082,1,0,0:0:0:0:
396,196,22166,1,0,0:0:0:0:
396,156,22249,2,0,P|404:132|400:112,1,40,0|0,0:0|0:0,0:0:0:0:
364,108,22416,2,0,P|356:84|360:64,1,40,0|0,0:0|0:0,0:0:0:0:
320,40,22582,1,0,0:0:0:0:
280,44,22666,5,0,0:0:0:0:
204,60,22832,1,0,0:0:0:0:
152,120,22999,1,8,0:0:0:0:
124,196,23166,6,0,L|124:236,1,40
148,268,23332,2,0,L|184:292,1,40
220,288,23499,1,0,0:0:0:0:
256,272,23582,1,0,0:0:0:0:
296,264,23666,1,0,0:0:0:0:
336,272,23749,1,0,0:0:0:0:
376,284,23832,1,0,0:0:0:0:
420,280,23916,1,0,0:0:0:0:
456,260,23999,6,0,P|440:216|424:188,3,80,0|0|8|0,0:0|0:0|0:0|0:0,0:0:0:0:
400,156,24582,1,0,0:0:0:0:
368,128,24666,1,0,0:0:0:0:
328,128,24749,1,0,0:0:0:0:
300,156,24832,1,0,0:0:0:0:
276,188,24916,1,0,0:0:0:0:
236,184,24999,1,0,0:0:0:0:
204,164,25082,1,0,0:0:0:0:
200,124,25166,1,0,0:0:0:0:
216,88,25249,1,0,0:0:0:0:
200,52,25332,5,0,0:0:0:0:
120,56,25499,1,0,0:0:0:0:
100,132,25666,1,8,0:0:0:0:
120,208,25832,5,0,0:0:0:0:
148,236,25916,1,0,0:0:0:0:
156,268,25999,2,0,P|172:284|188:284,1,40
228,280,26166,1,0,0:0:0:0:
268,288,26249,1,0,0:0:0:0:
308,284,26332,2,0,P|332:276|344:260,1,40
368,236,26499,1,0,0:0:0:0:
408,224,26582,1,0,0:0:0:0:
420,184,26666,5,0,0:0:0:0:
384,112,26832,1,0,0:0:0:0:
308,92,26999,1,0,0:0:0:0:
228,108,27166,1,0,0:0:0:0:
116,224,27499,1,4,0:0:0:0:
336,324,27999,5,0,0:0:0:0:
256,324,28166,1,0,0:0:0:0:
200,268,28332,1,0,0:0:0:0:
216,188,28499,1,0,0:0:0:0:
352,108,28832,1,4,0:0:0:0:
116,64,29332,5,0,0:0:0:0:
192,44,29499,1,0,0:0:0:0:
272,40,29666,2,0,P|312:40|352:56,1,80
404,112,29999,1,0,0:0:0:0:
428,188,30166,2,0,B|404:212|432:232|432:268,1,80
400,336,30499,1,0,0:0:0:0:
320,328,30666,6,0,B|296:304|264:328|244:328,2,80,0|0|0,0:0|0:0|0:0,0:0:0:0:
312,248,31166,1,0,0:0:0:0:
256,192,31332,1,0,0:0:0:0:
220,208,31416,1,0,0:0:0:0:
200,244,31499,1,0,0:0:0:0:
188,280,31582,1,0,0:0:0:0:
152,300,31666,1,0,0:0:0:0:
112,296,31749,1,0,0:0:0:0:
88,264,31832,1,0,0:0:0:0:
92,224,31916,1,0,0:0:0:0:
120,192,31999,5,0,0:0:0:0:
168,128,32166,1,0,0:0:0:0:
244,108,32332,1,8,0:0:0:0:
324,112,32499,6,0,L|348:80,1,40
388,68,32666,2,0,L|428:68,1,40
452,100,32832,2,0,L|468:136,1,40
464,176,32999,2,0,L|460:216,1,40
440,252,33166,2,0,L|420:288,1,40
384,308,33332,5,0,0:0:0:0:
312,344,33499,1,0,0:0:0:0:
244,300,33666,1,8,0:0:0:0:
268,224,33832,5,0,0:0:0:0:
268,184,33916,2,0,P|264:164|256:144,1,40
232,108,34082,1,0,0:0:0:0:
196,92,34166,1,0,0:0:0:0:
156,88,34249,1,0,0:0:0:0:
120,104,34332,2,0,P|104:116|84:116,3,40,0|0|0|0,0:0|0:0|0:0|0:0,0:0:0:0:
56,144,34666,5,0,0:0:0:0:
44,224,34832,1,0,0:0:0:0:
88,292,34999,1,8,0:0:0:0:
168,296,35166,6,0,P|180:280|200:276,1,40
236,284,35332,1,0,0:0:0:0:
276,276,35416,1,0,0:0:0:0:
308,252,35499,2,0,P|328:248|344:236,3,40,0|0|0|0,0:0|0:0|0:0|0:0,0:0:0:0:
368,204,35832,1,0,0:0:0:0:
404,188,35916,1,0,0:0:0:0:
444,192,35999,5,0,0:0:0:0:
468,116,36166,2,0,P|456:88|424:52,1,80,0|8,0:0|0:0,0:0:0:0:
344,36,36499,5,0,0:0:0:0:
316,64,36582,2,0,P|316:84|304:104,1,40,0|0,0:0|0:0,0:0:0:0:
284,132,36749,1,0,0:0:0:0:
252,156,36832,2,0,L|212:156,1,40,0|0,0:0|0:0,0:0:0:0:
176,176,36999,1,0,0:0:0:0:
164,216,37082,1,0,0:0:0:0:
172,256,37166,2,0,P|184:272|204:272,1,40
240,256,37332,5,4,0:0:0:0:
380,176,37666,1,0,0:0:0:0:
380,176,37832,1,4,0:0:0:0:
412,332,38166,1,4,0:0:0:0:
236,168,38666,5,4,0:0:0:0:
96,88,39000,1,0,0:0:0:0:
96,88,39166,1,4,0:0:0:0:
64,244,39500,1,4,0:0:0:0:
300,292,39999,6,0,B|344:248|300:204|300:136,1,160,4|0,0:0|0:0,0:0:0:0:
300,139,40499,1,4,0:0:0:0:
300,139,40832,1,4,0:0:0:0:
84,36,41332,6,0,B|40:80|84:124|84:192,1,160,4|0,0:0|0:0,0:0:0:0:
83,188,41832,1,4,0:0:0:0:
120,260,41999,5,2,0:0:0:0:
160,260,42082,1,2,0:0:0:0:
200,260,42166,1,2,0:0:0:0:
240,260,42249,1,2,0:0:0:0:
280,260,42332,1,2,0:0:0:0:
320,260,42416,1,2,0:0:0:0:
360,260,42499,1,2,0:0:0:0:
400,260,42582,1,2,0:0:0:0:
256,192,51999,12,4,52999,0:0:0:0:
68,144,53166,5,0,0:0:0:0:
140,108,53332,2,0,P|176:84|212:76,1,80
288,104,53666,1,0,0:0:0:0:
368,92,53832,1,0,0:0:0:0:
428,148,53999,2,0,P|456:172|472:212,1,80
396,236,54332,2,0,P|381:272|352:299,1,80
276,272,54666,5,0,0:0:0:0:
204,308,54832,2,0,P|176:328|132:328,2,80,0|0|0,0:0|0:0|0:0,0:0:0:0:
148,252,55332,2,0,P|120:232|76:232,2,80,0|0|0,0:0|0:0|0:0,0:0:0:0:
180,180,55832,1,0,0:0:0:0:
260,192,55999,6,0,P|292:172|320:140,1,80
284,68,56332,1,0,0:0:0:0:
356,28,56499,2,0,P|382:58|415:79,1,80
456,148,56832,1,0,0:0:0:0:
416,216,56999,2,0,P|389:246|356:267,1,80
312,336,57332,5,0,0:0:0:0:
232,336,57499,1,0,0:0:0:0:
152,336,57666,1,0,0:0:0:0:
116,264,57832,5,0,0:0:0:0:
104,224,57916,1,0,0:0:0:0:
116,188,57999,1,0,0:0:0:0:
140,156,58082,2,0,L|168:124,3,40,0|0|0|0,0:0|0:0|0:0|0:0,0:0:0:0:
204,108,58416,1,0,0:0:0:0:
244,100,58499,1,0,0:0:0:0:
272,72,58582,1,0,0:0:0:0:
292,36,58666,5,0,0:0:0:0:
368,64,58832,2,0,B|396:72|412:56|448:56,1,80
448,136,59166,2,0,B|413:135|397:151|369:143,1,80
368,224,59499,2,0,B|396:232|412:216|448:216,2,80,0|0|0,0:0|0:0|0:0,0:0:0:0:
320,288,59999,5,0,0:0:0:0:
252,332,60166,1,0,0:0:0:0:
172,316,60332,1,0,0:0:0:0:
156,236,60499,1,0,0:0:0:0:
132,160,60666,2,0,B|152:128|128:120|128:80,1,80
208,92,60999,2,0,B|232:68|248:92|284:80,1,80
356,120,61332,5,0,0:0:0:0:
396,188,61499,1,0,0:0:0:0:
392,268,61666,2,0,B|376:312|400:312|388:348,1,80
308,356,61999,1,0,0:0:0:0:
232,332,62166,1,0,0:0:0:0:
224,252,62332,2,0,B|212:217|236:217|220:173,1,80
252,100,62666,5,0,0:0:0:0:
236,64,62749,1,0,0:0:0:0:
204,40,62832,1,0,0:0:0:0:
124,28,62999,1,0,0:0:0:0:
64,80,63166,1,0,0:0:0:0:
64,80,63249,1,0,0:0:0:0:
80,160,63416,1,0,0:0:0:0:
80,160,63499,1,0,0:0:0:0:
136,220,63666,1,0,0:0:0:0:
172,236,63749,1,0,0:0:0:0:
204,256,63832,1,0,0:0:0:0:
228,288,63916,1,0,0:0:0:0:
240,328,63999,5,0,0:0:0:0:
316,308,64166,1,0,0:0:0:0:
348,284,64249,1,0,0:0:0:0:
380,260,64332,1,0,0:0:0:0:
412,236,64416,1,0,0:0:0:0:
444,212,64499,1,8,0:0:0:0:
368,72,64832,5,0,0:0:0:0:
288,72,64999,1,0,0:0:0:0:
208,72,65166,1,0,0:0:0:0:
128,72,65332,5,0,0:0:0:0:
196,172,65582,1,0,0:0:0:0:
180,208,65666,1,0,0:0:0:0:
164,244,65749,1,0,0:0:0:0:
148,280,65832,1,8,0:0:0:0:
292,348,66166,5,0,0:0:0:0:
292,268,66332,1,0,0:0:0:0:
292,188,66499,1,0,0:0:0:0:
292,108,66666,5,0,0:0:0:0:
364,72,66832,1,0,0:0:0:0:
380,108,66916,1,0,0:0:0:0:
396,144,66999,1,0,0:0:0:0:
412,180,67082,1,0,0:0:0:0:
428,216,67166,1,8,0:0:0:0:
308,320,67499,5,0,0:0:0:0:
228,320,67666,1,0,0:0:0:0:
148,320,67832,1,0,0:0:0:0:
68,320,67999,5,0,0:0:0:0:
124,212,68249,1,0,0:0:0:0:
148,180,68332,1,0,0:0:0:0:
172,148,68415,1,0,0:0:0:0:
200,116,68499,1,8,0:0:0:0:
356,88,68832,5,0,0:0:0:0:
356,168,68999,1,0,0:0:0:0:
356,248,69166,1,0,0:0:0:0:
356,328,69332,5,0,0:0:0:0:
280,300,69499,1,0,0:0:0:0:
240,300,69582,1,0,0:0:0:0:
200,300,69666,1,0,0:0:0:0:
160,300,69749,1,0,0:0:0:0:
120,300,69832,1,8,0:0:0:0:
76,232,69999,5,0,0:0:0:0:
56,156,70166,1,0,0:0:0:0:
92,84,70332,1,0,0:0:0:0:
164,48,70499,1,0,0:0:0:0:
244,64,70666,6,0,B|272:80|288:64|324:64,1,80
348,96,70916,1,0,0:0:0:0:
376,128,70999,1,0,0:0:0:0:
400,160,71082,1,0,0:0:0:0:
428,192,71166,1,8,0:0:0:0:
416,272,71332,5,0,0:0:0:0:
364,332,71499,1,0,0:0:0:0:
288,352,71666,1,0,0:0:0:0:
216,324,71832,1,0,0:0:0:0:
196,248,71999,5,0,0:0:0:0:
148,184,72166,1,0,0:0:0:0:
180,164,72249,1,0,0:0:0:0:
212,144,72332,1,0,0:0:0:0:
248,124,72416,1,0,0:0:0:0:
280,104,72499,1,8,0:0:0:0:
240,36,72666,5,0,0:0:0:0:
316,20,72832,1,0,0:0:0:0:
392,44,72999,1,0,0:0:0:0:
428,116,73166,1,0,0:0:0:0:
412,196,73332,6,0,B|384:220|360:204|336:204,1,80
312,236,73582,1,0,0:0:0:0:
288,268,73666,1,0,0:0:0:0:
264,300,73749,1,0,0:0:0:0:
240,332,73832,1,8,0:0:0:0:
160,328,73999,5,0,0:0:0:0:
128,256,74166,2,4,L|128:216,5,40,4|0|4|0|4|0,0:0|0:0|0:0|0:0|0:0|0:0,0:0:0:0:
132,152,79999,5,0,0:0:0:0:
208,120,80166,2,0,P|232:112|244:96,2,40,0|0|0,0:0|0:0|0:0,0:0:0:0:
268,172,80499,2,0,P|292:172|308:168,1,40
344,148,80666,1,0,0:0:0:0:
384,140,80749,1,0,0:0:0:0:
420,152,80832,1,0,0:0:0:0:
420,152,80999,1,0,0:0:0:0:
432,312,81332,5,0,0:0:0:0:
360,348,81499,1,0,0:0:0:0:
284,328,81666,2,0,B|256:296|244:320|216:288,1,80
188,252,81916,1,0,0:0:0:0:
160,224,81999,1,0,0:0:0:0:
160,184,82082,1,0,0:0:0:0:
180,148,82166,1,0,0:0:0:0:
180,148,82332,1,0,0:0:0:0:
336,112,82666,6,0,P|352:100|364:84,2,40,0|0|0,0:0|0:0|0:0,0:0:0:0:
356,148,82916,2,0,P|376:152|396:144,2,40,0|0|0,0:0|0:0|0:0,0:0:0:0:
364,188,83166,1,0,0:0:0:0:
356,228,83249,1,0,0:0:0:0:
344,264,83332,2,0,P|320:296|288:320,2,80,0|0|0,0:0|0:0|0:0,0:0:0:0:
188,232,83999,5,0,0:0:0:0:
156,208,84082,1,0,0:0:0:0:
144,168,84166,1,0,0:0:0:0:
164,92,84332,1,0,0:0:0:0:
236,60,84499,1,0,0:0:0:0:
276,48,84582,1,0,0:0:0:0:
316,48,84666,5,0,0:0:0:0:
376,100,84832,2,0,B|400:136|420:112|436:152,1,80
416,228,85166,1,0,0:0:0:0:
376,296,85332,2,0,B|344:280|340:304|300:272,1,80
232,312,85666,1,0,0:0:0:0:
160,284,85832,1,0,0:0:0:0:
124,212,85999,6,0,B|124:172|76:184|76:144,1,80
148,120,86332,2,0,B|148:80|196:92|196:52,1,80,0|0,0:0|0:0,0:0:0:0:
276,44,86666,1,0,0:0:0:0:
352,68,86832,1,0,0:0:0:0:
304,132,86999,1,0,0:0:0:0:
380,156,87165,1,0,0:0:0:0:
384,236,87332,6,0,B|412:264|432:244|460:264,1,80
416,332,87666,1,0,0:0:0:0:
336,344,87832,1,0,0:0:0:0:
260,324,87999,2,0,B|260:292|288:292|288:248,1,80
208,240,88332,2,0,B|208:208|180:208|180:164,1,80
252,128,88666,5,0,0:0:0:0:
216,56,88832,1,0,0:0:0:0:
136,52,88999,1,0,0:0:0:0:
84,112,89166,5,0,0:0:0:0:
100,148,89249,1,0,0:0:0:0:
100,188,89332,2,0,P|88:200|80:224,1,40
100,256,89499,2,0,P|112:268|120:292,1,40
144,320,89666,1,0,0:0:0:0:
184,332,89749,1,0,0:0:0:0:
220,320,89832,1,0,0:0:0:0:
244,288,89916,1,0,0:0:0:0:
236,248,89999,5,0,0:0:0:0:
300,196,90166,1,0,0:0:0:0:
380,192,90332,2,0,P|412:176|436:140,1,80
420,60,90666,1,0,0:0:0:0:
348,96,90832,2,0,P|312:84|268:84,1,80,0|0,0:0|0:0,0:0:0:0:
200,124,91166,1,0,0:0:0:0:
184,204,91332,5,0,0:0:0:0:
108,228,91499,2,0,B|88:212|116:188|100:152,2,80,0|0|0,0:0|0:0|0:0,0:0:0:0:
164,284,91999,2,0,B|144:300|172:324|156:360,2,80,0|0|0,0:0|0:0|0:0,0:0:0:0:
240,260,92499,1,0,0:0:0:0:
256,192,92665,12,4,93665,0:0:0:0:
96,104,93999,5,0,0:0:0:0:
160,56,94165,1,0,0:0:0:0:
240,56,94332,1,0,0:0:0:0:
300,108,94499,5,0,0:0:0:0:
328,136,94582,1,0,0:0:0:0:
348,172,94665,1,0,0:0:0:0:
356,212,94749,1,0,0:0:0:0:
356,252,94832,2,0,L|356:292,5,40,0|0|0|0|0|0,0:0|0:0|0:0|0:0|0:0|0:0,0:0:0:0:
344,332,95332,5,0,0:0:0:0:
280,284,95499,1,0,0:0:0:0:
240,272,95582,1,0,0:0:0:0:
200,260,95665,1,0,0:0:0:0:
160,248,95749,1,0,0:0:0:0:
120,236,95832,1,8,0:0:0:0:
152,80,96165,1,0,0:0:0:0:
232,80,96332,1,0,0:0:0:0:
312,80,96499,1,0,0:0:0:0:
392,80,96665,5,0,0:0:0:0:
460,176,96915,1,0,0:0:0:0:
428,200,96999,1,0,0:0:0:0:
396,224,97082,1,0,0:0:0:0:
364,248,97165,1,8,0:0:0:0:
232,336,97499,5,0,0:0:0:0:
232,256,97665,1,0,0:0:0:0:
232,176,97832,1,0,0:0:0:0:
232,96,97999,5,0,0:0:0:0:
164,140,98165,1,0,0:0:0:0:
152,180,98249,1,0,0:0:0:0:
140,220,98332,1,0,0:0:0:0:
128,260,98415,1,0,0:0:0:0:
116,300,98499,1,8,0:0:0:0:
256,224,98832,5,0,0:0:0:0:
336,224,98999,1,0,0:0:0:0:
416,224,99165,1,0,0:0:0:0:
496,224,99332,5,0,0:0:0:0:
436,120,99582,1,0,0:0:0:0:
396,112,99665,1,0,0:0:0:0:
356,104,99749,1,0,0:0:0:0:
316,96,99832,1,8,0:0:0:0:
160,60,100165,5,0,0:0:0:0:
160,140,100332,1,0,0:0:0:0:
160,220,100499,1,0,0:0:0:0:
160,300,100665,5,0,0:0:0:0:
232,332,100832,2,8,L|272:332,4,40,0|0|0|0|8,0:0|0:0|0:0|0:0|0:0,0:0:0:0:
268,260,101332,1,0,0:0:0:0:
332,216,101499,2,0,L|332:176,2,40,0|0|0,0:0|0:0|0:0,0:0:0:0:
408,236,101832,1,0,0:0:0:0:
464,176,101999,5,0,0:0:0:0:
424,108,102165,2,0,L|384:108,4,40,0|0|0|0|8,0:0|0:0|0:0|0:0|0:0,0:0:0:0:
380,40,102665,1,0,0:0:0:0:
316,88,102832,2,0,L|316:128,2,40,0|0|0,0:0|0:0|0:0,0:0:0:0:
244,48,103165,5,0,0:0:0:0:
212,72,103249,1,0,0:0:0:0:
180,96,103332,1,0,0:0:0:0:
128,156,103499,1,0,0:0:0:0:
148,188,103582,1,0,0:0:0:0:
172,220,103665,1,0,0:0:0:0:
192,252,103749,1,0,0:0:0:0:
212,284,103832,1,8,0:0:0:0:
284,320,103999,5,0,0:0:0:0:
364,304,104165,1,0,0:0:0:0:
380,268,104249,1,0,0:0:0:0:
392,232,104332,1,0,0:0:0:0:
448,172,104499,1,0,0:0:0:0:
440,92,104665,5,0,0:0:0:0:
380,36,104832,1,0,0:0:0:0:
344,52,104915,1,0,0:0:0:0:
308,68,104999,1,0,0:0:0:0:
272,84,105082,1,0,0:0:0:0:
236,100,105165,1,8,0:0:0:0:
192,168,105332,5,0,0:0:0:0:
112,156,105499,2,0,L|72:156,4,40,4|0|4|0|4,0:0|0:0|0:0|0:0|0:0,0:0:0:0:
72,228,105999,5,0,0:0:0:0:
176,284,106165,1,0,0:0:0:0:
296,276,106332,2,0,B|324:252|336:276|368:244,1,80
372,124,106665,1,0,0:0:0:0:
268,64,106832,2,0,B|232:48|224:68|192:40,2,80,0|0|0,0:0|0:0|0:0,0:0:0:0:
176,140,107332,6,0,B|144:128|136:152|96:148,1,80
200,212,107665,2,0,B|232:224|240:200|280:204,1,80,0|0,0:0|0:0,0:0:0:0:
192,288,107999,2,0,B|160:276|152:300|112:296,1,80
220,356,108332,2,0,B|252:368|260:344|300:348,1,80,0|0,0:0|0:0,0:0:0:0:
392,276,108665,5,0,0:0:0:0:
408,156,108832,1,0,0:0:0:0:
348,52,108999,2,0,B|320:32|300:56|268:48,1,80
152,80,109332,1,0,0:0:0:0:
100,188,109499,1,0,0:0:0:0:
184,260,109665,2,0,B|184:228|224:248|228:200,1,80
332,216,109999,5,0,0:0:0:0:
284,328,110165,1,0,0:0:0:0:
168,352,110332,1,0,0:0:0:0:
72,276,110499,1,0,0:0:0:0:
108,228,110582,1,0,0:0:0:0:
92,172,110665,1,0,0:0:0:0:
56,124,110749,1,0,0:0:0:0:
60,64,110832,1,0,0:0:0:0:
108,28,110915,1,0,0:0:0:0:
168,40,110999,1,0,0:0:0:0:
196,92,111082,1,0,0:0:0:0:
244,128,111165,1,0,0:0:0:0:
300,112,111249,1,0,0:0:0:0:
324,56,111332,5,0,0:0:0:0:
388,156,111499,1,0,0:0:0:0:
364,272,111665,2,0,B|388:260|400:276|444:276,2,80,0|0|0,0:0|0:0|0:0,0:0:0:0:
256,220,112165,2,0,B|232:232|220:216|176:216,2,80,0|0|0,0:0|0:0|0:0,0:0:0:0:
160,292,112665,5,0,0:0:0:0:
60,228,112832,1,0,0:0:0:0:
84,116,112999,2,0,B|68:84|96:84|76:36,1,80
184,92,113332,2,0,B|168:124|196:124|176:172,2,80,0|0|0,0:0|0:0|0:0,0:0:0:0:
300,68,113832,1,0,0:0:0:0:
380,160,113999,5,0,0:0:0:0:
328,268,114165,2,0,B|348:292|380:260|404:288,2,80,0|0|0,0:0|0:0|0:0,0:0:0:0:
216,312,114665,1,0,0:0:0:0:
120,236,114832,2,0,B|128:204|108:204|108:156,1,80
228,176,115165,1,0,0:0:0:0:
264,60,115332,5,0,0:0:0:0:
376,108,115499,1,0,0:0:0:0:
436,212,115665,1,0,0:0:0:0:
348,292,115832,2,0,L|348:332,1,40
304,292,115999,2,0,L|304:252,1,40
260,292,116165,2,0,L|260:332,1,40
216,292,116332,2,0,L|216:252,1,40
172,296,116499,2,0,L|172:336,2,40,0|0|0,0:0|0:0|0:0,0:0:0:0:
104,196,116832,5,0,0:0:0:0:
104,196,116915,1,0,0:0:0:0:
104,196,116999,1,0,0:0:0:0:
104,196,117082,1,0,0:0:0:0:
104,196,117165,1,8,0:0:0:0:
164,92,117332,1,0,0:0:0:0:
280,60,117499,1,0,0:0:0:0:
396,96,117665,2,0,P|424:116|448:156,1,80
352,228,117999,5,0,0:0:0:0:
200,324,118249,1,0,0:0:0:0:
200,324,118332,1,0,0:0:0:0:
200,324,118415,1,0,0:0:0:0:
200,324,118499,1,8,0:0:0:0:
228,208,118665,2,0,P|248:172|256:132,2,80,0|0|0,0:0|0:0|0:0,0:0:0:0:
136,128,119165,1,0,0:0:0:0:
32,192,119332,5,0,0:0:0:0:
64,308,119499,1,0,0:0:0:0:
64,308,119582,1,0,0:0:0:0:
64,308,119665,1,0,0:0:0:0:
64,308,119749,1,0,0:0:0:0:
64,308,119832,1,8,0:0:0:0:
184,324,119999,1,0,0:0:0:0:
296,284,120165,1,0,0:0:0:0:
384,204,120332,2,0,P|408:176|424:136,1,80
364,32,120665,5,0,0:0:0:0:
192,88,120915,1,0,0:0:0:0:
192,88,120999,1,0,0:0:0:0:
192,88,121082,1,0,0:0:0:0:
192,88,121165,1,8,0:0:0:0:
148,128,121249,1,0,0:0:0:0:
128,184,121332,1,0,0:0:0:0:
144,240,121415,1,0,0:0:0:0:
188,284,121499,1,0,0:0:0:0:
244,304,121582,1,0,0:0:0:0:
296,276,121665,1,0,0:0:0:0:
328,224,121749,1,0,0:0:0:0:
376,192,121832,1,0,0:0:0:0:
436,188,121915,1,0,0:0:0:0:
472,236,121999,5,0,0:0:0:0:
388,320,122165,1,0,0:0:0:0:
388,320,122249,1,0,0:0:0:0:
388,320,122332,1,0,0:0:0:0:
388,320,122415,1,0,0:0:0:0:
388,320,122499,1,8,0:0:0:0:
272,340,122665,1,0,0:0:0:0:
272,340,122749,1,0,0:0:0:0:
272,340,122832,1,0,0:0:0:0:
272,340,122915,1,0,0:0:0:0:
272,340,122999,1,8,0:0:0:0:
180,264,123165,1,0,0:0:0:0:
120,160,123332,5,0,0:0:0:0:
180,56,123499,1,0,0:0:0:0:
180,56,123582,1,0,0:0:0:0:
180,56,123665,1,0,0:0:0:0:
180,56,123749,1,0,0:0:0:0:
180,56,123832,1,8,0:0:0:0:
300,52,123999,1,0,0:0:0:0:
300,52,124082,1,0,0:0:0:0:
300,52,124165,1,0,0:0:0:0:
300,52,124249,1,0,0:0:0:0:
300,52,124332,1,8,0:0:0:0:
388,132,124499,5,0,0:0:0:0:
392,252,124665,2,0,B|376:296|400:296|384:332,1,80,8|0,0:0|0:0,0:0:0:0:
292,252,124999,2,0,B|276:296|300:296|284:332,1,80,8|0,0:0|0:0,0:0:0:0:
192,252,125332,2,0,B|176:296|200:296|184:332,1,80,8|0,0:0|0:0,0:0:0:0:
92,252,125665,2,0,B|76:296|100:296|84:332,1,80,8|0,0:0|0:0,0:0:0:0:
256,192,125999,12,0,126999,0:0:0:0:
256,192,127332,6,0,L|256:232,7,40,0|0|0|0|0|0|0|0,0:0|0:0|0:0|0:0|0:0|0:0|0:0|0:0,0:0:0:0:
