osu file format v5

[General]
AudioFilename: Natasha Bedingfield - Unwritten.mp3
AudioLeadIn: 0
PreviewTime: -1
Countdown: 1
SampleSet: Normal
StackLeniency: 0.7
Mode: 0
LetterboxInBreaks: 1
EditorBookmarks: 11976,79470,157462

[Metadata]
Title:Unwritten
Artist:Natasha Bedingfield
Creator:Hitoshirenu Shourai
Version:Hard
Source:
Tags:

[Difficulty]
HPDrainRate:8
CircleSize:6
OverallDifficulty:6
SliderMultiplier:1.4
SliderTickRate:2

[Events]
//Background and Video events
0,0,"unwritten.jpg"
//Break Periods
2,70521,78870
//Storyboard Layer 0 (Background)
//Storyboard Layer 1 (Failing)
//Storyboard Layer 2 (Passing)
//Storyboard Layer 3 (Foreground)
//Storyboard Sound Samples
//Background Colour Transformations
3,100,163,162,255

[TimingPoints]
2675,599.998002939791,4,1,0,50,1

[HitObjects]
96,192,12874,1,0
96,264,13174,2,6,B|96:344|192:344,3,140
400,336,15874,5,0
432,272,16174,1,0
432,200,16474,1,0
416,128,16774,2,6,B|384:48|280:32|232:80,1,210
120,144,18274,5,0
176,184,18574,1,0
184,248,18874,1,0
128,288,19174,2,6,B|176:352|296:344|336:312,1,210
144,88,22474,5,0
200,56,22774,2,6,B|264:96|232:200,3,140
168,336,25324,5,0
200,336,25474,1,0
272,336,25774,1,0
344,336,26074,1,0
416,336,26374,2,6,B|488:296|400:224|496:144,1,210
400,48,27874,5,0
296,48,28324,1,0
256,104,28624,1,0
256,240,29224,2,6,B|256:168|256:168|328:168|336:272|336:272|240:312,1,315,6|14
244,310,30724,1,8
244,310,30874,1,8
244,310,31024,1,8
176,232,31474,5,0
152,208,31624,1,0
128,184,31774,1,0
120,152,31924,1,0
128,120,32074,1,0
184,72,32374,1,8
256,72,32674,5,0
288,72,32824,1,0
320,80,32974,1,0
344,96,33124,1,0
392,144,33424,1,8
408,176,33574,1,8
424,240,33874,5,0
424,272,34024,1,0
408,304,34174,1,0
384,328,34324,1,0
312,336,34624,5,8
280,336,34774,1,8
248,344,34924,1,0
216,360,35074,1,0
160,312,35374,1,0
128,288,35524,1,0
64,256,35824,5,8
48,224,35974,1,0
56,192,36124,1,0
64,160,36274,1,0
88,128,36424,1,0
152,96,36724,1,8
256,96,37174,5,0
256,96,37324,1,0
256,96,37474,1,0
192,128,37774,1,12
192,128,37924,1,12
256,168,38224,1,12
256,168,38374,1,0
232,232,38674,5,8
256,256,38824,1,0
280,232,38974,1,0
304,256,39124,1,8
304,328,39424,5,8
272,328,39574,1,8
200,328,39874,5,8
168,328,40024,1,0
184,296,40174,1,0
152,296,40324,1,8
80,296,40624,5,14
48,296,40774,1,14
64,224,41074,5,0
80,176,41224,1,0
112,136,41374,1,0
152,104,41524,1,8
224,104,41824,5,0
256,104,41974,1,0
288,104,42124,1,0
320,104,42274,1,8
320,176,42574,5,0
288,176,42724,1,8
288,248,43024,5,0
320,248,43174,1,8
288,312,43474,5,8
232,312,43624,1,0
176,296,43774,1,0
128,264,43924,1,8
104,200,44224,5,14
88,168,44374,1,14
72,96,44674,5,8
120,48,44974,1,0
144,72,45124,1,0
176,72,45274,1,0
208,64,45424,1,0
232,40,45574,1,14
280,104,45874,6,14,B|280:240,1,105
256,192,46624,12,14,48424
256,192,48874,5,4
248,232,49024,1,0
208,216,49174,1,4
208,176,49324,1,0
240,144,49474,1,4
280,152,49624,1,0
304,184,49774,1,4
296,224,49924,1,0
280,264,50074,1,4
240,280,50224,1,0
200,272,50374,1,0
168,248,50524,1,0
160,208,50674,1,14
256,192,50974,5,6
360,192,51274,5,0
360,224,51424,1,0
352,256,51574,1,0
328,288,51724,1,0
256,288,52024,1,12
184,288,52324,1,4
112,288,52624,1,4
40,272,52924,1,4
32,240,53074,1,0
32,208,53224,1,0
32,176,53374,1,4
48,104,53674,5,0
88,88,53824,1,0
120,88,53974,1,0
152,88,54124,1,14
224,88,54424,1,0
296,88,54724,1,14
296,160,55024,1,14
296,192,55174,1,0
296,224,55324,1,14
256,280,55624,5,12
256,280,55774,1,12
256,176,56074,5,0
200,176,56224,1,0
96,176,56524,1,0
96,72,56824,5,12
96,72,56974,1,12
200,72,57274,5,0
248,72,57424,1,0
352,72,57724,1,0
296,160,58174,5,14
256,216,58474,5,0
232,248,58624,1,4
200,224,58774,1,0
176,256,58924,1,4
144,232,59074,1,0
120,264,59224,1,4
88,240,59374,1,0
64,208,59524,1,4
64,168,59674,1,0
104,168,59824,1,4
144,168,59974,1,0
256,80,60274,1,0
256,152,60574,5,14
256,224,60874,5,0
256,256,61024,1,0
256,288,61174,1,0
256,320,61324,1,0
328,320,61624,1,0
384,280,61924,1,0
360,216,62224,1,0
328,216,62374,1,0
328,144,62674,1,0
360,144,62824,1,0
392,144,62974,1,14
392,72,63274,5,0
360,72,63424,1,0
320,72,63574,1,0
288,72,63724,1,14
216,72,64024,5,14
184,72,64174,1,14
112,72,64474,5,0
80,72,64624,1,0
48,88,64774,1,0
32,120,64924,1,0
32,192,65224,5,12
32,192,65374,1,12
96,272,65674,5,0
144,272,65824,1,0
248,272,66124,1,0
352,272,66424,5,12
352,272,66574,1,12
352,168,66874,5,0
352,112,67024,1,0
352,8,67324,1,0
248,8,67624,1,0
248,56,67774,2,14,B|248:264,1,175
248,231,68674,1,0
104,304,69124,5,4
200,336,69424,1,4
304,336,69724,1,4
400,304,70024,1,4
448,208,70324,1,12
352,88,80074,5,0
400,136,80374,1,0
480,248,80974,2,6,B|424:192|328:232,2,140
288,328,83074,5,0
224,296,83374,1,0
160,272,83674,1,0
88,264,83974,2,6,B|96:192|216:224|216:224|192:160,1,210
104,120,85324,5,0
80,96,85474,1,0
80,24,85774,1,0
152,32,86074,1,0
216,48,86374,2,6,B|296:128|296:128|272:72|361:86|410:152|410:152|272:208,1,420,6|14
275,206,88324,1,8
275,206,88474,1,8
275,206,88624,1,8
275,206,88774,1,8
275,206,88924,1,8
120,296,89674,5,0
192,296,89974,2,6,B|256:232,1,70
168,248,90574,2,6,B|224:192,1,70
144,200,91174,2,6,B|200:144,1,70
264,152,91774,1,6
440,152,92524,5,0
408,152,92674,1,0
336,152,92974,1,0
336,224,93274,1,0
264,224,93574,2,6,B|192:160|200:240|112:200,1,140
104,104,94624,5,0
104,104,94774,1,0
160,64,95074,1,0
232,56,95374,1,0
304,56,95674,1,0
368,88,95974,1,14
256,192,96724,12,14,97474
256,192,97774,5,0
256,192,97924,1,14
256,192,98074,1,14
256,192,98224,1,14
256,296,98674,6,0,B|184:296|184:296,1,70
152,296,99124,1,0
80,296,99424,1,0
40,296,99574,1,0
40,224,99874,2,14,B|112:224,1,70
144,224,100324,1,0
216,224,100624,1,0
248,224,100774,1,0
248,152,101074,6,14,B|168:152,1,70
144,152,101524,1,0
72,152,101824,1,0
40,152,101974,1,0
40,80,102274,2,14,B|128:80,1,70
144,80,102724,1,0
216,80,103024,1,0
248,80,103174,1,0
320,80,103474,6,14,B|424:80,1,70
424,80,103924,1,0
496,80,104224,1,0
496,80,104374,1,0
496,152,104674,2,14,B|416:152,1,70
392,152,105124,1,0
320,152,105424,1,0
320,152,105574,1,0
320,224,105874,6,14,B|216:224,1,70
248,256,106324,2,14,B|176:256,1,70
248,176,107074,6,14,B|328:176,1,70
320,136,107524,2,14,B|390:136,1,70
344,288,108274,5,14
288,280,108424,1,14
240,248,108574,1,14
200,208,108724,1,14
128,208,109024,5,4
128,208,109174,1,4
56,208,109474,5,14
48,176,109624,1,14
40,144,109774,1,14
32,112,109924,1,14
72,56,110224,5,4
72,56,110374,1,4
136,88,110674,5,14
168,88,110824,1,14
200,88,110974,1,14
232,88,111124,1,14
296,64,111424,5,4
296,64,111574,1,4
336,120,111874,5,14
368,128,112024,1,14
392,152,112174,1,14
408,184,112324,1,14
416,216,112474,1,0
416,248,112624,1,0
408,280,112774,1,0
392,312,112924,1,0
360,328,113074,1,14
328,336,113224,1,14
296,336,113374,1,14
264,328,113524,1,14
256,192,113824,12,14,115624
256,192,116074,5,0
256,136,116224,5,4
312,136,116374,1,0
312,192,116524,1,4
312,248,116674,1,0
256,248,116824,1,4
200,248,116974,1,0
200,192,117124,1,4
200,136,117274,1,0
256,192,117424,5,14
256,192,117574,1,14
256,192,117724,1,14
256,192,117874,1,14
256,192,118174,1,14
256,296,118474,6,0,B|192:296,1,35
256,296,118774,2,0,B|296:296,1,35
376,296,119224,1,14
448,296,119524,1,14
448,224,119824,1,14
448,152,120124,1,14
448,120,120274,1,0
440,88,120424,1,4
416,56,120574,1,8
344,56,120874,5,0
344,56,121024,1,0
272,56,121324,2,14,B|272:128,1,70
224,72,121924,2,14,B|224:168,1,70
224,208,122524,1,12
152,208,122824,5,10
152,208,122974,1,10
80,208,123274,6,0,B|48:152,1,35
32,112,123724,1,0
120,56,124024,5,14
120,56,124174,1,14
208,104,124474,6,0,B|256:104,1,35
344,104,124924,1,0
344,264,125374,1,0
256,320,125674,6,14,B|216:320,1,35
256,280,125974,2,0,B|216:280,1,35
256,240,126274,2,14,B|216:240,1,35
256,200,126574,2,14,B|216:200,1,35
256,160,126874,2,14,B|216:160,1,35
256,120,127174,2,14,B|216:120,1,35
256,80,127474,1,2
80,192,128074,5,0
64,224,128224,1,0
48,288,128524,1,0
88,344,128824,1,0
152,368,129124,1,0
216,336,129424,1,14
256,280,129724,1,14
288,280,129874,1,0
320,296,130024,1,14
336,328,130174,1,0
392,288,130474,5,0
424,272,130624,1,0
456,208,130924,1,0
440,136,131224,1,0
376,96,131524,1,14
304,80,131824,1,14
232,72,132124,1,14
232,104,132274,1,0
208,128,132424,1,0
176,128,132574,1,14
256,192,132724,12,0,133324
256,192,133624,5,12
256,192,133774,1,12
256,192,133924,12,0,134974
256,296,135274,5,14
256,240,135424,1,0
312,240,135574,1,14
312,184,135724,1,0
312,128,135874,1,14
256,128,136024,1,0
200,128,136174,1,14
200,184,136324,1,0
200,240,136474,1,14
256,192,136624,5,14
256,192,136774,5,14
256,192,136924,5,14
256,192,137074,5,14
256,88,137374,5,12
352,120,137674,2,0,B|400:160,1,35
432,184,138124,2,14,B|384:248,1,70
456,240,138724,2,0,B|400:312,1,70
400,224,139324,2,14,B|352:288,1,70
358,280,139774,1,12
358,280,139924,1,12
320,280,140074,6,0,B|256:280,1,35
216,280,140524,2,14,B|120:280,1,70
120,216,141124,2,14,B|128:168|200:168,2,70
48,136,142024,5,12
48,136,142174,1,12
128,64,142474,6,0,B|184:64,1,35
216,64,142774,2,0,B|176:64,1,35
176,168,143224,6,12,B|176:112,1,35
176,240,143674,6,0,B|176:280,1,35
176,328,143974,2,0,B|176:288,1,35
272,328,144424,6,0,B|320:328,1,35
272,280,144724,2,0,B|232:280,1,35
272,232,145024,2,0,B|312:232,1,35
272,184,145324,2,0,B|224:184,1,35
272,136,145624,5,0
224,112,145774,1,0
272,88,145924,1,0
320,112,146074,1,12
320,160,146224,1,12
272,184,146374,1,12
224,160,146524,1,12
272,136,146674,5,12
256,192,147124,12,8,148474
256,192,148924,5,8
256,192,149074,5,14
256,192,149374,5,14
256,192,149524,12,8,151024
256,192,151324,5,8
256,192,151624,1,0
256,192,151774,1,0
256,328,152074,5,0
328,328,152224,1,0
464,328,152524,1,0
256,192,152824,5,12
256,192,152974,1,12
256,64,153274,5,0
184,64,153424,1,0
40,64,153724,1,0
256,192,154024,5,12
256,192,154174,1,12
256,192,154324,12,4,156274
