osu file format v12

[General]
AudioFilename: 40 - The Stone Unsealed.mp3
AudioLeadIn: 0
PreviewTime: 10950
Countdown: 0
SampleSet: Soft
StackLeniency: 0.9
Mode: 0
LetterboxInBreaks: 0

[Editor]
Bookmarks: 112597,159891
DistanceSpacing: 1
BeatDivisor: 4
GridSize: 4

[Metadata]
Title:The Stone Unsealed
TitleUnicode:The Stone Unsealed
Artist:Nash Studio Inc.
ArtistUnicode:Nash Studio Inc.
Creator:Static Noise Bird
Version:Stella
Source:Fortune Summoners: Secret of the Elemental Stone
Tags:sound juke bgm online soundtrack vgm yasora darknessangel collab
BeatmapID:217848
BeatmapSetID:77681

[Difficulty]
HPDrainRate:2
CircleSize:2
OverallDifficulty:2
ApproachRate:3
SliderMultiplier:1.2
SliderTickRate:2

[Events]
//Background and Video events
0,0,"BG-Easy.jpg",0,0
//Break Periods
2,102208,111157
//Storyboard Layer 0 (Background)
//Storyboard Layer 1 (Fail)
//Storyboard Layer 2 (Pass)
//Storyboard Layer 3 (Foreground)
//Storyboard Sound Samples
//Background Colour Transformations
3,100,193,159,255

[TimingPoints]
362,705.882352941176,4,2,1,26,1,0
90714,-100,4,2,1,26,0,1
91067,-100,4,2,1,38,0,1
102009,-100,4,2,1,38,0,0
102361,-100,4,2,1,26,0,0
176126,750,4,2,1,26,1,0
176501,779.220779220779,4,2,1,26,1,0
177280,800,4,2,1,26,1,0
177680,857.142857142857,4,2,1,26,1,0
178108,967.741935483871,4,2,1,26,1,0
178591,909.090909090909,4,2,1,26,1,0
178591,-100,4,2,1,5,0,0

[Colours]
Combo1 : 172,128,255
Combo2 : 128,64,0
Combo3 : 255,204,128
Combo4 : 255,94,94

[HitObjects]
376,232,10950,2,0,P|404:228|436:232,2,60
256,240,12361,2,0,P|192:236|136:200,1,120,0|2,0:0|0:0,0:0:0:0:
140,88,13773,6,0,L|200:76,1,60
260,72,14479,2,0,B|320:80|320:80|320:112|332:140|356:160|388:168|388:168|396:228,1,240,0|2,0:0|0:0,0:0:0:0:
348,336,16597,5,0,0:0:0:0:
240,284,17303,2,0,P|184:300|120:276,1,120
188,180,18714,1,2,0:0:0:0:
296,124,19420,5,0,0:0:0:0:
416,132,20126,2,0,P|444:144|448:272,1,180
408,316,21538,1,2,0:0:0:0:
288,316,22244,6,0,P|256:312|228:316,2,60
408,316,23656,2,0,P|456:292|464:216,1,120,0|2,0:0|0:0,0:0:0:0:
412,128,25067,6,0,B|391:114|369:120|354:128|354:128|346:113|330:96|308:98,1,120,0|0,0:0|0:0,0:0:0:0:
196,140,26479,2,0,B|174:142|158:125|150:110|150:110|135:118|113:124|92:110,1,120,0|2,0:0|0:0,0:0:0:0:
112,228,27891,6,0,L|92:292,2,60
228,260,29303,1,0,0:0:0:0:
348,288,30009,6,0,B|388:248|388:248|368:188|368:188|408:148|408:148|384:88,1,240,2|0,0:0|0:0,0:0:0:0:
268,64,32126,2,0,B|244:68|224:68|208:64|208:64|196:76|180:88|156:92,1,120,0|2,0:0|0:0,0:0:0:0:
140,212,33538,6,0,L|68:204,2,60
244,276,34950,1,0,0:0:0:0:
360,240,35656,1,2,0:0:0:0:
368,116,36361,6,0,B|343:95|312:98|312:98|303:69|274:55,1,120
216,48,37420,2,0,B|183:46|157:57|139:84|135:119|135:119|107:120|74:104,1,180,0|2,0:0|0:0,0:0:0:0:
44,220,39185,5,0,0:0:0:0:
132,300,39891,2,0,B|176:312|208:276|252:288,2,120,0|0|2,0:0|0:0|0:0,0:0:0:0:
152,180,42009,5,0,0:0:0:0:
252,112,42714,2,0,B|276:96|300:88|328:92|352:104|368:128|376:156|368:184|368:184|396:200|428:200,1,240,0|2,0:0|0:0,0:0:0:0:
384,312,44832,6,0,L|432:356,2,60
296,228,46244,2,0,P|244:200|176:188,1,120,0|2,0:0|0:0,0:0:0:0:
100,104,47656,6,0,B|115:83|153:82|153:82|168:49|197:39,1,120
316,40,49067,2,0,B|341:48|357:81|357:81|395:82|410:103,1,120,0|2,0:0|0:0,0:0:0:0:
412,224,50479,6,0,B|400:246|363:255|363:255|355:291|329:306,1,120
212,308,51891,1,0,0:0:0:0:
108,248,52597,6,0,B|53:222|53:222|79:168|79:168|24:142|24:142|50:88,1,240,2|0,0:0|0:0,0:0:0:0:
160,40,54714,2,0,B|196:20|248:32|264:68,1,120,0|2,0:0|0:0,0:0:0:0:
424,280,56832,6,0,P|456:292|484:308,2,60,0|0|2,0:0|0:0|0:0,0:0:0:0:
256,220,58597,2,0,P|224:224|196:232,1,60,0|2,0:0|0:0,0:0:0:0:
88,280,59656,6,0,P|56:292|28:308,2,60,0|0|2,0:0|0:0|0:0,0:0:0:0:
256,220,61420,2,0,P|288:224|316:232,2,60,0|2|0,0:0|0:0|0:0,0:0:0:0:
196,208,62479,6,0,P|164:204|136:196,2,60,0|0|2,0:0|0:0|0:0,0:0:0:0:
376,208,64244,2,0,P|408:204|436:196,2,60,0|2|0,0:0|0:0|0:0,0:0:0:0:
340,160,65303,6,0,B|320:136|288:120,1,60,0|2,0:0|0:0,0:0:0:0:
176,116,66361,2,0,P|144:120|116:128,1,60,0|2,0:0|0:0,0:0:0:0:
108,188,67067,2,0,P|83:208|64:230,1,60,0|2,0:0|0:0,0:0:0:0:
172,280,68126,6,0,L|232:292,2,60,0|0|2,0:0|0:0|0:0,0:0:0:0:
220,108,69891,2,0,L|160:96,2,60,0|2|0,0:0|0:0|0:0,0:0:0:0:
280,120,70950,5,0,0:0:0:0:
396,152,71656,2,0,P|452:192|432:352,1,240,2|2,0:0|0:0,0:0:0:0:
352,264,73773,6,0,P|324:256|292:256,1,60
232,260,74479,1,2,0:0:0:0:
332,112,75538,6,0,L|396:124,1,60,0|2,0:0|0:0,0:0:0:0:
376,180,76244,2,0,L|428:212,1,60,0|2,0:0|0:0,0:0:0:0:
404,268,76950,1,0,0:0:0:0:
284,252,77656,6,0,L|216:244,1,60,0|2,0:0|0:0,0:0:0:0:
164,236,78361,1,0,0:0:0:0:
312,136,79420,6,0,P|340:116|372:104,2,60,0|0|2,0:0|0:0|0:0,0:0:0:0:
84,196,81185,1,0,0:0:0:0:
128,236,81538,2,0,B|156:256|180:264|180:264|184:296|196:324,1,120,2|0,0:0|0:0,0:0:0:0:
308,360,82950,1,2,0:0:0:0:
448,168,84361,5,2,0:0:0:0:
352,96,85067,2,0,P|360:64|384:36,2,60,0|0|2,0:0|0:0|0:0,0:0:0:0:
336,276,86832,2,0,P|328:308|304:336,1,60,0|2,0:0|0:0,0:0:0:0:
216,260,87891,5,0,0:0:0:0:
108,208,88597,1,2,0:0:0:0:
160,100,89303,1,0,0:0:0:0:
268,152,90009,1,2,0:0:0:0:
388,152,90714,6,0,P|416:160|444:176,2,60,0|0|10,0:0|0:0|0:0,0:0:0:0:
352,200,91773,2,0,P|371:221|385:250,2,60
296,224,92832,2,0,P|300:256|296:284,1,60,10|0,0:0|0:0,0:0:0:0:
256,328,93538,6,0,B|232:332|212:332|196:324|196:324|180:332|160:332|136:328,1,120,0|10,0:0|0:0,0:0:0:0:
80,312,94597,2,0,P|16:260|16:164,1,180,0|10,0:0|0:0,0:0:0:0:
128,204,96361,5,0,0:0:0:0:
188,212,96714,2,0,P|220:216|248:212,1,60,0|10,0:0|0:0,0:0:0:0:
368,196,97773,2,0,P|420:172|440:96,2,120,0|10|0,0:0|0:0|0:0,0:0:0:0:
248,192,99891,6,0,P|244:164|224:132,2,60,10|0|0,0:0|0:0|0:0,0:0:0:0:
236,252,100950,2,0,P|190:300|82:313,1,180
60,184,112597,6,0,L|120:176,1,60
180,168,113303,2,0,P|252:176|300:224,2,120,0|0|2,0:0|0:0|0:0,0:0:0:0:
196,288,115420,2,0,P|231:316|303:324,1,120
364,324,116479,2,0,B|396:320|424:308|440:280|440:248|440:248|500:236,1,180,0|2,0:0|0:0,0:0:0:0:
436,136,118244,6,0,B|412:136|392:120|384:108|384:108|364:104|340:112|324:132,1,120
220,168,119656,2,0,P|148:188|80:180,1,120,0|2,0:0|0:0,0:0:0:0:
152,296,121067,6,0,P|184:316|224:324,1,60
264,328,121773,2,0,P|352:312|440:260,1,180
468,220,123185,1,2,0:0:0:0:
404,120,123891,6,0,L|364:68,2,60
312,196,125303,2,0,P|256:220|204:196,1,120,0|2,0:0|0:0,0:0:0:0:
108,120,126714,6,0,L|148:68,2,60
108,240,128126,2,0,L|148:292,2,60,0|0|2,0:0|0:0|0:0,0:0:0:0:
204,168,129538,6,0,B|224:168|244:160|256:143|256:143|268:160|288:168|308:168,1,120
424,192,130950,1,0,0:0:0:0:
336,272,131656,6,0,B|317:279|301:294|297:314|297:314|279:303|258:303|239:310,2,120,2|0|0,0:0|0:0|0:0,0:0:0:0:
424,192,133773,2,0,P|444:152|404:72,1,120,0|2,0:0|0:0,0:0:0:0:
312,144,135185,6,0,L|252:164,2,60
436,132,136597,2,0,P|432:192|368:240,1,120,0|2,0:0|0:0,0:0:0:0:
312,144,138009,6,0,B|288:144|268:136|256:124|256:124|244:136|224:144|200:144,1,120
140,144,139067,2,0,B|96:148|63:178|63:220|63:220|98:227|118:254,1,180,0|2,0:0|0:0,0:0:0:0:
204,336,140832,6,0,B|224:336|244:328|256:311|256:311|268:328|288:336|308:336,1,120
336,220,142244,2,0,P|368:164|428:140,1,120,0|2,0:0|0:0,0:0:0:0:
444,256,143656,6,0,L|460:332,1,60
412,356,144361,2,0,P|336:320|236:360,1,180
192,332,145773,1,2,0:0:0:0:
100,256,146479,6,0,L|44:216,2,60
212,208,147891,2,0,P|256:174|300:208,1,120,0|2,0:0|0:0,0:0:0:0:
416,240,149303,6,0,L|472:280,2,60
416,120,150714,2,0,L|472:80,2,60,0|0|2,0:0|0:0|0:0,0:0:0:0:
296,120,152126,6,0,L|240:80,2,60
296,240,153538,1,0,0:0:0:0:
188,288,154244,2,0,B|167:299|145:297|130:290|130:290|123:305|106:318|82:322,2,120,2|0|0,0:0|0:0|0:0,0:0:0:0:
256,192,156361,12,0,158479,0:0:0:0:
56,272,159891,6,0,P|124:272|168:248,1,120,2|0,0:0|0:0,0:0:0:0:
268,176,161303,5,0,0:0:0:0:
312,132,161656,2,0,L|360:84,2,60
312,252,163067,2,0,L|360:300,2,60
252,252,164126,5,0,0:0:0:0:
140,208,164832,1,0,0:0:0:0:
120,88,165538,2,0,P|40:136|24:184,1,120,2|0,0:0|0:0,0:0:0:0:
72,272,166950,5,0,0:0:0:0:
120,308,167303,2,0,L|184:344,2,60
192,212,168714,2,0,L|128:176,2,60
248,232,169773,6,0,P|324:240|376:208,1,120
292,124,171185,2,0,L|184:52,1,120,2|0,0:0|0:0,0:0:0:0:
104,140,172597,5,0,0:0:0:0:
64,184,172950,2,0,L|24:236,2,60
184,184,174361,2,0,L|224:236,2,60
220,136,175420,5,0,0:0:0:0:
300,48,176126,1,0,0:0:0:0:
400,116,176890,2,0,L|452:148,1,60
424,200,177680,2,0,L|468:264,1,60
256,192,178591,12,0,182227,0:0:0:0:
