osu file format v12

[General]
AudioFilename: 40 - The Stone Unsealed.mp3
AudioLeadIn: 0
PreviewTime: 10950
Countdown: 0
SampleSet: Soft
StackLeniency: 0.9
Mode: 0
LetterboxInBreaks: 0

[Editor]
Bookmarks: 10950
DistanceSpacing: 1
BeatDivisor: 4
GridSize: 4

[Metadata]
Title:The Stone Unsealed
TitleUnicode:The Stone Unsealed
Artist:Nash Studio Inc.
ArtistUnicode:Nash Studio Inc.
Creator:Static Noise Bird
Version:Sana
Source:Fortune Summoners: Secret of the Elemental Stone
Tags:sound juke bgm online soundtrack vgm yasora darknessangel collab
BeatmapID:217847
BeatmapSetID:77681

[Difficulty]
HPDrainRate:4
CircleSize:4
OverallDifficulty:4
ApproachRate:5
SliderMultiplier:1.4
SliderTickRate:2

[Events]
//Background and Video events
0,0,"BG-Normal.jpg",0,0
//Break Periods
2,102208,111397
//Storyboard Layer 0 (Background)
//Storyboard Layer 1 (Fail)
//Storyboard Layer 2 (Pass)
//Storyboard Layer 3 (Foreground)
//Storyboard Sound Samples
//Background Colour Transformations
3,100,193,159,255

[TimingPoints]
362,705.882352941176,4,2,1,26,1,0
90714,-100,4,2,1,26,0,1
91067,-100,4,2,1,38,0,1
102009,-100,4,2,1,38,0,0
102361,-100,4,2,1,26,0,0
176126,750,4,2,1,26,1,0
176501,779.220779220779,4,2,1,26,1,0
177280,800,4,2,1,26,1,0
177680,857.142857142857,4,2,1,26,1,0
178108,967.741935483871,4,2,1,26,1,0
178591,909.090909090909,4,2,1,26,1,0
178591,-100,4,2,1,5,0,0

[Colours]
Combo1 : 172,128,255
Combo2 : 128,64,0
Combo3 : 255,204,128
Combo4 : 255,94,94

[HitObjects]
136,248,10950,2,0,L|64:256,2,70,0|0|2,0:0|0:0|0:0,0:0:0:0:
276,236,12361,1,0,0:0:0:0:
416,224,13067,2,0,B|448:208|468:184|476:144|468:104|468:104|436:96|404:72,1,210,2|0,0:0|0:0,0:0:0:0:
336,68,14479,1,2,0:0:0:0:
268,88,14832,2,0,B|236:104|200:112|164:104|132:88|132:88|100:104|80:140,1,210,0|2,0:0|0:0,0:0:0:0:
124,280,16597,6,0,B|120:300|136:332|152:340,2,70,0|0|2,0:0|0:0|0:0,0:0:0:0:
260,252,18009,1,0,0:0:0:0:
400,244,18714,1,2,0:0:0:0:
508,152,19420,2,0,B|491:135|466:121|440:116,1,70
380,128,20126,2,0,B|344:128|308:124|276:116|244:100|244:100|224:128|188:140,1,210,2|0,0:0|0:0,0:0:0:0:
124,168,21538,1,2,0:0:0:0:
48,288,22244,6,0,L|120:300,1,70
188,296,22950,2,0,B|260:280|277:245|303:221|303:221|339:227|376:244|441:223,1,280,2|2,0:0|0:0,0:0:0:0:
504,100,25067,2,0,B|484:84|460:80|436:88,1,70
460,156,25773,2,0,B|420:160|384:156|356:136|332:112|332:112|296:124|256:120,1,210,2|0,0:0|0:0,0:0:0:0:
192,120,27185,1,2,0:0:0:0:
52,92,27891,6,0,P|44:128|60:172,2,70,0|0|2,0:0|0:0|0:0,0:0:0:0:
192,120,29303,1,0,0:0:0:0:
328,148,30009,2,0,B|348:132|372:132|396:136,1,70,2|0,0:0|0:0,0:0:0:0:
372,204,30714,2,0,B|396:204|416:212|432:236,1,70,0|0,0:0|0:0,0:0:0:0:
373,275,31420,1,2,0:0:0:0:
252,344,32126,2,0,B|220:324|184:320|148:324|120:344,1,140,0|2,0:0|0:0,0:0:0:0:
128,204,33538,6,0,L|180:152,1,70
228,104,34244,1,2,0:0:0:0:
364,64,34950,1,0,0:0:0:0:
468,160,35656,1,2,0:0:0:0:
416,292,36361,2,0,B|404:312|396:336|392:372,2,70,0|0|2,0:0|0:0|0:0,0:0:0:0:
440,224,37420,2,0,B|448:188|444:156|424:124|384:108,1,140
316,92,38479,1,2,0:0:0:0:
184,52,39185,6,0,B|160:67|145:83|136:100|136:100|116:96|95:97|64:107,1,140,0|2,0:0|0:0,0:0:0:0:
108,240,40597,1,0,0:0:0:0:
220,324,41303,1,2,0:0:0:0:
360,324,42009,2,0,B|388:332|412:324|431:298,1,70
376,256,42714,2,0,B|356:228|348:196|356:156|384:128|384:128|364:100|328:88,1,210,2|0,0:0|0:0,0:0:0:0:
260,68,44126,1,2,0:0:0:0:
120,88,44832,6,0,P|100:116|72:136,1,70
16,180,45538,1,2,0:0:0:0:
80,304,46244,1,0,0:0:0:0:
204,368,46950,1,2,0:0:0:0:
344,356,47656,2,0,P|380:352|408:332,1,70
352,284,48361,2,0,B|321:289|304:262|321:237|341:209|324:182|291:190,1,140,2|0,0:0|0:0,0:0:0:0:
220,192,49420,2,0,P|184:204|160:228,1,70,0|2,0:0|0:0,0:0:0:0:
240,108,50479,6,0,P|276:108|308:92,1,70,0|0,0:0|0:0,0:0:0:0:
364,56,51185,2,0,B|392:44|420:48|448:76|452:104|440:132,1,140,2|0,0:0|0:0,0:0:0:0:
356,248,52597,2,0,P|324:264|288:268,1,70,2|0,0:0|0:0,0:0:0:0:
221,268,53303,2,0,P|188:264|156:248,1,70
116,188,54009,2,0,B|100:156|96:120|108:88|136:60|136:60|172:84|204:80,1,210,2|0,0:0|0:0,0:0:0:0:
268,56,55420,1,2,0:0:0:0:
444,180,56832,5,0,0:0:0:0:
408,240,57185,1,0,0:0:0:0:
356,288,57538,2,0,B|328:308|296:324|260:328|224:324,1,140,2|0,0:0|0:0,0:0:0:0:
156,312,58597,2,0,P|120:304|92:288,1,70,0|2,0:0|0:0,0:0:0:0:
20,168,59656,6,0,P|52:152|88:148,1,70
156,140,60361,2,0,B|180:132|212:136|240:160|272:164|292:156,1,140,2|0,0:0|0:0,0:0:0:0:
356,127,61420,1,0,0:0:0:0:
388,64,61773,2,0,P|416:44|452:40,1,70,2|0,0:0|0:0,0:0:0:0:
444,116,62479,6,0,P|478:114|510:130,1,70
464,188,63185,2,0,B|476:220|476:256|464:292|432:316,1,140,2|0,0:0|0:0,0:0:0:0:
368,344,64244,1,0,0:0:0:0:
298,338,64597,1,2,0:0:0:0:
237,302,64950,1,0,0:0:0:0:
201,241,65303,5,2,0:0:0:0:
212,172,65656,2,0,B|212:124|176:80|125:75,1,140
56,76,66714,2,0,P|28:88|0:116,2,70,2|0|2,0:0|0:0|0:0,0:0:0:0:
72,216,68126,6,0,P|84:248|108:276,1,70
168,312,68832,2,0,B|200:328|236:336|272:336|304:328,1,140,2|0,0:0|0:0,0:0:0:0:
372,312,69891,1,0,0:0:0:0:
428,272,70244,1,2,0:0:0:0:
456,208,70597,1,0,0:0:0:0:
452,140,70950,1,0,0:0:0:0:
344,48,71656,6,0,B|308:41|272:43|239:61|226:102|210:132|188:159|151:174|106:161,1,280,2|2,0:0|0:0,0:0:0:0:
36,284,73773,5,0,0:0:0:0:
99,313,74126,1,0,0:0:0:0:
168,324,74479,2,0,B|208:328|240:320|272:308|300:288,1,140,2|0,0:0|0:0,0:0:0:0:
364,256,75538,1,0,0:0:0:0:
421,215,75891,2,0,P|393:191|350:188,1,70,2|0,0:0|0:0,0:0:0:0:
292,168,76597,5,2,0:0:0:0:
224,144,76950,2,0,B|188:136|156:116|136:88|124:52,1,140
56,48,78009,1,2,0:0:0:0:
16,104,78361,2,0,B|40:128|60:160|68:196|72:232|68:268|56:300,1,210
112,340,79773,5,0,0:0:0:0:
168,300,80126,2,0,B|216:260|256:316|300:280,1,140,2|0,0:0|0:0,0:0:0:0:
360,244,81185,1,0,0:0:0:0:
372,176,81538,2,0,P|336:172|308:144,1,70,2|0,0:0|0:0,0:0:0:0:
366,106,82244,5,0,0:0:0:0:
240,48,82950,2,0,B|204:56|172:72|152:100|140:136,1,140,2|0,0:0|0:0,0:0:0:0:
108,272,84361,1,2,0:0:0:0:
112,132,85067,5,0,0:0:0:0:
179,111,85420,1,0,0:0:0:0:
224,164,85773,2,0,B|240:196|264:220|300:232|340:232,1,140,2|0,0:0|0:0,0:0:0:0:
408,228,86832,1,0,0:0:0:0:
476,212,87185,2,0,B|492:180|496:144|492:108|476:76,1,140,2|0,0:0|0:0,0:0:0:0:
360,156,88597,6,0,B|344:188|340:224|344:260|360:292,1,140,2|0,0:0|0:0,0:0:0:0:
232,352,90009,2,0,B|248:320|252:284|248:248|232:216,1,140,2|0,0:0|0:0,0:0:0:0:
164,200,91067,6,0,B|172:172|192:152|224:148,2,70,0|8|0,0:0|0:0|0:0,0:0:0:0:
128,260,92126,2,0,P|116:292|128:324,1,70,2|0,0:0|0:0,0:0:0:0:
200,324,92832,2,0,P|212:292|200:260,1,70,8|0,0:0|0:0,0:0:0:0:
164,200,93538,2,0,L|112:148,2,70,0|0|8,0:0|0:0|0:0,0:0:0:0:
236,200,94597,2,0,B|272:196|304:176|320:144|296:100|320:52|376:40,1,210,0|8,0:0|0:0,0:0:0:0:
432,172,96361,5,0,0:0:0:0:
424,240,96714,2,0,P|456:256|492:264,2,70,0|8|0,0:0|0:0|0:0,0:0:0:0:
376,292,97773,2,0,P|344:308|308:316,1,70,2|0,0:0|0:0,0:0:0:0:
276,252,98479,2,0,P|308:236|344:228,1,70,8|0,0:0|0:0,0:0:0:0:
397,186,99185,5,0,0:0:0:0:
292,92,99891,1,8,0:0:0:0:
224,100,100244,1,0,0:0:0:0:
164,132,100597,1,2,0:0:0:0:
128,192,100950,2,0,B|116:228|116:260|128:296|148:324|176:348|220:356,1,210
64,256,112597,6,0,P|92:232|124:216,1,70
188,196,113303,2,0,P|244:176|304:92,1,140,2|0,0:0|0:0,0:0:0:0:
348,68,114361,1,0,0:0:0:0:
416,84,114714,2,0,B|428:116|428:152|416:188|388:212|388:212|404:252|380:288,1,210,2|0,0:0|0:0,0:0:0:0:
320,244,116126,1,2,0:0:0:0:
252,220,116479,2,0,B|216:212|184:216|152:240|140:284,1,140
124,348,117538,1,2,0:0:0:0:
64,220,118244,6,0,P|56:184|72:144,1,70
128,188,118950,2,0,B|160:176|196:176|228:188|256:220|256:220|284:188|316:176|352:176|384:188,1,280,2|2,0:0|0:0,0:0:0:0:
480,288,121067,1,0,0:0:0:0:
413,308,121420,1,0,0:0:0:0:
344,300,121773,2,0,B|304:292|276:272|260:232|276:196,1,140,2|0,0:0|0:0,0:0:0:0:
328,156,122832,1,0,0:0:0:0:
344,224,123185,2,0,L|220:316,1,140,2|0,0:0|0:0,0:0:0:0:
164,284,124244,1,0,0:0:0:0:
120,228,124597,6,0,B|96:200|80:172|72:136|72:100,2,140,2|0|2,0:0|0:0|0:0,0:0:0:0:
240,124,126714,2,0,P|276:120|312:124,1,70
380,136,127420,1,2,0:0:0:0:
284,240,128126,2,0,P|248:244|212:240,1,70
144,228,128832,1,2,0:0:0:0:
228,340,129538,5,0,0:0:0:0:
297,348,129891,1,0,0:0:0:0:
364,328,130244,2,0,B|400:320|428:300|448:268|452:220,1,140,2|0,0:0|0:0,0:0:0:0:
440,92,131656,2,0,P|420:60|392:44,1,70,2|0,0:0|0:0,0:0:0:0:
368,112,132361,2,0,P|331:103|300:112,2,70,0|0|2,0:0|0:0|0:0,0:0:0:0:
228,128,133773,2,0,B|194:112|171:86|136:98|95:97,1,140,0|2,0:0|0:0,0:0:0:0:
0,200,135185,6,0,P|36:196|72:200,1,70
136,216,135891,2,0,B|172:224|200:240|224:268|236:308,2,140,2|0|2,0:0|0:0|0:0,0:0:0:0:
244,128,138009,1,0,0:0:0:0:
308,104,138361,1,0,0:0:0:0:
376,116,138714,1,2,0:0:0:0:
428,164,139067,2,0,B|452:192|456:224|440:260|416:280|392:280,1,140
332,300,140126,1,2,0:0:0:0:
196,268,140832,6,0,L|124:268,1,70
60,244,141538,1,2,0:0:0:0:
184,180,142244,1,0,0:0:0:0:
60,116,142950,1,2,0:0:0:0:
184,52,143656,2,0,L|256:52,1,70
324,56,144361,2,0,B|356:68|384:92|396:128|392:168|392:168|348:164|320:196,1,210,2|0,0:0|0:0,0:0:0:0:
380,240,145773,1,2,0:0:0:0:
244,276,146479,6,0,P|208:272|172:276,1,70
104,276,147185,1,2,0:0:0:0:
156,148,147891,1,0,0:0:0:0:
280,84,148597,1,2,0:0:0:0:
420,80,149303,2,0,P|424:116|420:152,2,70,0|0|2,0:0|0:0|0:0,0:0:0:0:
316,172,150714,2,0,P|312:136|316:100,2,70,0|0|2,0:0|0:0|0:0,0:0:0:0:
196,100,152126,6,0,P|200:136|196:172,1,70
196,240,152832,2,0,B|200:276|216:304|252:324|296:316,1,140,2|0,0:0|0:0,0:0:0:0:
408,232,154244,2,0,L|456:180,1,70,2|0,0:0|0:0,0:0:0:0:
392,148,154950,2,0,L|420:84,1,70
348,80,155656,1,2,0:0:0:0:
204,88,156361,2,0,B|169:98|141:120|118:148|114:185|114:185|77:187|49:209|25:237|14:271,1,280
148,312,158479,5,2,0:0:0:0:
218,318,158832,2,0,B|239:337|228:360|252:380,2,70,0|0|2,0:0|0:0|0:0,0:0:0:0:
241,251,159891,1,0,0:0:0:0:
264,183,160244,2,0,B|242:163|254:146|230:123,2,70,0|2|0,0:0|0:0|0:0,0:0:0:0:
332,168,161303,6,0,B|360:168|388:160|412:144,1,70,0|2,0:0|0:0,0:0:0:0:
408,80,162009,2,0,B|380:80|352:88|328:104,1,70,0|0,0:0|0:0,0:0:0:0:
272,116,162714,1,2,0:0:0:0:
208,148,163067,2,0,B|196:156|168:164|140:164,2,70,0|2|0,0:0|0:0|0:0,0:0:0:0:
272,116,164126,6,0,B|280:92|300:72|324:68,1,70,2|0,0:0|0:0,0:0:0:0:
360,128,164832,2,0,B|379:112|407:106|429:116,1,70,0|2,0:0|0:0,0:0:0:0:
408,184,165538,2,0,L|380:248,1,70
324,292,166244,2,0,L|296:228,2,70,2|0|0,0:0|0:0|0:0,0:0:0:0:
260,320,167303,6,0,B|232:316|208:320|188:336,1,70,2|0,0:0|0:0,0:0:0:0:
148,276,168009,1,0,0:0:0:0:
128,208,168361,2,0,B|128:180|112:160|92:152,1,70,2|0,0:0|0:0,0:0:0:0:
44,204,169067,2,0,B|44:232|60:252|80:260,1,70,2|0,0:0|0:0,0:0:0:0:
148,276,169773,5,2,0:0:0:0:
212,248,170126,2,0,B|224:220|200:208|212:180,2,70,0|0|2,0:0|0:0|0:0,0:0:0:0:
276,276,171185,1,0,0:0:0:0:
340,304,171538,2,0,B|352:332|328:344|340:372,2,70,0|2|0,0:0|0:0|0:0,0:0:0:0:
376,244,172597,5,0,0:0:0:0:
420,188,172950,2,0,B|448:176|460:200|488:188,2,70,2|0|0,0:0|0:0|0:0,0:0:0:0:
376,132,174009,2,0,B|356:120|328:120|308:132,1,70,2|0,0:0|0:0,0:0:0:0:
256,176,174714,2,0,B|237:187|209:187|189:175,1,70,2|0,0:0|0:0,0:0:0:0:
124,148,175420,5,2,0:0:0:0:
56,152,175773,1,0,0:0:0:0:
8,200,176126,1,0,0:0:0:0:
4,268,176501,1,2,0:0:0:0:
44,324,176890,2,0,B|76:336|108:324|120:352,1,70
184,340,177680,2,0,B|216:328|248:340|260:312,1,70,2|0,0:0|0:0,0:0:0:0:
256,192,178591,12,0,182227,0:0:0:0:
