osu file format v14

[General]
AudioFilename: Bramble Blast - Super Smash Bros. Brawl.mp3
AudioLeadIn: 0
PreviewTime: 36282
Countdown: 0
SampleSet: Soft
StackLeniency: 0.7
Mode: 2
LetterboxInBreaks: 0
WidescreenStoryboard: 1

[Editor]
Bookmarks: 12588,36588,60588,84588,108588
DistanceSpacing: 2
BeatDivisor: 4
GridSize: 8
TimelineZoom: 1.7

[Metadata]
Title:Bramble Blast
TitleUnicode:とげとげタルめいろ
Artist:Naruke Michiko
ArtistUnicode:成毛美智子
Creator:Sinnoh
Version:Platter
Source:大乱闘スマッシュブラザーズX
Tags:Donkey Kong Country 2 Diddy's Kong Quest Stickerbrush Symphony David Wise Super Smash Bros Brothers Brawl Wii U 3DS Nintendo Togetoge Taru Meiro
BeatmapID:1642777
BeatmapSetID:782309

[Difficulty]
HPDrainRate:5
CircleSize:3.5
OverallDifficulty:7.5
ApproachRate:7.5
SliderMultiplier:1.8
SliderTickRate:2

[Events]
//Background and Video events
0,0,"BG.jpg",0,0
//Break Periods
2,60857,62457
//Storyboard Layer 0 (Background)
//Storyboard Layer 1 (Fail)
//Storyboard Layer 2 (Pass)
//Storyboard Layer 3 (Foreground)
//Storyboard Sound Samples

[TimingPoints]
657,375,4,2,0,30,1,0
24469,-100,4,2,0,40,0,0
36657,-100,4,2,0,50,0,0
54469,-100,4,2,0,55,0,0
59157,-100,4,2,0,45,0,0
59907,-100,4,2,0,35,0,0
60282,-100,4,2,0,45,0,0
63657,-100,4,2,0,50,0,0
64219,-100,4,2,0,40,0,0
64313,-100,4,2,0,50,0,0
64969,-100,4,2,0,40,0,0
65063,-100,4,2,0,50,0,0
67219,-100,4,2,0,40,0,0
67313,-100,4,2,0,50,0,0
67969,-100,4,2,0,40,0,0
68063,-100,4,2,0,50,0,0
70219,-100,4,2,0,40,0,0
70313,-100,4,2,0,50,0,0
70969,-100,4,2,0,40,0,0
71063,-100,4,2,0,50,0,0
73219,-100,4,2,0,40,0,0
73313,-100,4,2,0,50,0,0
73969,-100,4,2,0,40,0,0
74063,-100,4,2,0,50,0,0
76219,-100,4,2,0,40,0,0
76313,-100,4,2,0,50,0,0
76969,-100,4,2,0,40,0,0
77063,-100,4,2,0,50,0,0
79219,-100,4,2,0,40,0,0
79313,-100,4,2,0,50,0,0
79969,-100,4,2,0,40,0,0
80063,-100,4,2,0,50,0,0
82219,-100,4,2,0,40,0,0
82313,-100,4,2,0,50,0,0
82969,-100,4,2,0,40,0,0
83063,-100,4,2,0,50,0,0
83532,-100,4,2,0,60,0,0
84282,-100,4,2,0,50,0,0
84657,-100,4,2,0,60,0,0
97219,-100,4,2,0,45,0,0
97313,-100,4,2,0,60,0,0
102657,-100,4,2,0,60,0,1
102750,-100,4,2,0,70,0,1
108282,-100,4,2,0,60,0,1
108657,-100,4,2,0,50,0,0
108844,-100,4,2,0,30,0,0

[Colours]
Combo1 : 236,217,116
Combo2 : 192,96,0
Combo3 : 231,215,35
Combo4 : 255,108,108

[HitObjects]
395,243,12282,5,2,0:0:0:0:
218,222,12657,5,0,0:0:0:0:
308,244,12844,2,0,L|320:134,1,90,2|2,0:0|0:0,0:0:0:0:
157,132,13407,2,0,L|119:11,2,90,2|0|0,0:0|0:0|0:0,0:0:0:0:
253,170,13969,6,0,L|417:288,1,180,2|2,0:0|0:0,0:0:0:0:
315,193,14532,2,0,L|151:311,1,180,2|2,0:0|0:0,0:0:0:0:
322,314,15282,1,0,0:0:0:0:
242,257,15469,6,0,L|79:121,1,180,2|0,0:0|0:0,0:0:0:0:
184,169,16032,2,0,L|246:73,1,90,2|0,0:0|0:0,0:0:0:0:
127,100,16407,2,0,L|69:9,2,90,2|0|0,0:0|0:0|0:0,0:0:0:0:
218,169,16969,1,2,0:0:0:0:
377,244,17344,6,0,L|215:134,1,180,0|0,0:0|0:0,0:0:0:0:
316,116,17907,2,0,L|386:39,2,90,2|0|0,0:0|0:0|0:0,0:0:0:0:
225,194,18469,6,0,L|59:73,1,180,2|0,0:0|0:0,0:0:0:0:
172,142,19032,2,0,L|267:77,1,90,2|0,0:0|0:0,0:0:0:0:
343,186,19407,2,0,L|441:111,2,90,2|0|0,0:0|0:0|0:0,0:0:0:0:
242,274,19969,6,0,P|189:221|250:145,1,180,2|2,0:0|0:0,0:0:0:0:
341,167,20532,2,0,L|348:61,1,90,2|0,0:0|0:0,0:0:0:0:
247,67,20907,2,0,L|161:0,2,90,2|0|0,0:0|0:0|0:0,0:0:0:0:
328,238,21469,6,0,L|150:113,1,180,2|0,0:0|0:0,0:0:0:0:
272,165,22032,2,0,L|334:89,1,90,2|0,0:0|0:0,0:0:0:0:
236,79,22407,2,0,L|160:0,1,90,2|0,0:0|0:0,0:0:0:0:
372,285,22969,6,0,L|381:90,1,180,2|0,0:0|0:0,0:0:0:0:
283,89,23532,1,2,0:0:0:0:
110,205,23719,2,0,L|89:133,2,45,0|0|2,0:0|0:0|0:0,0:0:0:0:
215,210,24094,2,0,L|312:197,1,90,0|0,0:0|0:0,0:0:0:0:
101,201,24469,6,0,P|50:137|107:77,1,180,2|0,0:0|0:0,0:0:0:0:
204,180,25032,2,0,L|281:125,1,90,2|0,0:0|0:0,0:0:0:0:
169,100,25407,1,2,0:0:0:0:
87,206,25594,2,0,L|276:135,1,180,2|2,0:0|0:0,0:0:0:0:
103,243,26344,6,0,L|94:113,1,90,0|2,0:0|0:0,0:0:0:0:
194,137,26719,2,0,L|357:50,1,180,0|2,0:0|0:0,0:0:0:0:
272,264,27282,1,0,0:0:0:0:
369,261,27469,6,0,P|417:214|353:137,1,180,2|0,0:0|0:0,0:0:0:0:
263,129,28032,1,0,0:0:0:0:
175,260,28219,1,0,0:0:0:0:
171,215,28312,1,0,0:0:0:0:
167,170,28406,1,2,0:0:0:0:
276,156,28594,2,0,L|363:110,1,90,0|0,0:0|0:0,0:0:0:0:
170,246,28969,6,0,P|128:200|186:86,1,180,2|0,0:0|0:0,0:0:0:0:
267,204,29532,2,0,L|268:92,1,90,2|0,0:0|0:0,0:0:0:0:
154,121,29907,2,0,L|74:62,2,90,2|0|0,0:0|0:0|0:0,0:0:0:0:
345,287,30469,6,0,P|394:222|307:153,1,180,2|0,0:0|0:0,0:0:0:0:
69,282,31219,2,0,L|60:88,1,180,2|0,0:0|0:0,0:0:0:0:
359,257,31969,6,0,P|396:207|331:119,1,180,2|0,0:0|0:0,0:0:0:0:
159,167,32532,1,2,0:0:0:0:
112,105,32719,2,0,L|303:65,1,180,2|0,0:0|0:0,0:0:0:0:
210,223,33282,2,0,L|205:183,1,30,2|0,0:0|0:0,0:0:0:0:
274,150,33469,6,0,L|438:24,1,180,2|0,0:0|0:0,0:0:0:0:
332,223,34032,1,0,0:0:0:0:
142,284,34219,1,0,0:0:0:0:
116,247,34312,1,0,0:0:0:0:
112,203,34406,5,2,0:0:0:0:
132,163,34500,1,0,0:0:0:0:
169,140,34594,1,2,0:0:0:0:
213,139,34687,1,0,0:0:0:0:
252,161,34781,1,0,0:0:0:0:
274,200,34875,1,0,0:0:0:0:
272,244,34969,1,0,0:0:0:0:
207,300,35157,6,0,L|102:306,1,90,2|0,0:0|0:0,0:0:0:0:
205,209,35532,2,0,L|301:200,1,90,2|0,0:0|0:0,0:0:0:0:
213,138,35907,2,0,L|111:138,1,90,2|0,0:0|0:0,0:0:0:0:
23,97,36282,2,0,L|134:100,1,90,2|2,0:0|0:0,0:0:0:0:
410,305,36657,6,0,P|448:257|359:180,1,180,2|2,0:0|0:0,0:0:0:0:
288,175,37219,1,0,0:0:0:0:
197,190,37407,2,0,L|112:145,2,90,2|0|0,0:0|0:0|0:0,0:0:0:0:
303,212,37970,1,0,0:0:0:0:
405,248,38157,6,0,L|412:32,1,180,2|2,0:0|0:0,0:0:0:0:
316,167,38719,1,0,0:0:0:0:
216,326,38907,2,0,L|199:129,1,180,2|2,0:0|0:0,0:0:0:0:
371,105,39657,6,0,L|184:33,3,180,2|0|2|2,0:0|0:0|0:0|0:0,0:0:0:0:
292,251,40969,6,0,P|323:214|244:106,1,180,2|2,0:0|0:0,0:0:0:0:
190,69,41531,1,2,0:0:0:0:
145,145,41719,1,0,0:0:0:0:
147,234,41906,1,2,0:0:0:0:
193,310,42094,1,0,0:0:0:0:
273,350,42282,2,0,L|366:317,1,90,2|2,0:0|0:0,0:0:0:0:
101,333,42657,6,0,P|46:284|117:205,1,180,2|2,0:0|0:0,0:0:0:0:
269,292,43407,2,0,L|300:176,2,90,2|0|0,0:0|0:0|0:0,0:0:0:0:
162,283,43969,1,0,0:0:0:0:
269,310,44157,6,0,P|347:264|340:163,1,180,2|2,0:0|0:0,0:0:0:0:
268,159,44719,1,0,0:0:0:0:
192,114,44907,2,0,L|370:41,1,180,2|2,0:0|0:0,0:0:0:0:
179,311,45657,6,0,P|105:281|74:158,3,180,2|0|2|2,0:0|0:0|0:0|0:0,0:0:0:0:
175,202,46969,6,0,L|355:101,1,180,2|0,0:0|0:0,0:0:0:0:
224,121,47532,2,0,L|60:30,2,180,2|2|2,0:0|0:0|0:0,0:0:0:0:
475,223,48469,6,0,P|485:167|387:96,1,180,2|0,0:0|0:0,0:0:0:0:
304,89,49032,2,0,L|193:77,2,90,0|2|0,0:0|0:0|0:0,0:0:0:0:
32,236,49782,1,2,0:0:0:0:
116,205,49969,6,0,L|289:118,1,180,2|0,0:0|0:0,0:0:0:0:
378,141,50532,1,0,0:0:0:0:
280,250,50719,2,0,L|108:169,1,180,2|0,0:0|0:0,0:0:0:0:
301,244,51282,1,2,0:0:0:0:
321,159,51469,6,0,P|311:100|172:58,1,180,2|0,0:0|0:0,0:0:0:0:
125,160,52032,1,2,0:0:0:0:
46,104,52219,2,0,L|265:71,1,180,2|0,0:0|0:0,0:0:0:0:
312,310,52781,2,0,L|309:189,1,90,2|2,0:0|0:0,0:0:0:0:
65,354,53344,5,2,0:0:0:0:
142,309,53531,1,0,0:0:0:0:
189,234,53719,1,0,0:0:0:0:
196,145,53906,1,2,0:0:0:0:
160,63,54094,1,0,0:0:0:0:
91,7,54281,1,2,0:0:0:0:
342,286,54469,6,0,P|353:217|254:162,1,180,2|0,0:0|0:0,0:0:0:0:
166,147,55031,2,0,L|48:132,2,90,2|2|0,0:0|0:0|0:0,0:0:0:0:
462,150,55782,1,2,0:0:0:0:
367,137,55969,6,0,L|150:87,1,180,2|0,0:0|0:0,0:0:0:0:
285,260,56532,1,0,0:0:0:0:
389,268,56719,2,0,P|438:203|366:141,1,180,2|0,0:0|0:0,0:0:0:0:
194,269,57282,1,2,0:0:0:0:
145,213,57469,6,0,P|160:136|255:92,1,180,2|0,0:0|0:0,0:0:0:0:
343,179,58031,1,2,0:0:0:0:
257,181,58219,2,0,P|151:141|128:63,1,180,2|0,0:0|0:0,0:0:0:0:
209,133,58782,2,0,L|299:127,1,90,2|0,0:0|0:0,0:0:0:0:
411,191,59157,6,0,L|431:134,2,45,0|0|0,3:0|0:0|3:0,0:0:0:0:
101,191,59532,2,0,L|81:134,2,45,0|0|0,3:0|3:0|3:0,0:0:0:0:
223,310,59907,5,8,0:0:0:0:
266,286,60000,1,0,0:0:0:0:
279,244,60094,1,0,3:3:0:0:
254,205,60188,1,0,3:3:0:0:
205,187,60282,2,0,L|173:136,2,45,8|8|0,0:0|0:0|3:0,0:0:0:0:
484,207,60657,5,4,0:0:0:0:
93,256,63282,5,2,0:0:0:0:
363,196,63657,2,0,L|162:163,1,180,6|0,0:0|1:0,0:0:0:0:
262,116,64219,2,0,L|453:70,1,180,4|0,0:3|0:0,0:0:0:0:
252,300,64782,2,0,P|194:265|206:146,1,180,2|0,0:0|0:0,0:0:0:0:
311,147,65344,5,0,0:0:0:0:
134,263,65532,2,0,L|31:215,1,90,2|0,1:2|0:0,0:0:0:0:
147,156,65907,1,2,0:0:0:0:
191,150,66000,1,0,0:0:0:0:
236,145,66094,1,0,0:0:0:0:
359,216,66282,1,2,3:0:0:0:
360,171,66375,1,0,3:0:0:0:
361,126,66469,1,0,0:0:0:0:
89,258,66657,6,0,P|47:198|137:127,1,180,4|0,0:3|1:0,0:0:0:0:
273,121,67407,2,0,L|360:98,2,90,2|0|2,0:0|0:0|0:0,0:0:0:0:
188,221,67969,6,0,P|135:172|209:90,1,180,4|0,0:3|0:0,0:0:0:0:
285,91,68532,2,0,L|399:55,1,90,2|0,1:2|0:0,0:0:0:0:
197,239,68907,2,0,L|92:195,1,90,2|0,0:0|0:0,0:0:0:0:
223,101,69282,2,0,L|329:45,1,90,2|0,3:2|0:0,0:0:0:0:
46,270,69657,6,0,P|46:198|150:134,1,180,4|0,0:3|1:0,0:0:0:0:
241,315,70219,2,0,P|313:266|320:179,1,180,4|0,0:3|0:0,0:0:0:0:
225,161,70782,2,0,L|105:126,1,90,2|4,0:0|0:3,0:0:0:0:
391,277,71157,6,0,P|444:239|359:184,1,180,2|0,0:0|0:0,0:0:0:0:
285,172,71719,1,2,0:0:0:0:
101,282,71907,2,0,L|97:161,1,90,0|0,1:0|0:0,0:0:0:0:
146,162,72189,1,0,1:0:0:0:
97,139,72282,2,0,L|35:111,2,45,0|0|0,3:0|3:0|0:0,0:0:0:0:
371,260,72657,6,0,P|425:208|338:157,1,180,4|2,0:0|1:2,0:0:0:0:
212,222,73407,2,0,L|207:115,1,90,2|0,0:2|0:0,0:0:0:0:
319,142,73782,2,0,L|317:36,1,90,2|4,0:0|0:3,0:0:0:0:
216,129,74157,6,0,L|100:80,1,90,2|0,0:0|0:0,0:0:0:0:
303,63,74532,2,0,L|412:31,1,90,0|0,1:0|0:0,0:0:0:0:
282,291,74907,2,0,L|276:189,1,90,0|0,0:0|0:0,0:0:0:0:
386,199,75282,1,0,3:0:0:0:
387,154,75375,1,0,3:0:0:0:
388,109,75469,1,0,0:0:0:0:
124,230,75657,6,0,P|73:182|155:107,1,180,2|0,0:0|1:0,0:0:0:0:
229,195,76219,2,0,L|409:138,1,180,4|0,0:3|0:0,0:0:0:0:
277,148,76782,2,0,L|178:94,2,90,0|4|0,0:0|0:3|0:0,0:0:0:0:
383,166,77343,5,0,0:0:0:0:
211,297,77532,2,0,L|205:180,1,90,2|0,1:2|0:0,0:0:0:0:
323,187,77907,2,0,L|352:115,2,45,0|0|0,0:0|0:0|0:0,0:0:0:0:
199,147,78282,1,2,3:2:0:0:
154,142,78375,1,0,3:2:0:0:
109,138,78469,1,0,0:0:0:0:
373,272,78657,6,0,P|423:227|332:165,1,180,4|0,0:3|1:0,0:0:0:0:
257,158,79219,1,4,0:3:0:0:
164,249,79407,2,0,L|157:146,1,90,0|0,0:0|0:0,0:0:0:0:
333,114,79782,2,0,L|425:102,1,90,2|4,0:0|0:3,0:0:0:0:
316,205,80157,6,0,L|159:111,1,180,2|0,0:0|1:0,0:0:0:0:
273,75,80719,2,0,L|371:29,2,90,2|2|0,0:0|0:0|0:0,0:0:0:0:
182,197,81282,1,0,3:0:0:0:
143,174,81375,1,0,3:0:0:0:
104,151,81469,1,0,0:0:0:0:
395,283,81657,6,0,P|439:250|361:173,1,180,4|0,0:3|1:0,0:0:0:0:
278,172,82219,2,0,L|181:112,2,90,4|0|0,0:3|0:0|0:0,0:0:0:0:
400,174,82782,2,0,L|403:75,1,90,2|4,0:0|0:3,0:0:0:0:
297,74,83157,1,2,0:0:0:0:
63,269,83532,6,0,L|68:179,1,90,0|0,1:0|0:0,0:0:0:0:
323,106,83907,2,0,L|387:99,2,45,0|0|0,1:0|1:0|3:0,0:0:0:0:
203,118,84281,2,0,L|139:111,2,45,0|0|0,3:0|3:0|3:0,0:0:0:0:
474,232,84657,6,0,L|478:131,1,90,4|4,0:0|0:0,0:0:0:0:
354,137,85032,2,0,L|263:92,1,90,0|0,3:0|1:0,0:0:0:0:
369,235,85407,1,0,3:0:0:0:
376,151,85594,1,0,3:0:0:0:
116,257,85782,2,0,L|112:154,1,90,6|4,0:0|0:0,0:0:0:0:
206,273,86157,6,0,P|257:214|172:151,1,180,2|4,0:0|0:3,0:0:0:0:
89,139,86719,2,0,L|72:80,2,45,4|0|0,0:3|1:0|1:0,0:0:0:0:
248,161,87094,1,2,0:0:0:0:
339,161,87282,2,0,L|285:64,1,90,2|0,0:0|0:0,0:0:0:0:
42,269,87657,6,0,L|35:163,1,90,4|4,0:0|0:0,0:0:0:0:
136,181,88032,2,0,L|240:158,1,90,0|0,3:0|0:0,0:0:0:0:
317,150,88407,1,0,1:0:0:0:
324,107,88500,1,0,1:0:0:0:
290,72,88594,1,0,3:0:0:0:
181,149,88782,1,4,0:3:0:0:
436,189,88969,1,4,0:0:0:0:
476,130,89157,6,0,L|277:94,1,180,2|4,0:0|0:3,0:0:0:0:
190,208,89719,2,0,L|122:184,2,45,2|0|0,3:2|1:0|3:0,0:0:0:0:
362,208,90094,2,0,L|473:198,2,90,0|2|0,3:0|0:0|0:0,0:0:0:0:
98,254,90657,6,0,P|47:203|117:123,1,180,6|0,0:0|1:0,0:0:0:0:
199,191,91219,2,0,L|375:106,1,180,2|0,0:0|0:0,0:0:0:0:
259,198,91782,2,0,L|145:137,1,90,2|0,0:0|0:0,0:0:0:0:
380,292,92157,6,0,P|429:223|352:166,1,180,2|0,0:0|1:0,0:0:0:0:
265,163,92719,1,0,3:0:0:0:
385,278,92907,1,2,0:0:0:0:
410,253,93000,1,2,0:0:0:0:
418,219,93094,1,2,0:0:0:0:
403,186,93188,1,2,0:0:0:0:
366,166,93282,2,0,L|256:132,1,90,2|0,3:2|0:0,0:0:0:0:
28,261,93657,6,0,P|24:190|134:151,1,180,2|0,0:0|1:0,0:0:0:0:
218,250,94219,2,0,P|280:192|255:110,1,180,2|0,0:0|0:0,0:0:0:0:
149,198,94782,2,0,L|141:103,1,90,2|0,0:0|0:0,0:0:0:0:
339,249,95157,6,0,L|342:50,1,180,2|2,0:0|1:2,0:0:0:0:
234,228,95719,2,0,P|180:163|263:101,1,180,2|2,0:0|0:0,0:0:0:0:
354,141,96282,1,2,0:0:0:0:
356,96,96375,1,0,0:0:0:0:
358,51,96469,1,2,0:0:0:0:
109,248,96657,6,0,P|57:184|112:123,1,180,6|0,0:0|1:0,0:0:0:0:
216,195,97219,1,4,0:3:0:0:
322,251,97407,2,0,L|323:133,1,90,0|0,0:0|0:0,0:0:0:0:
208,137,97782,2,0,L|107:83,1,90,2|0,0:0|0:0,0:0:0:0:
310,200,98157,6,0,P|364:139|310:78,1,180,2|0,0:0|1:0,0:0:0:0:
213,207,98719,1,0,0:0:0:0:
328,236,98907,2,0,L|327:109,1,90,2|0,0:0|0:0,0:0:0:0:
204,134,99282,1,0,3:0:0:0:
158,127,99375,1,0,0:0:0:0:
113,122,99469,1,0,0:0:0:0:
388,228,99657,5,2,0:0:0:0:
479,138,99844,2,0,L|377:122,1,90,2|0,0:0|1:0,0:0:0:0:
269,216,100220,1,0,3:0:0:0:
385,214,100407,2,0,L|388:96,1,90,0|0,0:0|0:0,0:0:0:0:
277,126,100782,2,0,L|177:75,1,90,2|0,0:0|0:0,0:0:0:0:
310,307,101157,6,0,P|353:271|285:177,1,180,2|0,0:0|1:0,0:0:0:0:
191,189,101719,2,0,L|91:130,2,90,2|0|0,0:0|0:0|0:0,0:0:0:0:
374,189,102282,1,0,3:0:0:0:
374,144,102375,1,0,3:0:0:0:
375,99,102469,1,0,3:0:0:0:
76,255,102657,6,0,L|68:131,1,90,4|0,1:0|3:0,0:0:0:0:
192,154,103032,2,0,L|293:120,1,90,0|0,1:0|3:0,0:0:0:0:
144,108,103407,2,0,L|43:78,1,90,0|0,1:0|3:0,0:0:0:0:
328,248,103782,2,0,L|327:136,1,90,0|0,1:0|3:0,0:0:0:0:
194,182,104157,6,0,L|102:139,1,90,0|0,1:0|3:0,0:0:0:0:
230,104,104532,2,0,L|328:76,1,90,0|0,1:0|3:0,0:0:0:0:
203,196,104907,2,0,L|105:148,1,90,0|0,1:0|3:0,0:0:0:0:
239,120,105282,1,0,1:0:0:0:
283,118,105375,1,0,0:0:0:0:
328,116,105469,1,0,3:0:0:0:
47,270,105657,6,0,L|41:159,1,90,0|0,1:0|3:0,0:0:0:0:
176,202,106032,2,0,L|170:72,1,90,0|0,1:0|3:0,0:0:0:0:
442,216,106407,2,0,L|443:100,1,90,0|0,1:0|3:0,0:0:0:0:
303,161,106782,2,0,L|189:128,1,90,0|0,1:0|3:0,0:0:0:0:
473,175,107157,6,0,L|473:76,1,90,0|0,1:0|0:0,0:0:0:0:
364,268,107532,2,0,L|259:214,1,90,0|0,1:0|3:0,0:0:0:0:
328,209,107813,1,0,1:0:0:0:
368,170,107907,2,0,P|362:102|335:72,1,90,0|0,1:0|0:0,0:0:0:0:
257,47,108282,1,0,3:0:0:0:
301,41,108375,1,0,3:0:0:0:
346,36,108469,1,0,3:0:0:0:
81,167,108657,5,2,0:0:0:0:
256,192,108844,12,2,114657,0:0:0:0:
