osu file format v5

[General]
AudioFilename: Narcissu.mp3
AudioLeadIn: 0
PreviewTime: -1
Countdown: 0
SampleSet: Soft
StackLeniency: 0.7
Mode: 0
LetterboxInBreaks: 1
EditorBookmarks: 22300,68800,92800

[Metadata]
Title:Narcissu vocal ver.
Artist:Narcissu
Creator:landbreeze
Version:Easy
Source:Narcissu
Tags:Narcissu

[Difficulty]
HPDrainRate:3
CircleSize:5
OverallDifficulty:3
SliderMultiplier:1.4
SliderTickRate:1

[Events]
//Background and Video events
0,0,"image96.JPG"
//Break Periods
2,64875,68110
//Storyboard Layer 0 (Background)
//Storyboard Layer 1 (Failing)
//Storyboard Layer 2 (Passing)
//Storyboard Layer 3 (Foreground)
//Storyboard Sound Samples
//Background Colour Transformations
3,100,163,162,255

[TimingPoints]
1300,750,4,2,0,74

[HitObjects]
96,96,22300,1,0
160,96,22675,1,0
224,96,23050,1,0
288,96,23425,1,0
352,96,23800,1,0
448,256,25300,5,0
320,160,26800,1,0
256,160,27175,1,0
192,160,27550,1,0
128,160,27925,1,0
64,352,29800,5,0
128,320,30175,1,0
256,256,31300,1,0
352,320,32425,1,0
416,320,32800,1,0
320,160,34300,6,0,L|192:64|192:64|64:128,1,280
96,320,37300,5,0
224,256,38425,1,0
256,192,38800,1,0
288,64,39925,1,0
352,96,40300,2,0,B|224:192,1,140
192,224,41425,1,0
256,224,41800,1,0
320,224,42175,1,0
384,224,42550,1,0
352,288,42925,1,0
288,288,43300,2,0,B|128:288,1,140
128,224,44425,1,0
64,224,44800,1,0
224,320,46300,6,0,B|448:320,1,210
448,320,47612,1,0
448,224,48175,1,0
448,160,48550,1,0
448,96,48925,1,0
384,128,49300,1,0
320,128,49675,1,0
320,128,49862,1,0
128,96,52300,6,0,B|288:96|352:96,1,210
352,160,53800,2,0,B|128:160,1,210
160,224,55300,2,0,B|320:224,1,140
300,224,56237,1,0
300,224,56425,1,0
384,128,57550,5,0
320,96,57925,1,0
256,96,58300,1,0
192,96,58675,1,0
192,96,58862,1,0
128,224,60175,5,0
192,256,60550,1,0
256,224,60925,1,0
320,224,61300,1,0
384,224,61675,2,0,B|384:64,1,140
256,96,63175,1,0
192,64,63550,1,0
128,32,63925,1,0
128,96,64300,1,0
128,128,64487,1,0
128,160,64675,1,0
96,288,69550,5,0
96,256,69737,1,0
96,224,69925,1,0
96,192,70112,1,0
96,160,70300,2,0,B|256:160,1,140
224,96,71425,1,0
288,64,71800,2,0,L|352:192,1,140
384,128,72925,1,0
416,192,73300,2,0,L|320:320,2,140
384,320,75925,5,0
320,288,76300,1,0
192,224,77425,1,0
128,192,77800,1,0
64,160,78175,1,0
96,320,79300,1,0
96,224,80050,1,0
128,160,80425,1,0
160,96,80800,1,0
224,192,81550,5,0
224,160,81737,1,0
224,128,81925,1,0
224,96,82112,1,0
224,64,82300,2,0,B|384:64,1,140
352,128,83425,1,0
320,192,83800,1,0
192,160,84550,1,0
128,192,84925,1,0
96,256,85300,2,0,L|224:352,2,140
256,224,87925,5,0
320,224,88300,2,0,B|390:177|390:177|448:224,1,140
480,256,89425,1,0
480,192,89800,1,0
480,128,90175,1,0
416,128,90550,1,0
352,96,90925,1,0
352,96,91112,1,0
96,320,93550,5,0
96,288,93737,1,0
96,256,93925,1,0
96,224,94112,1,0
96,192,94300,1,0
160,64,95425,5,0
224,96,95800,1,0
288,64,96175,1,0
320,64,96362,1,0
352,64,96550,1,0
416,96,96925,1,0
480,64,97300,1,0
480,128,97675,1,0
480,192,98050,1,0
480,256,98425,1,0
480,320,98800,1,0
416,192,99925,5,0
416,128,100300,2,0,L|256:128,1,140
224,128,101425,1,0
224,64,101800,1,0
160,32,102175,1,0
160,160,102925,1,0
128,128,103112,1,0
96,160,103300,1,0
32,256,104050,1,0
32,192,104425,1,0
32,128,104800,1,0
64,256,105550,5,0
64,224,105737,1,0
64,192,105925,1,0
64,160,106112,1,0
64,128,106300,1,0
192,32,107425,5,0
224,96,107800,1,0
256,32,108175,1,0
288,64,108362,1,0
320,96,108550,1,0
352,160,108925,1,0
416,128,109300,1,0
448,192,109675,1,0
416,256,110050,1,0
448,320,110425,1,0
512,288,110800,1,0
480,128,111925,5,0
416,160,112300,2,0,L|256:160,1,140
224,192,113425,1,0
160,224,113800,1,0
160,160,114175,1,0
160,96,114550,1,0
192,32,114925,1,0
192,32,115112,1,0
32,160,117925,5,0
96,192,118300,2,0,L|384:192,1,280
320,96,120550,1,0
384,96,120925,1,0
384,96,121112,1,0
