osu file format v13

[General]
AudioFilename: tiger.mp3
AudioLeadIn: 1500
PreviewTime: 62880
Countdown: 0
SampleSet: Soft
StackLeniency: 0.7
Mode: 0
LetterboxInBreaks: 1
WidescreenStoryboard: 1

[Editor]
Bookmarks: 59016
DistanceSpacing: 1
BeatDivisor: 4
GridSize: 4
TimelineZoom: 2.6

[Metadata]
Title:Horang Pungryuga
TitleUnicode:호랑풍류가
Artist:Narae
ArtistUnicode:나래
Creator:Dark Fang
Version:scanter's Insane
Source:나와 호랑이님
Tags:상록수 scanter captin1 HelloSCV K_i_A_i KiAi
BeatmapID:510645
BeatmapSetID:200187

[Difficulty]
HPDrainRate:7
CircleSize:4
OverallDifficulty:8
ApproachRate:9
SliderMultiplier:1.85
SliderTickRate:2

[Events]
//Background and Video events
0,0,"2012_5_2_1336462055.jpg",0,0
Video,0,"PV.avi"
//Break Periods
//Storyboard Layer 0 (Background)
//Storyboard Layer 1 (Fail)
//Storyboard Layer 2 (Pass)
//Storyboard Layer 3 (Foreground)
//Storyboard Sound Samples

[TimingPoints]
255,375,4,2,2,70,1,0
3255,-100,4,2,2,80,0,1
14036,-100,4,2,2,20,0,1
14130,-100,4,2,2,80,0,1
14411,-100,4,2,2,20,0,1
14505,-100,4,2,2,80,0,1
15255,-100,4,2,2,70,0,0
26505,-100,4,2,2,61,0,0
27255,-100,4,2,2,70,0,0
39255,-125,4,2,2,60,0,0
48255,-100,4,2,2,70,0,0
49755,-100,4,2,2,82,0,0
50505,-133.333333333333,4,2,2,90,0,0
51255,-133.333333333333,4,2,2,40,0,0
57255,-125,4,2,2,60,0,0
61755,-100,4,2,2,70,0,0
62036,-100,4,2,2,20,0,0
62130,-100,4,2,2,70,0,0
62411,-100,4,2,2,20,0,0
62505,-100,4,2,2,70,0,0
63255,-83.3333333333333,4,2,2,80,0,1
74036,-83.3333333333333,4,2,2,20,0,1
74130,-83.3333333333333,4,2,2,80,0,1
74411,-83.3333333333333,4,2,2,20,0,1
74505,-83.3333333333333,4,2,2,80,0,1
86036,-83.3333333333333,4,2,2,20,0,1
86130,-83.3333333333333,4,2,2,80,0,1
86411,-83.3333333333333,4,2,2,20,0,1
86505,-83.3333333333333,4,2,2,80,0,1
89036,-83.3333333333333,4,2,2,20,0,1
89130,-83.3333333333333,4,2,2,80,0,1
89411,-83.3333333333333,4,2,2,20,0,1
89505,-83.3333333333333,4,2,2,80,0,1
92036,-83.3333333333333,4,2,2,20,0,1
92130,-83.3333333333333,4,2,2,80,0,1
92411,-83.3333333333333,4,2,2,20,0,1
92505,-83.3333333333333,4,2,2,80,0,1
92786,-83.3333333333333,4,2,2,20,0,1
92880,-83.3333333333333,4,2,2,80,0,1
93161,-83.3333333333333,4,2,2,20,0,1
93255,-83.3333333333333,4,2,2,80,0,1
93348,-83.3333333333333,4,2,2,20,0,1
96255,-100,4,2,2,80,0,0

[Colours]
Combo1 : 128,128,192
Combo2 : 128,255,255
Combo3 : 128,255,128
Combo4 : 255,0,128

[HitObjects]
432,120,255,5,6,0:0:0:0:
432,120,348,1,0,0:0:0:0:
460,268,536,1,8,0:0:0:0:
460,268,630,2,0,P|436:316|384:344,1,92.5,4|8,3:0|0:0,0:0:0:0:
300,164,1005,5,4,0:0:0:0:
300,164,1098,1,0,0:0:0:0:
84,124,1286,1,8,0:0:0:0:
84,124,1380,2,0,P|122:99|168:95,1,92.5,4|8,3:0|0:0,0:0:0:0:
290,251,1755,5,6,0:0:0:0:
290,251,1848,1,0,0:0:0:0:
75,279,2036,1,8,0:0:0:0:
75,279,2130,2,0,L|173:301,1,92.5,4|8,3:0|0:0,0:0:0:0:
300,164,2505,6,0,L|400:180,1,92.5,2|2,0:0|0:0,0:0:0:0:
511,290,2880,2,0,L|420:276,1,92.5,2|2,0:0|0:0,0:0:0:0:
444,112,3255,6,0,L|448:80,1,23.125,4|2,0:0|0:0,0:0:0:0:
480,284,3630,2,0,P|456:320|400:336,1,92.5,2|0,0:0|3:0,0:0:0:0:
256,304,4005,1,2,0:0:0:0:
244,300,4192,1,2,0:0:0:0:
96,256,4380,1,2,0:0:0:0:
108,252,4567,1,2,0:0:0:0:
204,128,4755,6,0,L|200:100,1,23.125,2|0,0:0|0:0,0:0:0:0:
448,68,5130,2,0,P|412:44|360:24,1,92.5,2|0,0:0|3:0,0:0:0:0:
404,211,5505,2,0,P|381:172|368:128,1,92.5,2|2,0:0|0:0,0:0:0:0:
484,256,5880,2,0,P|472:312|452:344,1,92.5,2|2,0:0|0:0,0:0:0:0:
256,304,6255,6,0,L|288:320,1,23.125,6|2,0:0|0:0,0:0:0:0:
76,252,6630,2,0,L|4:172,1,92.5,2|0,0:0|3:0,0:0:0:0:
3,13,7005,2,0,L|51:91,1,92.5,2|2,0:0|0:0,0:0:0:0:
180,192,7380,2,0,L|149:104,1,92.5,2|2,0:0|0:0,0:0:0:0:
164,288,7755,6,0,L|176:312,1,23.125,2|2,0:0|0:0,0:0:0:0:
280,184,8130,1,2,0:0:0:0:
400,204,8317,1,0,3:0:0:0:
252,92,8505,1,2,0:0:0:0:
328,268,8692,1,2,0:0:0:0:
464,132,8880,1,2,0:0:0:0:
280,184,9067,1,2,0:0:0:0:
372,40,9255,6,0,L|376:16,1,23.125,6|2,0:0|0:0,0:0:0:0:
400,204,9630,2,0,P|444:228|476:272,1,92.5,2|0,0:0|3:0,0:0:0:0:
328,268,10005,2,0,P|340:308|320:360,1,92.5,2|2,0:0|0:0,0:0:0:0:
120,336,10380,2,0,P|108:296|128:244,1,92.5,2|2,0:0|0:0,0:0:0:0:
280,184,10755,6,0,L|308:180,1,23.125,6|2,0:0|0:0,0:0:0:0:
123,133,11130,2,0,P|81:113|36:112,1,92.5,2|0,0:0|3:0,0:0:0:0:
36,272,11505,2,0,P|81:270|123:250,1,92.5,2|2,0:0|0:0,0:0:0:0:
292,192,11880,2,0,L|196:192,1,92.5,2|2,0:0|0:0,0:0:0:0:
328,108,12255,6,0,L|356:116,1,23.125,6|2,0:0|0:0,0:0:0:0:
472,52,12630,1,2,0:0:0:0:
440,216,12817,1,0,3:0:0:0:
472,52,13005,1,6,0:0:0:0:
440,216,13192,1,0,0:0:0:0:
312,368,13380,1,0,0:0:0:0:
496,340,13567,1,0,0:0:0:0:
364,292,13755,6,0,P|296:280|236:316,1,138.75,6|0,0:0|0:0,0:0:0:0:
238,313,14130,2,0,L|192:168,1,138.75,6|0,0:0|0:0,0:0:0:0:
96,144,14505,5,6,0:0:0:0:
96,144,14598,1,8,0:0:0:0:
256,92,14786,1,8,0:0:0:0:
256,92,14880,1,8,0:0:0:0:
128,8,15067,1,8,0:0:0:0:
344,68,15255,6,0,L|444:92,1,92.5,6|8,0:0|0:0,0:0:0:0:
433,89,15536,1,0,3:0:0:0:
433,89,15630,2,0,L|448:200,1,92.5,0|8,3:0|0:0,0:0:0:0:
504,240,15911,2,0,B|465:266|424:258|424:258|416:328,1,138.75,0|8,3:0|0:0,0:0:0:0:
231,344,16380,2,0,L|324:352,1,92.5,0|8,1:0|0:0,0:0:0:0:
152,280,16755,6,0,L|64:244,1,92.5,0|8,3:0|0:0,0:0:0:0:
66,244,17036,1,0,3:0:0:0:
66,244,17130,2,0,P|84:200|64:148,1,92.5,0|8,3:0|0:0,0:0:0:0:
4,108,17411,2,0,P|52:76|136:104,1,138.75,0|8,3:0|0:0,0:0:0:0:
309,149,17880,2,0,P|263:150|224:128,1,92.5,0|8,1:0|0:0,0:0:0:0:
352,68,18255,6,0,P|392:100|404:160,1,92.5,0|8,3:0|0:0,0:0:0:0:
420,220,18536,1,0,3:0:0:0:
420,220,18630,2,0,L|424:320,1,92.5,0|8,3:0|0:0,0:0:0:0:
488,364,18911,2,0,P|440:344|332:372,1,138.75,0|8,3:0|0:0,0:0:0:0:
256,192,19380,2,0,B|236:236|236:236|248:288,1,92.5,0|8,1:0|0:0,0:0:0:0:
80,160,19755,6,0,B|100:116|100:116|88:64,1,92.5,0|8,3:0|0:0,0:0:0:0:
168,40,20036,1,0,3:0:0:0:
168,40,20130,2,0,L|280:48,1,92.5,0|8,3:0|0:0,0:0:0:0:
260,46,20411,2,0,L|384:128,1,138.75,0|8,3:0|0:0,0:0:0:0:
510,95,20880,2,0,L|436:40,1,92.5,0|8,1:0|0:0,0:0:0:0:
352,216,21255,6,0,B|384:240|384:240|404:292|404:292|456:332,1,138.75,0|0,3:0|3:0,0:0:0:0:
512,360,21630,1,0,3:0:0:0:
316,292,21817,1,8,0:0:0:0:
316,292,21911,1,0,3:0:0:0:
476,240,22098,1,0,3:0:0:0:
476,240,22192,1,8,0:0:0:0:
344,368,22380,2,0,P|284:368|252:344,1,92.5,0|8,1:0|0:0,0:0:0:0:
100,212,22755,5,0,3:0:0:0:
116,244,22848,1,0,3:0:0:0:
120,280,22942,1,8,0:0:0:0:
112,316,23036,1,0,3:0:0:0:
92,348,23130,2,0,L|196:288,1,92.5,0|8,3:0|0:0,0:0:0:0:
240,252,23411,2,0,P|248:200|192:112,1,138.75,0|8,3:0|0:0,0:0:0:0:
8,223,23880,2,0,L|100:212,1,92.5,0|8,1:0|0:0,0:0:0:0:
256,72,24255,5,0,1:0:0:0:
256,72,24348,1,0,3:0:0:0:
400,72,24536,1,8,0:0:0:0:
400,72,24630,2,0,L|492:72,1,92.5,0|8,3:0|0:0,0:0:0:0:
492,320,25005,1,0,1:0:0:0:
492,320,25098,1,0,3:0:0:0:
348,320,25286,1,8,0:0:0:0:
348,320,25380,2,0,L|256:320,1,92.5,0|8,3:0|0:0,0:0:0:0:
20,192,25755,5,0,1:0:0:0:
20,192,25848,1,0,3:0:0:0:
164,192,26036,1,8,0:0:0:0:
164,192,26130,2,0,L|256:192,1,92.5,0|8,3:0|0:0,0:0:0:0:
460,192,26505,1,4,1:0:0:0:
460,192,26598,1,0,0:0:0:0:
492,320,26786,1,8,0:0:0:0:
492,320,26880,1,0,0:0:0:0:
352,228,27067,1,8,0:0:0:0:
412,52,27255,5,6,0:0:0:0:
388,80,27348,1,0,3:0:0:0:
356,96,27442,1,8,0:0:0:0:
320,96,27536,1,0,3:0:0:0:
284,80,27630,2,0,P|220:68|184:84,1,92.5,0|8,3:0|0:0,0:0:0:0:
116,52,27911,2,0,P|124:116|184:160,1,138.75,0|8,3:0|0:0,0:0:0:0:
222,327,28380,2,0,P|241:285|240:240,1,92.5,0|8,1:0|0:0,0:0:0:0:
284,80,28755,5,0,3:0:0:0:
320,96,28848,1,0,3:0:0:0:
356,96,28942,1,8,0:0:0:0:
388,80,29036,1,0,3:0:0:0:
412,52,29130,2,0,P|456:28|504:36,1,92.5,0|8,3:0|0:0,0:0:0:0:
472,112,29411,2,0,B|460:168|408:176|408:176|352:176,1,138.75,0|8,3:0|0:0,0:0:0:0:
224,328,29880,2,0,L|320:328,1,92.5,0|8,1:0|0:0,0:0:0:0:
144,384,30255,5,0,3:0:0:0:
128,352,30348,1,0,3:0:0:0:
124,316,30442,1,8,0:0:0:0:
136,280,30536,1,0,3:0:0:0:
164,256,30630,2,0,L|64:240,1,92.5,0|8,3:0|0:0,0:0:0:0:
52,160,30911,2,0,B|160:176|160:176|136:128,1,138.75,0|8,3:0|0:0,0:0:0:0:
300,40,31380,2,0,L|344:124,1,92.5,0|8,1:0|0:0,0:0:0:0:
188,40,31755,5,0,3:0:0:0:
204,72,31848,1,0,3:0:0:0:
220,104,31942,1,8,0:0:0:0:
236,136,32036,1,0,3:0:0:0:
252,168,32130,2,0,L|296:260,1,92.5,0|8,3:0|0:0,0:0:0:0:
264,332,32411,2,0,B|305:341|337:322|337:322|356:293|393:287,1,138.75,0|8,3:0|0:0,0:0:0:0:
512,383,32880,2,0,L|420:376,1,92.5,0|8,1:0|0:0,0:0:0:0:
344,164,33255,6,0,L|492:176,1,138.75,0|0,3:0|3:0,0:0:0:0:
482,175,33630,1,0,3:0:0:0:
300,40,33817,1,8,0:0:0:0:
300,40,33911,2,0,L|161:28,1,138.75,0|8,3:0|0:0,0:0:0:0:
76,172,34380,1,0,1:0:0:0:
76,172,34567,1,8,0:0:0:0:
196,288,34755,5,0,3:0:0:0:
40,272,34942,1,8,0:0:0:0:
196,288,35130,1,0,3:0:0:0:
144,108,35317,1,8,0:0:0:0:
144,108,35411,2,0,P|168:144|164:208,1,92.5,0|0,3:0|3:0,0:0:0:0:
120,260,35692,1,8,0:0:0:0:
248,352,35880,2,0,P|288:368|344:352,1,92.5,0|8,1:0|0:0,0:0:0:0:
480,228,36255,5,6,0:0:0:0:
480,228,36348,1,0,3:0:0:0:
305,181,36536,1,8,0:0:0:0:
305,181,36630,1,0,3:0:0:0:
506,127,36817,1,8,0:0:0:0:
378,255,37005,5,6,0:0:0:0:
378,255,37098,1,0,3:0:0:0:
332,80,37286,1,8,0:0:0:0:
332,80,37380,1,0,0:0:0:0:
480,228,37567,1,8,0:0:0:0:
433,54,37755,5,6,0:0:0:0:
433,54,37848,1,0,3:0:0:0:
305,181,38036,1,8,0:0:0:0:
305,181,38130,2,0,L|200:160,1,92.5,0|8,3:0|0:0,0:0:0:0:
408,152,38505,5,4,1:0:0:0:
408,152,38598,1,0,3:0:0:0:
378,255,38786,1,8,0:0:0:0:
378,255,38880,1,0,3:0:0:0:
348,352,39067,1,8,0:0:0:0:
348,352,39255,6,0,P|308:336|256:336,1,74,6|0,0:0|3:0,0:0:0:0:
196,348,39630,2,0,L|112:324,1,74,8|0,0:0|0:0,0:0:0:0:
124,248,40005,2,0,L|64:184,1,74,0|0,3:0|0:0,0:0:0:0:
116,36,40380,1,8,0:0:0:0:
116,36,40567,6,0,B|160:48|172:88|172:88|172:136|208:160,1,148,0|0,3:0|3:0,0:0:0:0:
327,96,41130,2,0,P|291:87|256:96,1,74,8|0,0:0|3:0,0:0:0:0:
400,135,41505,2,0,P|435:144|471:136,1,74,0|0,3:0|0:0,0:0:0:0:
292,168,41880,1,8,0:0:0:0:
440,64,42067,1,0,3:0:0:0:
292,168,42255,6,0,L|360:208,1,74,0|0,3:0|0:0,0:0:0:0:
440,64,42630,2,0,L|376:26,1,74,8|0,0:0|3:0,0:0:0:0:
472,136,43005,1,0,3:0:0:0:
452,268,43192,1,0,3:0:0:0:
328,320,43380,2,0,L|240:336,1,74,8|0,0:0|0:0,0:0:0:0:
110,282,43755,6,0,L|184:292,1,74,0|0,3:0|0:0,0:0:0:0:
112,128,44130,2,0,L|38:118,1,74,8|0,0:0|0:0,0:0:0:0:
44,232,44505,2,0,B|79:198|79:198|138:204|138:204|181:171,1,148,0|8,3:0|0:0,0:0:0:0:
336,52,45067,1,0,3:0:0:0:
336,52,45255,6,0,P|368:108|464:124,1,148,6|8,0:0|0:0,0:0:0:0:
404,292,45817,1,0,3:0:0:0:
440,212,46005,2,0,P|375:211|313:286,1,148,0|8,3:0|0:0,0:0:0:0:
260,95,46567,6,0,P|281:164|248:228,1,148,0|0,3:0|3:0,0:0:0:0:
196,156,47130,1,8,0:0:0:0:
360,164,47317,1,0,3:0:0:0:
196,156,47505,2,0,P|156:148|116:160,1,74,0|0,3:0|0:0,0:0:0:0:
64,308,47880,2,0,P|99:315|135:307,1,74,8|0,0:0|3:0,0:0:0:0:
235,146,48255,5,0,3:0:0:0:
259,138,48348,1,0,0:0:0:0:
283,130,48442,1,0,3:0:0:0:
307,122,48536,1,0,0:0:0:0:
323,106,48630,1,0,3:0:0:0:
343,98,48723,1,0,0:0:0:0:
367,90,48817,1,0,3:0:0:0:
391,82,48911,1,0,0:0:0:0:
427,86,49005,5,0,3:0:0:0:
459,106,49098,1,0,0:0:0:0:
479,138,49192,1,0,3:0:0:0:
491,174,49286,1,0,0:0:0:0:
487,210,49380,2,0,L|475:270,3,46.25,0|0|0|0,3:0|0:0|3:0|0:0,0:0:0:0:
459,302,49755,5,0,3:0:0:0:
423,338,49848,1,0,3:0:0:0:
375,354,49942,1,0,3:0:0:0:
323,350,50036,1,0,3:0:0:0:
279,322,50130,1,0,3:0:0:0:
247,282,50223,1,0,3:0:0:0:
203,254,50317,1,0,3:0:0:0:
151,262,50411,1,0,3:0:0:0:
115,298,50505,6,0,P|49:302|-4:226,1,138.750005292893,0|0,3:0|0:0,0:0:0:0:
60,349,51255,5,6,0:0:0:0:
152,360,51630,1,0,0:0:0:0:
240,332,52005,1,0,0:0:0:0:
288,252,52380,1,0,0:0:0:0:
352,184,52755,5,0,0:0:0:0:
440,164,53130,1,0,0:0:0:0:
416,252,53505,1,0,0:0:0:0:
352,184,53880,1,0,0:0:0:0:
272,140,54255,5,0,0:0:0:0:
180,140,54630,1,0,0:0:0:0:
96,176,55005,1,0,0:0:0:0:
36,248,55380,1,0,0:0:0:0:
116,296,55755,5,0,0:0:0:0:
208,296,56130,1,0,0:0:0:0:
292,256,56505,1,0,0:0:0:0:
352,184,56880,1,0,0:0:0:0:
404,340,57255,6,0,P|432:308|436:204,1,148,6|0,0:0|0:0,0:0:0:0:
288,144,58005,2,0,P|260:176|256:280,1,148,0|0,0:0|0:0,0:0:0:0:
104,340,58755,2,0,B|60:312|52:264|52:264|64:208,1,148,0|0,0:0|0:0,0:0:0:0:
144,72,59505,2,0,B|188:100|196:148|196:148|184:204,1,148,0|0,0:0|0:0,0:0:0:0:
296,316,60255,5,0,0:0:0:0:
456,348,60630,1,0,0:0:0:0:
492,188,61005,1,0,0:0:0:0:
332,156,61380,1,0,0:0:0:0:
224,328,61755,6,0,P|160:296|92:324,1,138.75,6|0,0:0|3:0,0:0:0:0:
20,296,62130,2,0,L|44:184,1,92.5,6|0,0:0|3:0,0:0:0:0:
140,44,62505,1,0,3:0:0:0:
168,68,62598,1,0,1:0:0:0:
204,80,62692,1,0,3:0:0:0:
240,76,62786,1,0,1:0:0:0:
276,64,62880,2,0,P|332:48|384:68,1,92.5,0|0,1:0|1:0,0:0:0:0:
488,240,63255,6,0,P|432:256|384:240,1,110.999996612549,6|0,0:0|1:0,0:0:0:0:
162,317,63630,2,0,L|264:272,1,110.999996612549,8|0,0:0|1:0,0:0:0:0:
105,114,64005,2,0,L|4:160,1,110.999996612549,8|0,0:0|1:0,0:0:0:0:
224,148,64380,1,8,0:0:0:0:
388,180,64567,1,0,1:0:0:0:
240,76,64755,5,8,0:0:0:0:
404,108,64942,1,0,1:0:0:0:
296,236,65130,1,8,0:0:0:0:
404,108,65317,1,0,1:0:0:0:
444,272,65505,2,0,P|412:328|364:352,1,110.999996612549,8|0,0:0|1:0,0:0:0:0:
216,288,65880,1,8,0:0:0:0:
216,288,66067,1,0,1:0:0:0:
240,76,66255,6,0,L|252:192,1,110.999996612549,8|0,0:0|1:0,0:0:0:0:
100,260,66630,1,8,0:0:0:0:
100,260,66817,1,0,1:0:0:0:
124,48,67005,2,0,L|136:164,1,110.999996612549,8|0,0:0|1:0,0:0:0:0:
355,154,67380,2,0,L|344:44,1,110.999996612549,8|0,0:0|1:0,0:0:0:0:
424,224,67755,6,0,B|384:268|324:256|324:256|316:324|248:344,2,221.999993225098,8|8|8,0:0|0:0|0:0,0:0:0:0:
484,68,68692,1,0,1:0:0:0:
356,156,68880,1,8,0:0:0:0:
484,68,69067,1,0,1:0:0:0:
320,44,69255,6,0,P|256:32|208:52,1,110.999996612549,6|0,0:0|1:0,0:0:0:0:
34,129,69630,2,0,L|144:148,1,110.999996612549,8|0,0:0|1:0,0:0:0:0:
0,244,70005,2,0,L|109:262,1,110.999996612549,8|0,0:0|1:0,0:0:0:0:
260,148,70380,1,8,0:0:0:0:
412,260,70567,1,0,1:0:0:0:
260,376,70755,5,8,0:0:0:0:
180,204,70942,1,0,1:0:0:0:
356,148,71130,1,8,0:0:0:0:
344,332,71317,1,0,1:0:0:0:
260,148,71505,2,0,P|196:120|172:80,1,110.999996612549,8|0,0:0|1:0,0:0:0:0:
441,87,71880,2,0,P|407:130|356:148,1,110.999996612549,8|0,0:0|1:0,0:0:0:0:
112,44,72255,6,0,P|159:15|214:20,1,110.999996612549,8|0,0:0|1:0,0:0:0:0:
244,256,72630,2,0,P|197:284|142:280,1,110.999996612549,8|0,0:0|1:0,0:0:0:0:
80,136,73005,1,8,0:0:0:0:
80,136,73192,1,0,1:0:0:0:
55,373,73380,2,0,L|36:264,1,110.999996612549,8|0,0:0|1:0,0:0:0:0:
32,44,73755,6,0,P|96:32|184:88,1,166.499994918823,6|0,0:0|3:0,0:0:0:0:
232,168,74130,2,0,P|276:112|260:20,1,166.499994918823,6|0,0:0|3:0,0:0:0:0:
360,16,74505,1,6,0:0:0:0:
360,16,74598,1,0,1:0:0:0:
360,16,74692,1,0,3:0:0:0:
360,16,74786,1,0,1:0:0:0:
360,16,74880,2,0,L|480:8,1,110.999996612549,0|0,3:0|1:0,0:0:0:0:
492,232,75255,6,0,L|381:239,1,110.999996612549,6|0,0:0|1:0,0:0:0:0:
230,376,75630,2,0,P|232:321|268:279,1,110.999996612549,8|0,0:0|1:0,0:0:0:0:
219,79,76005,2,0,P|265:108|284:160,1,110.999996612549,8|0,0:0|1:0,0:0:0:0:
120,216,76380,1,8,0:0:0:0:
58,47,76567,1,0,1:0:0:0:
120,216,76755,5,8,0:0:0:0:
228,108,76942,1,0,1:0:0:0:
64,152,77130,1,8,0:0:0:0:
186,280,77317,1,0,1:0:0:0:
228,108,77505,2,0,P|284:84|338:109,1,110.999996612549,8|0,0:0|1:0,0:0:0:0:
496,248,77880,2,0,P|447:271|395:255,1,110.999996612549,8|0,0:0|1:0,0:0:0:0:
440,33,78255,6,0,L|444:144,1,110.999996612549,8|0,0:0|1:0,0:0:0:0:
332,288,78630,1,8,0:0:0:0:
332,288,78817,1,0,1:0:0:0:
368,24,79005,2,0,L|371:134,1,110.999996612549,8|0,0:0|1:0,0:0:0:0:
256,288,79380,1,8,0:0:0:0:
256,288,79567,1,0,1:0:0:0:
396,208,79755,6,0,B|292:232|292:92|176:128,2,221.999993225098,8|8|8,0:0|0:0|0:0,0:0:0:0:
212,204,80692,1,0,1:0:0:0:
380,128,80880,1,0,3:0:0:0:
380,128,80973,1,0,3:0:0:0:
380,128,81067,1,0,1:0:0:0:
332,308,81255,6,0,P|296:356|236:368,1,110.999996612549,6|0,0:0|1:0,0:0:0:0:
103,260,81630,2,0,L|48:164,1,110.999996612549,8|0,0:0|1:0,0:0:0:0:
212,204,82005,2,0,L|185:96,1,110.999996612549,8|0,0:0|1:0,0:0:0:0:
196,312,82380,1,8,0:0:0:0:
128,156,82567,1,0,1:0:0:0:
32,292,82755,5,8,0:0:0:0:
196,312,82942,1,0,1:0:0:0:
128,156,83130,1,8,0:0:0:0:
307,199,83317,1,0,1:0:0:0:
246,27,83505,2,0,P|291:59|346:62,1,110.999996612549,8|0,0:0|1:0,0:0:0:0:
301,261,83880,2,0,P|307:206|281:158,1,110.999996612549,8|0,0:0|1:0,0:0:0:0:
486,99,84255,6,0,P|436:121|407:168,1,110.999996612549,8|0,0:0|1:0,0:0:0:0:
378,324,84630,1,8,0:0:0:0:
378,324,84817,1,0,1:0:0:0:
282,159,85005,1,8,0:0:0:0:
282,159,85192,1,0,1:0:0:0:
156,324,85380,2,0,P|140:264|164:212,1,110.999996612549,8|0,0:0|1:0,0:0:0:0:
48,52,85755,6,0,P|96:104|180:68,1,166.499994918823,6|0,0:0|3:0,0:0:0:0:
272,48,86130,2,0,P|336:48|396:128,1,166.499994918823,6|0,0:0|3:0,0:0:0:0:
408,224,86505,1,6,0:0:0:0:
408,224,86598,1,8,0:0:0:0:
408,224,86692,1,0,3:0:0:0:
408,224,86786,1,8,0:0:0:0:
408,224,86880,2,0,L|412:340,1,110.999996612549,0|8,3:0|0:0,0:0:0:0:
164,324,87255,6,0,P|176:260|212:224,1,110.999996612549,6|0,0:0|1:0,0:0:0:0:
352,100,87630,2,0,P|408:120|448:176,1,110.999996612549,8|0,0:0|1:0,0:0:0:0:
348,324,88005,2,0,P|336:260|300:224,1,110.999996612549,8|0,0:0|1:0,0:0:0:0:
160,100,88380,2,0,P|104:120|64:176,1,110.999996612549,8|0,0:0|1:0,0:0:0:0:
164,324,88755,6,0,P|220:316|292:232,1,166.499994918823,6|0,0:0|3:0,0:0:0:0:
228,160,89130,2,0,P|172:168|100:252,1,166.499994918823,6|0,0:0|3:0,0:0:0:0:
216,260,89505,1,6,0:0:0:0:
216,260,89598,1,8,0:0:0:0:
216,260,89692,1,0,3:0:0:0:
216,260,89786,1,8,0:0:0:0:
216,260,89880,2,0,L|316:188,1,110.999996612549,0|8,3:0|0:0,0:0:0:0:
498,87,90255,6,0,L|408:152,1,110.999996612549,6|0,0:0|1:0,0:0:0:0:
324,296,90630,1,8,0:0:0:0:
324,296,90817,1,0,1:0:0:0:
140,344,91005,1,8,0:0:0:0:
140,344,91192,1,0,1:0:0:0:
164,144,91380,2,0,L|48:180,1,110.999996612549,8|0,0:0|1:0,0:0:0:0:
160,44,91755,6,0,B|216:28|216:28|268:60|268:60|320:44,1,166.499994918823,6|0,0:0|3:0,0:0:0:0:
412,32,92130,2,0,P|459:84|444:192,1,166.499994918823,6|0,0:0|3:0,0:0:0:0:
364,132,92505,2,0,P|355:212|406:275,1,166.499994918823,6|0,0:0|3:0,0:0:0:0:
480,336,92880,2,0,B|441:380|379:367|379:367|324:384,1,166.499994918823,6|0,0:0|3:0,0:0:0:0:
244,328,93255,5,6,0:0:0:0:
256,192,93348,12,8,95505,0:0:0:0:
256,192,96255,5,6,0:0:0:0:
