osu file format v13

[General]
AudioFilename: tiger.mp3
AudioLeadIn: 1500
PreviewTime: 62880
Countdown: 0
SampleSet: Soft
StackLeniency: 0.7
Mode: 0
LetterboxInBreaks: 1
WidescreenStoryboard: 1

[Editor]
DistanceSpacing: 1
BeatDivisor: 4
GridSize: 4
TimelineZoom: 2.1

[Metadata]
Title:Horang Pungryuga
TitleUnicode:호랑풍류가
Artist:Narae
ArtistUnicode:나래
Creator:Dark Fang
Version:captin's Normal
Source:나와 호랑이님
Tags:상록수 scanter captin1 HelloSCV K_i_A_i KiAi
BeatmapID:534950
BeatmapSetID:200187

[Difficulty]
HPDrainRate:4
CircleSize:3.5
OverallDifficulty:4
ApproachRate:5
SliderMultiplier:1.2
SliderTickRate:2

[Events]
//Background and Video events
0,0,"2012_5_2_1336462055.jpg",0,0
Video,0,"PV.avi"
//Break Periods
//Storyboard Layer 0 (Background)
//Storyboard Layer 1 (Fail)
//Storyboard Layer 2 (Pass)
//Storyboard Layer 3 (Foreground)
//Storyboard Sound Samples

[TimingPoints]
255,375,4,2,2,70,1,0
3255,-100,4,2,2,80,0,1
15255,-100,4,2,2,70,0,0
26505,-100,4,2,2,61,0,0
27255,-100,4,2,2,70,0,0
39255,-100,4,2,2,60,0,0
48255,-100,4,2,2,70,0,0
49755,-100,4,2,2,82,0,0
50505,-100,4,2,2,90,0,0
51255,-125,4,2,2,60,0,0
57255,-100,4,2,2,40,0,0
57348,-100,4,2,2,60,0,0
63255,-100,4,2,2,80,0,1
93348,-100,4,2,2,20,0,1
96255,-100,4,2,2,80,0,0

[Colours]
Combo1 : 128,128,192
Combo2 : 128,255,255
Combo3 : 128,255,128
Combo4 : 255,0,128

[HitObjects]
140,164,255,6,0,P|196:184|272:160,1,120,4|8,0:0|0:0,0:0:0:0:
292,128,817,1,0,0:0:0:0:
320,76,1005,2,0,L|452:88,1,120,4|8,0:0|0:0,0:0:0:0:
504,188,1755,2,0,P|444:208|376:188,1,120,4|8,0:0|0:0,0:0:0:0:
336,220,2317,1,2,0:0:0:0:
280,244,2505,1,8,0:0:0:0:
184,168,2880,1,2,0:0:0:0:
72,216,3255,6,0,L|80:344,1,120,4|8,0:0|0:0,0:0:0:0:
196,368,4005,2,0,L|188:240,1,120,0|0,0:0|0:0,0:0:0:0:
160,196,4567,1,8,0:0:0:0:
176,140,4755,1,0,0:0:0:0:
292,116,5130,1,8,0:0:0:0:
364,212,5505,2,0,P|420:224|484:208,1,120,0|0,0:0|0:0,0:0:0:0:
496,92,6255,6,0,P|440:80|376:96,1,120,0|8,0:0|0:0,0:0:0:0:
292,176,7005,2,0,L|232:172,2,60,0|0|0,0:0|0:0|0:0,0:0:0:0:
312,232,7567,1,8,0:0:0:0:
332,288,7755,2,0,L|196:280,1,120,0|8,0:0|0:0,0:0:0:0:
116,352,8505,2,0,P|100:316|104:232,1,120,0|0,0:0|0:0,0:0:0:0:
196,164,9255,6,0,L|208:40,1,120,4|8,0:0|0:0,0:0:0:0:
304,116,10005,2,0,P|356:128|424:120,1,120,0|0,0:0|0:0,0:0:0:0:
476,96,10567,1,8,0:0:0:0:
504,148,10755,1,0,0:0:0:0:
512,268,11130,1,8,0:0:0:0:
428,356,11505,2,0,P|408:328|396:236,1,120,0|0,0:0|0:0,0:0:0:0:
364,128,12255,6,0,L|240:124,1,120,0|8,0:0|0:0,0:0:0:0:
136,176,13005,2,0,L|140:248,1,60,8|0,0:0|0:0,0:0:0:0:
96,276,13380,2,0,L|92:348,1,60,0|8,0:0|0:0,0:0:0:0:
136,376,13755,1,4,0:0:0:0:
240,316,14130,1,4,0:0:0:0:
352,356,14505,2,0,P|400:344|452:292,1,120,4|0,0:0|0:0,0:0:0:0:
508,192,15255,6,0,P|460:176|372:208,1,120,4|8,0:0|0:0,0:0:0:0:
292,256,16005,2,0,L|168:248,1,120,0|8,0:0|0:0,0:0:0:0:
116,272,16567,1,0,0:0:0:0:
64,244,16755,2,0,L|56:184,2,60,0|2|8,0:0|0:0|0:0,0:0:0:0:
112,352,17505,2,0,L|236:360,1,120,0|10,0:0|0:0,0:0:0:0:
308,268,18255,6,0,P|328:196|320:144,1,120,0|8,0:0|0:0,0:0:0:0:
212,196,19005,2,0,L|88:200,1,120,0|8,0:0|0:0,0:0:0:0:
32,212,19567,1,0,0:0:0:0:
4,156,19755,2,0,P|4:96|40:28,1,120,0|8,0:0|0:0,0:0:0:0:
144,8,20505,2,0,P|144:68|108:136,1,120,0|10,0:0|0:0,0:0:0:0:
92,240,21255,6,0,L|240:252,1,120,0|8,0:0|0:0,0:0:0:0:
284,344,22005,2,0,L|403:334,1,120,0|8,0:0|0:0,0:0:0:0:
464,344,22567,1,0,0:0:0:0:
496,292,22755,2,0,P|500:232|480:160,1,120,0|8,0:0|0:0,0:0:0:0:
384,112,23505,2,0,P|300:124|256:116,1,120,0|10,0:0|0:0,0:0:0:0:
160,60,24255,5,0,0:0:0:0:
116,172,24630,2,0,L|128:236,1,60,8|0,0:0|0:0,0:0:0:0:
92,280,25005,2,0,P|148:264|220:268,1,120,0|8,0:0|0:0,0:0:0:0:
324,304,25755,2,0,L|392:296,1,60,0|8,0:0|0:0,0:0:0:0:
436,328,26130,2,0,L|487:283,1,60,8|0,0:0|0:0,0:0:0:0:
512,236,26505,2,0,P|512:204|472:128,1,120,8|0,0:0|0:0,0:0:0:0:
352,116,27255,6,0,L|232:136,1,120,4|8,0:0|0:0,0:0:0:0:
164,232,28005,2,0,P|204:248|292:240,1,120,0|8,0:0|0:0,0:0:0:0:
336,224,28567,1,0,0:0:0:0:
392,244,28755,2,0,B|419:298|419:298|404:360,1,120,0|8,0:0|0:0,0:0:0:0:
284,348,29505,2,0,P|232:344|160:356,1,120,0|10,0:0|0:0,0:0:0:0:
60,296,30255,6,0,P|32:252|48:176,1,120,0|8,0:0|0:0,0:0:0:0:
28,68,31005,2,0,L|156:52,1,120,0|8,0:0|0:0,0:0:0:0:
200,76,31567,1,0,0:0:0:0:
256,100,31755,2,0,L|280:160,2,60,0|2|8,0:0|0:0|0:0,0:0:0:0:
368,52,32505,2,0,P|400:40|496:60,1,120,0|10,0:0|0:0,0:0:0:0:
428,156,33255,6,0,L|440:276,1,120,0|8,0:0|0:0,0:0:0:0:
348,352,34005,2,0,P|292:336|216:348,1,120,0|8,0:0|0:0,0:0:0:0:
176,364,34567,1,0,0:0:0:0:
128,328,34755,2,0,L|108:208,1,120,0|8,0:0|0:0,0:0:0:0:
167,104,35505,2,0,P|210:143|227:200,1,120,0|10,0:0|0:0,0:0:0:0:
159,300,36255,5,0,0:0:0:0:
276,328,36630,2,0,L|360:336,1,60,8|0,0:0|0:0,0:0:0:0:
388,360,37005,2,0,P|420:336|440:252,1,120,0|8,0:0|0:0,0:0:0:0:
400,148,37755,2,0,L|336:136,1,60,8|8,0:0|0:0,0:0:0:0:
312,188,38130,2,0,L|248:200,1,60,8|0,0:0|0:0,0:0:0:0:
200,172,38505,2,0,P|156:180|104:248,1,120,8|0,0:0|0:0,0:0:0:0:
160,340,39255,5,4,0:0:0:0:
276,312,39630,1,0,0:0:0:0:
392,340,40005,2,0,B|476:348|476:348|508:320,1,120,2|0,0:0|0:0,0:0:0:0:
484,204,40755,1,2,0:0:0:0:
504,84,41130,1,0,0:0:0:0:
392,124,41505,2,0,P|352:136|260:124,1,120,2|0,0:0|0:0,0:0:0:0:
224,100,42067,1,0,0:0:0:0:
168,120,42255,5,2,0:0:0:0:
156,240,42630,2,0,L|164:308,1,60,0|0,0:0|0:0,0:0:0:0:
120,340,43005,2,0,L|36:336,1,60,2|0,0:0|0:0,0:0:0:0:
20,292,43380,1,0,0:0:0:0:
52,176,43755,2,0,P|68:120|44:44,2,120,2|0|2,0:0|0:0|0:0,0:0:0:0:
92,220,44692,1,0,0:0:0:0:
152,216,44880,1,0,0:0:0:0:
236,304,45255,5,4,0:0:0:0:
356,288,45630,1,0,0:0:0:0:
476,272,46005,2,0,B|468:212|468:212|408:176,1,120,2|0,0:0|0:0,0:0:0:0:
308,136,46755,1,2,0:0:0:0:
228,228,47130,1,0,0:0:0:0:
128,164,47505,2,0,P|120:116|140:40,1,120,2|0,0:0|0:0,0:0:0:0:
192,32,48067,1,0,0:0:0:0:
248,16,48255,5,2,0:0:0:0:
348,84,48630,2,0,L|420:80,2,60,0|0|2,0:0|0:0|0:0,0:0:0:0:
268,176,49380,1,0,0:0:0:0:
212,284,49755,1,2,0:0:0:0:
332,280,50130,1,2,0:0:0:0:
268,176,50505,1,2,0:0:0:0:
54,66,51255,6,0,P|26:121|81:240,2,192,0|0|0,0:0|0:0|0:0,0:0:0:0:
146,91,53130,1,0,0:0:0:0:
240,72,53505,1,2,0:0:0:0:
390,191,54255,6,0,L|283:189,1,96,0|0,0:0|0:0,0:0:0:0:
259,278,55005,2,0,L|152:280,1,96,2|0,0:0|0:0,0:0:0:0:
84,224,55755,2,0,P|68:173|72:111,2,96,0|2|2,0:0|0:0|0:0,0:0:0:0:
157,162,56880,1,0,0:0:0:0:
251,143,57255,6,0,L|374:144,1,120,4|0,0:0|0:0,0:0:0:0:
431,248,58005,2,0,L|308:249,1,120,2|0,0:0|0:0,0:0:0:0:
223,331,58755,1,0,0:0:0:0:
117,273,59130,1,0,0:0:0:0:
205,191,59505,2,0,P|217:152|221:63,1,120,2|0,0:0|0:0,0:0:0:0:
107,37,60255,6,0,P|95:76|91:165,1,120,0|0,0:0|0:0,0:0:0:0:
101,213,60817,1,0,0:0:0:0:
117,273,61005,2,0,L|243:279,1,120,2|0,0:0|0:0,0:0:0:0:
309,183,61755,1,4,0:0:0:0:
293,64,62130,1,4,0:0:0:0:
198,138,62505,1,4,0:0:0:0:
309,183,62880,1,0,0:0:0:0:
405,111,63255,6,0,P|423:148|420:231,1,120,4|8,0:0|0:0,0:0:0:0:
325,297,64005,2,0,L|195:290,1,120,8|0,0:0|0:0,0:0:0:0:
147,307,64567,1,8,0:0:0:0:
100,268,64755,1,0,0:0:0:0:
169,170,65130,2,0,L|168:94,2,60,8|0|8,0:0|0:0|0:0,0:0:0:0:
282,209,65880,2,0,L|349:207,1,60,0|8,0:0|0:0,0:0:0:0:
397,229,66255,6,0,L|395:107,1,120,0|8,0:0|0:0,0:0:0:0:
290,49,67005,2,0,L|207:33,2,60,0|8|0,0:0|0:0|0:0,0:0:0:0:
300,168,67755,2,0,P|261:191|176:197,2,120,0|8|8,0:0|0:0|0:0,0:0:0:0:
216,80,68880,1,0,0:0:0:0:
107,131,69255,6,0,P|88:187|93:246,1,120,4|8,0:0|0:0,0:0:0:0:
196,309,70005,2,0,L|316:309,1,120,8|0,0:0|0:0,0:0:0:0:
372,289,70567,1,8,0:0:0:0:
428,310,70755,1,0,0:0:0:0:
487,205,71130,2,0,L|496:142,2,60,8|0|8,0:0|0:0|0:0,0:0:0:0:
374,162,71880,2,0,L|365:99,1,60,0|8,0:0|0:0,0:0:0:0:
376,43,72255,6,0,P|319:53|249:45,1,120,0|8,0:0|0:0,0:0:0:0:
166,126,73005,2,0,L|172:197,2,60,8|8|0,0:0|0:0|0:0,0:0:0:0:
52,86,73755,1,4,0:0:0:0:
34,204,74130,1,4,0:0:0:0:
146,161,74505,1,4,0:0:0:0:
52,86,74880,1,0,0:0:0:0:
34,204,75255,6,0,P|32:258|34:327,1,120,4|8,0:0|0:0,0:0:0:0:
139,266,76005,2,0,P|193:268|262:266,1,120,8|0,0:0|0:0,0:0:0:0:
306,302,76567,1,8,0:0:0:0:
365,293,76755,1,0,0:0:0:0:
451,210,77130,2,0,L|445:146,2,60,8|0|8,0:0|0:0|0:0,0:0:0:0:
340,161,77880,2,0,L|334:97,1,60,0|8,0:0|0:0,0:0:0:0:
274,105,78255,6,0,P|250:132|221:210,1,120,0|8,0:0|0:0,0:0:0:0:
318,280,79005,2,0,L|394:292,2,60,0|8|0,0:0|0:0|0:0,0:0:0:0:
209,331,79755,2,0,P|151:304|111:254,2,120,0|8|8,0:0|0:0|0:0,0:0:0:0:
318,280,80880,1,0,0:0:0:0:
432,314,81255,6,0,L|442:191,1,120,4|8,0:0|0:0,0:0:0:0:
476,79,82005,2,0,P|437:61|344:69,1,120,8|0,0:0|0:0,0:0:0:0:
313,98,82567,1,8,0:0:0:0:
253,89,82755,1,0,0:0:0:0:
163,168,83130,2,0,L|167:249,2,60,8|0|8,0:0|0:0|0:0,0:0:0:0:
70,91,83880,2,0,L|66:172,1,60,0|8,0:0|0:0,0:0:0:0:
29,198,84255,6,0,L|37:334,1,120,0|8,0:0|0:0,0:0:0:0:
95,311,84817,1,0,0:0:0:0:
151,331,85005,2,0,L|229:339,2,60,8|8|0,0:0|0:0|0:0,0:0:0:0:
133,212,85755,1,4,0:0:0:0:
184,103,86130,1,4,0:0:0:0:
252,201,86505,1,4,0:0:0:0:
133,212,86880,2,0,L|67:205,1,60,0|0,0:0|0:0,0:0:0:0:
21,175,87255,6,0,P|12:230|22:295,1,120,4|8,0:0|0:0,0:0:0:0:
135,331,88005,2,0,L|77:361,2,60,8|8|0,0:0|0:0|0:0,0:0:0:0:
240,272,88755,1,4,0:0:0:0:
343,333,89130,1,4,0:0:0:0:
344,213,89505,1,4,0:0:0:0:
240,272,89880,2,0,L|174:265,1,60,0|0,0:0|0:0,0:0:0:0:
146,216,90255,6,0,P|131:162|144:92,1,120,4|8,0:0|0:0,0:0:0:0:
256,72,91005,2,0,L|256:12,2,60,0|8|0,0:0|0:0|0:0,0:0:0:0:
256,192,91755,1,4,0:0:0:0:
351,264,92130,1,4,0:0:0:0:
256,192,92505,1,4,0:0:0:0:
161,264,92880,1,4,0:0:0:0:
256,336,93255,5,4,0:0:0:0:
256,192,93348,12,4,96255,0:0:0:0:
