osu file format v13

[General]
AudioFilename: tiger.mp3
AudioLeadIn: 1500
PreviewTime: 62880
Countdown: 0
SampleSet: Soft
StackLeniency: 0.7
Mode: 0
LetterboxInBreaks: 1
WidescreenStoryboard: 1

[Editor]
Bookmarks: 59016
DistanceSpacing: 1.1
BeatDivisor: 4
GridSize: 4
TimelineZoom: 2.6

[Metadata]
Title:Horang Pungryuga
TitleUnicode:호랑풍류가
Artist:Narae
ArtistUnicode:나래
Creator:Dark Fang
Version:SCV's Hard
Source:나와 호랑이님
Tags:상록수 scanter captin1 HelloSCV K_i_A_i KiAi
BeatmapID:556068
BeatmapSetID:200187

[Difficulty]
HPDrainRate:6
CircleSize:4
OverallDifficulty:6
ApproachRate:8
SliderMultiplier:1.55
SliderTickRate:2

[Events]
//Background and Video events
0,0,"2012_5_2_1336462055.jpg",0,0
Video,0,"PV.avi"
//Break Periods
//Storyboard Layer 0 (Background)
//Storyboard Layer 1 (Fail)
//Storyboard Layer 2 (Pass)
//Storyboard Layer 3 (Foreground)
//Storyboard Sound Samples

[TimingPoints]
255,375,4,2,99,70,1,0
3255,-100,4,2,99,80,0,1
14505,-100,4,2,99,50,0,1
15255,-100,4,2,99,60,0,0
27255,-100,4,2,99,60,0,0
39255,-125,4,2,99,60,0,0
40755,-125,4,2,98,50,0,0
40848,-125,4,2,99,60,0,0
46755,-125,4,2,98,50,0,0
46848,-125,4,2,99,60,0,0
51255,-166.666666666667,4,2,99,50,0,0
57255,-125,4,2,99,60,0,0
61755,-100,4,2,99,60,0,0
63255,-100,4,2,99,70,0,1
63817,-100,4,2,97,60,0,1
63911,-100,4,2,99,70,0,1
66442,-100,4,2,97,60,0,1
66536,-100,4,2,99,70,0,1
67942,-100,4,2,97,60,0,1
68036,-100,4,2,99,70,0,1
69817,-100,4,2,97,60,0,1
69911,-100,4,2,99,70,0,1
72442,-100,4,2,97,60,0,1
72536,-100,4,2,99,70,0,1
74880,-100,4,2,99,70,0,0
75255,-100,4,2,99,70,0,1
75817,-100,4,2,97,60,0,1
75911,-100,4,2,99,70,0,1
78442,-100,4,2,97,60,0,1
78536,-100,4,2,99,70,0,1
79942,-100,4,2,97,60,0,1
80036,-100,4,2,99,70,0,1
81817,-100,4,2,97,60,0,1
81911,-100,4,2,99,70,0,1
84442,-100,4,2,97,60,0,1
84536,-100,4,2,99,70,0,1
86880,-100,4,2,99,70,0,0
87255,-100,4,2,99,70,0,1
87442,-100,4,2,97,60,0,1
87536,-100,4,2,99,70,0,1
89880,-100,4,2,99,70,0,0
90255,-100,4,2,99,70,0,1
90442,-100,4,2,97,60,0,1
90536,-100,4,2,99,70,0,1
93348,-100,4,2,99,20,0,1
95505,-100,4,2,99,50,0,1
95880,-100,4,2,99,50,0,0
96255,-100,4,2,99,80,0,1
96348,-100,4,2,99,80,0,0

[Colours]
Combo1 : 128,128,192
Combo2 : 128,255,255
Combo3 : 128,255,128
Combo4 : 255,0,128

[HitObjects]
128,276,255,5,4,0:0:0:0:
128,276,348,1,0,0:0:0:0:
212,264,536,1,0,0:0:0:0:
212,264,630,2,0,L|283:294,1,77.5,0|0,0:0|0:0,0:0:0:0:
364,316,1005,5,4,0:0:0:0:
364,316,1098,1,0,0:0:0:0:
424,256,1286,1,0,0:0:0:0:
424,256,1380,2,0,L|427:178,1,77.5
364,120,1755,5,4,0:0:0:0:
364,120,1848,1,0,0:0:0:0:
396,40,2036,1,0,0:0:0:0:
396,40,2130,2,0,P|436:36|480:56,1,77.5,4|0,0:0|0:0,0:0:0:0:
308,48,2505,2,0,L|224:40,1,77.5,2|0,0:0|0:0,0:0:0:0:
152,72,2880,2,0,P|172:104|220:120,1,77.5,2|0,0:0|0:0,0:0:0:0:
292,136,3255,6,0,L|268:300,1,155,6|2,0:0|0:0,0:0:0:0:
356,300,3818,1,0,0:0:0:0:
392,224,4005,2,0,P|392:184|372:148,1,77.5,2|0,0:0|0:0,0:0:0:0:
292,136,4380,2,0,P|291:174|309:209,1,77.5,2|0,0:0|0:0,0:0:0:0:
240,260,4755,6,0,L|84:268,1,155,2|2,0:0|0:0,0:0:0:0:
24,208,5317,1,0,0:0:0:0:
60,128,5505,2,0,L|138:124,1,77.5,2|0,0:0|0:0,0:0:0:0:
200,68,5880,2,0,L|262:115,1,77.5,2|0,0:0|0:0,0:0:0:0:
348,124,6255,6,0,P|320:164|360:264,1,155,2|2,0:0|0:0,0:0:0:0:
400,188,6817,1,0,0:0:0:0:
240,208,7005,2,0,L|148:216,1,77.5,2|0,0:0|0:0,0:0:0:0:
120,288,7380,2,0,P|160:296|211:279,1,77.5,2|0,0:0|0:0,0:0:0:0:
276,312,7755,2,0,P|327:256|404:268,1,155,2|2,0:0|0:0,0:0:0:0:
356,340,8317,1,0,0:0:0:0:
440,344,8505,6,0,P|469:318|483:282,1,77.5,2|0,0:0|0:0,0:0:0:0:
400,266,8880,2,0,P|379:233|375:195,1,77.5,2|0,0:0|0:0,0:0:0:0:
460,203,9255,2,0,P|479:129|470:52,1,155,6|2,0:0|0:0,0:0:0:0:
388,28,9817,1,0,0:0:0:0:
316,72,10005,6,0,L|232:68,1,77.5,2|0,0:0|0:0,0:0:0:0:
172,124,10380,2,0,L|94:127,1,77.5,2|0,0:0|0:0,0:0:0:0:
36,64,10755,2,0,P|6:132|42:199,1,155,2|2,0:0|0:0,0:0:0:0:
120,232,11317,1,0,0:0:0:0:
196,192,11505,6,0,P|204:230|196:268,1,77.5,2|0,0:0|0:0,0:0:0:0:
160,344,11879,2,0,P|197:351|235:343,1,77.5,2|0,0:0|0:0,0:0:0:0:
316,372,12255,2,0,L|320:208,1,155,2|2,0:0|0:0,0:0:0:0:
244,180,12817,1,0,0:0:0:0:
164,152,13005,6,0,L|156:74,1,77.5,2|0,0:0|0:0,0:0:0:0:
216,16,13380,2,0,P|257:2|301:10,1,77.5,2|0,0:0|0:0,0:0:0:0:
395,76,13755,6,0,P|329:112|259:83,1,155,6|2,0:0|0:0,0:0:0:0:
324,28,14318,1,0,0:0:0:0:
396,76,14505,2,0,L|436:92,1,38.75,8|8,0:0|0:0,0:0:0:0:
464,168,14786,2,0,L|424:184,1,38.75,8|8,0:0|0:0,0:0:0:0:
344,196,15067,1,8,0:0:0:0:
340,280,15255,6,0,B|336:328|300:340|300:340|252:332|224:364,1,155,4|8,0:0|0:0,0:0:0:0:
144,336,15817,1,0,0:0:0:0:
144,336,15911,2,0,L|132:208,1,116.25
116,136,16380,2,0,B|148:112|148:112|192:108,1,77.5,8|0,0:0|0:0,0:0:0:0:
248,168,16755,6,0,P|252:206|272:238,1,77.5
356,264,17130,2,0,P|357:301|338:341,1,77.5,8|0,0:0|0:0,0:0:0:0:
308,364,17411,2,0,L|436:356,1,116.25
484,296,17880,1,8,0:0:0:0:
440,224,18067,1,0,0:0:0:0:
484,152,18255,6,0,B|488:108|464:80|464:80|488:52|476:4,1,155,0|8,0:0|0:0,0:0:0:0:
396,28,18817,1,0,0:0:0:0:
396,28,18911,2,0,L|268:24,1,116.25
220,84,19380,2,0,B|180:88|180:88|142:81,1,77.5,8|0,0:0|0:0,0:0:0:0:
60,56,19755,6,0,L|72:144,1,77.5,0|0,0:0|0:0,0:0:0:0:
148,168,20130,2,0,P|152:206|139:242,1,77.5,8|0,0:0|0:0,0:0:0:0:
112,276,20410,2,0,L|244:298,1,116.25
308,268,20880,1,8,0:0:0:0:
332,188,21067,1,0,0:0:0:0:
404,144,21255,6,0,B|424:180|412:216|412:216|400:256|424:292,1,155,0|8,0:0|0:0,0:0:0:0:
372,360,21817,1,0,0:0:0:0:
372,360,21911,2,0,P|308:344|260:368,1,116.25
180,356,22380,2,0,P|136:372|104:368,1,77.5,8|0,0:0|0:0,0:0:0:0:
132,288,22755,6,0,P|119:251|92:223,1,77.5,0|0,0:0|0:0,0:0:0:0:
12,244,23130,2,0,L|20:156,1,77.5,8|0,0:0|0:0,0:0:0:0:
48,136,23411,2,0,L|36:8,1,116.25
120,8,23880,1,8,0:0:0:0:
192,52,24068,1,0,0:0:0:0:
215,212,24255,6,0,P|145:188|136:116,1,155,0|8,0:0|0:0,0:0:0:0:
192,52,24817,1,0,0:0:0:0:
256,108,25005,2,0,L|416:92,1,155,0|8,0:0|0:0,0:0:0:0:
472,152,25567,1,0,0:0:0:0:
408,208,25755,6,0,L|330:215,1,77.5,0|0,0:0|0:0,0:0:0:0:
272,276,26130,2,0,L|194:269,1,77.5,8|0,0:0|0:0,0:0:0:0:
123,315,26505,2,0,P|110:242|163:189,1,155,8|0,0:0|0:0,0:0:0:0:
194,269,27067,1,0,0:0:0:0:
124,316,27255,6,0,L|60:168,1,155,4|8,0:0|0:0,0:0:0:0:
24,100,27817,1,0,0:0:0:0:
24,100,27911,2,0,P|88:96|132:136,1,116.25
188,188,28380,2,0,P|208:156|208:104,1,77.5,8|0,0:0|0:0,0:0:0:0:
184,36,28755,6,0,L|280:24,1,77.5
340,60,29130,2,0,P|380:68|420:48,1,77.5,8|0,0:0|0:0,0:0:0:0:
448,28,29411,2,0,L|440:148,1,116.25
376,200,29880,1,8,0:0:0:0:
412,276,30067,1,0,0:0:0:0:
472,216,30255,6,0,P|492:292|444:352,1,155,0|8,0:0|0:0,0:0:0:0:
364,348,30817,1,0,0:0:0:0:
364,348,30911,2,0,L|244:376,1,116.25
176,332,31380,2,0,B|140:320|140:320|96:324,1,77.5,8|0,0:0|0:0,0:0:0:0:
60,248,31755,6,0,L|147:240,1,77.5,0|0,0:0|0:0,0:0:0:0:
220,228,32130,2,0,P|243:197|250:160,1,77.5,8|0,0:0|0:0,0:0:0:0:
240,120,32411,2,0,P|300:116|348:152,1,116.25
376,228,32880,1,8,0:0:0:0:
460,228,33067,1,0,0:0:0:0:
480,144,33255,6,0,B|488:100|464:68|464:68|424:60|412:12,1,155,0|8,0:0|0:0,0:0:0:0:
332,44,33817,1,0,0:0:0:0:
332,44,33911,2,0,P|282:15|227:29,1,116.25,0|0,0:0|0:0,0:0:0:0:
164,84,34380,2,0,P|129:100|90:102,1,77.5,8|0,0:0|0:0,0:0:0:0:
16,144,34755,6,0,P|48:176|80:188,1,77.5
164,180,35130,2,0,L|176:264,1,77.5,8|0,0:0|0:0,0:0:0:0:
156,296,35411,2,0,P|212:316|248:368,1,116.25
328,376,35880,1,8,0:0:0:0:
396,328,36067,1,0,0:0:0:0:
340,164,36255,6,0,P|295:224|316:296,1,155,0|8,0:0|0:0,0:0:0:0:
380,240,36817,1,0,0:0:0:0:
340,164,37005,2,0,L|164:180,1,155,0|8,0:0|0:0,0:0:0:0:
112,136,37567,1,0,0:0:0:0:
184,92,37755,6,0,P|220:92|260:72,1,77.5,0|0,0:0|0:0,0:0:0:0:
328,24,38130,2,0,L|420:52,1,77.5,8|0,0:0|0:0,0:0:0:0:
472,0,38505,2,0,L|404:152,1,155
324,140,39068,5,0,0:0:0:0:
304,224,39255,2,0,P|352:264|416:260,1,124,6|2,0:0|0:0,0:0:0:0:
468,200,39817,1,0,0:0:0:0:
500,280,40005,2,0,L|488:344,1,62,2|0,0:0|0:0,0:0:0:0:
400,348,40380,1,2,0:0:0:0:
316,332,40567,6,0,P|255:328|199:374,1,124,0|0,0:0|0:0,0:0:0:0:
140,307,41130,2,0,P|123:333|117:364,1,62,2|0,0:0|0:0,0:0:0:0:
205,364,41504,1,2,0:0:0:0:
236,284,41692,1,0,0:0:0:0:
208,200,41880,6,0,L|200:124,2,62,2|0|2,0:0|0:0|0:0,0:0:0:0:
296,212,42442,1,0,0:0:0:0:
376,248,42630,2,0,P|388:280|388:320,1,62,2|0,0:0|0:0,0:0:0:0:
296,212,43005,2,0,P|295:177|309:140,1,62,2|0,0:0|0:0,0:0:0:0:
432,80,43380,2,0,P|405:96|376:104,1,62,2|0,0:0|0:0,0:0:0:0:
248,88,43755,6,0,P|188:80|128:124,2,124,2|2|2,0:0|0:0|0:0,0:0:0:0:
208,164,44692,2,0,L|220:228,1,62,0|2,0:0|0:0,0:0:0:0:
288,280,45066,5,0,0:0:0:0:
356,224,45255,2,0,P|399:225|455:285,1,124,6|2,0:0|0:0,0:0:0:0:
372,308,45817,1,0,0:0:0:0:
288,280,46005,2,0,L|216:296,1,62,2|0,0:0|0:0,0:0:0:0:
168,360,46380,1,2,0:0:0:0:
100,308,46567,6,0,P|104:252|56:200,1,124,0|0,0:0|0:0,0:0:0:0:
72,116,47130,2,0,P|35:117|10:132,1,62,2|0,0:0|0:0,0:0:0:0:
62,202,47505,2,0,L|136:196,1,62,2|0,0:0|0:0,0:0:0:0:
196,148,47880,5,2,0:0:0:0:
284,156,48067,1,0,0:0:0:0:
236,228,48255,1,2,0:0:0:0:
225,229,48630,5,2,0:0:0:0:
200,144,48817,1,0,0:0:0:0:
285,167,49005,1,2,0:0:0:0:
288,180,49380,6,0,L|274:308,1,124,2|2,0:0|0:0,0:0:0:0:
204,344,49942,1,0,0:0:0:0:
52,282,50130,2,0,P|106:254|164:272,1,124,2|2,0:0|0:0,0:0:0:0:
252,219,51068,5,0,0:0:0:0:
256,136,51255,2,0,L|148:117,1,92.9999971618653,4|2,0:0|0:0,0:0:0:0:
44,236,52005,2,0,L|152:217,1,92.9999971618653,0|2,0:0|0:0,0:0:0:0:
212,248,52567,1,0,0:0:0:0:
268,308,52755,6,0,P|304:316|356:296,1,92.9999971618653,0|2,0:0|0:0,0:0:0:0:
376,216,53317,1,0,0:0:0:0:
380,132,53505,2,0,P|424:148|456:196,1,92.9999971618653,0|2,0:0|0:0,0:0:0:0:
376,216,54067,1,0,0:0:0:0:
308,168,54255,6,0,L|292:68,1,92.9999971618653,0|2,0:0|0:0,0:0:0:0:
212,52,54817,1,0,0:0:0:0:
216,136,55005,2,0,L|180:228,1,92.9999971618653,0|2,0:0|0:0,0:0:0:0:
112,268,55567,1,0,0:0:0:0:
88,188,55755,6,0,P|40:168|0:176,1,92.9999971618653,0|2,0:0|0:0,0:0:0:0:
96,344,56505,2,0,P|147:337|178:310,1,92.9999971618653,0|2,0:0|0:0,0:0:0:0:
232,248,57067,1,0,0:0:0:0:
300,196,57255,6,2,L|372:200,1,62,6|0,0:0|0:0,0:0:0:0:
372,284,57630,2,0,L|310:280,1,62,2|0,0:0|0:0,0:0:0:0:
232,248,58005,2,0,P|216:212|220:176,1,62,2|0,0:0|0:0,0:0:0:0:
192,104,58380,6,0,P|168:84|132:80,1,62,2|0,0:0|0:0,0:0:0:0:
80,196,58755,2,0,P|108:185|128:161,1,62,2|0,0:0|0:0,0:0:0:0:
56,56,59130,2,0,P|50:86|61:114,2,62,2|0|2,0:0|0:0|0:0,0:0:0:0:
138,79,59692,1,0,0:0:0:0:
224,96,59880,2,0,L|296:84,1,62,2|0,0:0|0:0,0:0:0:0:
348,24,60255,6,0,P|362:52|367:89,1,62,2|0,0:0|0:0,0:0:0:0:
323,156,60630,2,0,P|324:186|337:214,1,62,2|0,0:0|0:0,0:0:0:0:
408,164,61005,2,0,L|468:152,1,62,2|0,0:0|0:0,0:0:0:0:
484,236,61380,2,0,L|423:247,1,62,2|8,0:0|0:0,0:0:0:0:
337,214,61755,6,0,P|264:200|196:260,1,155,4|4,0:0|0:0,0:0:0:0:
337,214,62505,5,8,0:0:0:0:
337,214,62599,1,8,0:0:0:0:
376,140,62786,1,8,0:0:0:0:
376,140,62880,1,8,0:0:0:0:
420,212,63067,6,0,P|407:258|378:290,1,77.5,8|6,0:0|0:0,0:0:0:0:
304,292,63442,1,8,0:0:0:0:
292,120,63630,2,0,P|316:78|422:70,1,155,2|2,0:0|0:0,2:0:0:0:
376,140,64192,1,8,0:0:0:0:
292,120,64380,6,0,L|204:112,1,77.5,2|8,0:0|0:0,0:0:0:0:
148,204,64755,2,0,L|226:197,1,77.5,2|8,0:0|0:0,0:0:0:0:
70,169,65130,2,0,P|62:205|74:249,2,77.5,2|8|2,0:0|0:0|0:0,0:0:0:0:
148,204,65692,1,8,0:0:0:0:
192,128,65880,2,0,P|210:89|213:51,1,77.5,2|8,0:0|0:0,0:0:0:0:
296,36,66255,6,0,P|308:80|412:108,1,155,2|2,0:0|0:0,0:0:0:0:
472,64,66817,1,8,0:0:0:0:
508,140,67005,2,0,B|500:180|500:180|512:228,1,77.5,2|8,0:0|0:0,0:0:0:0:
440,264,67380,2,0,L|419:180,1,77.5,2|8,0:0|0:0,0:0:0:0:
344,228,67755,6,0,P|296:196|204:240,1,155,2|2,0:0|0:0,0:0:0:0:
184,308,68317,1,8,0:0:0:0:
108,264,68505,2,0,L|28:272,1,77.5,2|8,0:0|0:0,0:0:0:0:
0,192,68880,1,2,0:0:0:0:
0,192,69067,6,0,B|16:176|16:176|24:112,1,77.5,8|6,0:0|0:0,0:0:0:0:
88,68,69443,1,8,0:0:0:0:
249,102,69630,2,0,P|194:154|119:147,1,155,2|2,0:0|0:0,0:0:0:0:
168,76,70192,1,8,0:0:0:0:
250,102,70380,6,0,L|274:186,1,77.5,2|8,0:0|0:0,0:0:0:0:
348,240,70755,2,0,L|369:165,1,77.5,2|8,0:0|0:0,0:0:0:0:
404,296,71130,2,0,P|368:316|320:316,2,77.5,2|8|2,0:0|0:0|0:0,0:0:0:0:
440,220,71692,1,8,0:0:0:0:
452,136,71880,2,0,L|444:58,1,77.5,2|8,0:0|0:0,0:0:0:0:
360,68,72255,6,0,P|288:88|216:40,1,155,2|2,0:0|0:0,0:0:0:0:
140,32,72817,1,8,0:0:0:0:
80,92,73005,2,0,L|-8:84,2,77.5,2|8|2,0:0|0:0|0:0,0:0:0:0:
136,156,73567,1,8,0:0:0:0:
128,240,73755,5,4,0:0:0:0:
276,324,74130,1,4,0:0:0:0:
280,152,74505,2,0,L|280:112,4,38.75,4|8|8|8|8,0:0|0:0|0:0|0:0|0:0,0:0:0:0:
352,184,75067,6,0,L|344:276,1,77.5,8|6,0:0|0:0,0:0:0:0:
424,296,75442,1,8,0:0:0:0:
408,131,75630,2,0,P|338:106|280:152,1,155,2|2,0:0|0:0,0:0:0:0:
244,228,76192,1,8,0:0:0:0:
184,288,76380,6,0,P|152:304|104:304,1,77.5,2|8,0:0|0:0,0:0:0:0:
40,256,76755,2,0,L|24:172,1,77.5,2|8,0:0|0:0,0:0:0:0:
88,124,77130,2,0,L|96:40,2,77.5,2|8|2,0:0|0:0|0:0,0:0:0:0:
136,196,77692,1,8,0:0:0:0:
192,132,77880,2,0,P|224:111|262:112,1,77.5,2|8,0:0|0:0,0:0:0:0:
248,196,78255,6,0,L|276:28,1,155,2|2,0:0|0:0,0:0:0:0:
356,16,78817,1,8,0:0:0:0:
348,100,79005,2,0,L|428:88,1,77.5,2|8,0:0|0:0,0:0:0:0:
500,48,79380,2,0,P|508:88|496:128,1,77.5,2|8,0:0|0:0,0:0:0:0:
428,172,79755,6,0,B|416:216|440:248|440:248|436:296|388:308,1,155,2|2,0:0|0:0,0:0:0:0:
312,320,80317,1,8,0:0:0:0:
240,272,80505,2,0,P|272:244|312:236,1,77.5,2|8,0:0|0:0,0:0:0:0:
312,320,80880,1,2,0:0:0:0:
236,356,81067,6,0,L|156:340,1,77.5,8|6,0:0|0:0,0:0:0:0:
84,300,81442,1,8,0:0:0:0:
111,131,81630,2,0,P|166:182|156:256,1,155,2|2,0:0|0:0,0:0:0:0:
88,212,82192,1,8,0:0:0:0:
168,188,82380,6,0,L|252:192,1,77.5,2|8,0:0|0:0,0:0:0:0:
325,160,82755,2,0,P|301:124|265:108,1,77.5,2|8,0:0|0:0,0:0:0:0:
244,191,83130,2,0,P|245:229|261:264,2,77.5,2|8|2,0:0|0:0|0:0,0:0:0:0:
328,208,83692,1,8,0:0:0:0:
396,156,83880,2,0,L|384:72,1,77.5,2|8,0:0|0:0,0:0:0:0:
312,124,84255,6,0,P|236:132|184:72,1,155,2|2,0:0|0:0,0:0:0:0:
268,52,84817,1,8,0:0:0:0:
312,124,85005,2,0,L|323:201,2,77.5,2|8|2,0:0|0:0|0:0,0:0:0:0:
396,108,85567,1,8,0:0:0:0:
416,24,85755,5,4,0:0:0:0:
400,192,86130,1,4,0:0:0:0:
252,276,86505,2,0,L|216:244,3,38.75,4|8|8|8,0:0|0:0|0:0|0:0,0:0:0:0:
223,250,86880,2,0,L|215:342,1,77.5,8|8,0:0|0:0,0:0:0:0:
140,368,87255,6,0,P|88:348|60:260,1,155,6|2,0:0|0:0,0:0:0:0:
92,180,87817,1,8,0:0:0:0:
76,96,88005,2,0,L|0:112,2,77.5,2|8|2,0:0|0:0|0:0,0:0:0:0:
128,28,88567,1,8,0:0:0:0:
212,20,88755,5,4,0:0:0:0:
288,60,88942,1,8,0:0:0:0:
288,60,89036,1,8,0:0:0:0:
288,60,89130,1,4,0:0:0:0:
260,140,89318,1,8,0:0:0:0:
260,140,89411,1,8,0:0:0:0:
260,140,89505,2,0,L|256:196,3,38.75,4|8|8|8,0:0|0:0|0:0|0:0,0:0:0:0:
260,140,89880,2,0,L|296:216,1,77.5,8|8,0:0|0:0,0:0:0:0:
368,252,90255,6,0,P|324:236|236:296,1,155,6|2,0:0|0:0,0:0:0:0:
220,372,90817,1,8,0:0:0:0:
152,320,91005,2,0,L|132:240,2,77.5,2|8|2,0:0|0:0|0:0,0:0:0:0:
76,356,91567,1,8,0:0:0:0:
152,320,91755,6,0,L|236:308,1,77.5,4|0,0:0|0:0,0:0:0:0:
373,246,92130,2,0,L|296:256,1,77.5,4|0,0:0|0:0,0:0:0:0:
144,336,92505,6,0,L|228:324,1,77.5,4|0,0:0|0:0,0:0:0:0:
365,262,92880,2,0,L|288:272,1,77.5,4|0,0:0|0:0,0:0:0:0:
136,352,93255,5,4,0:0:0:0:
256,192,93348,12,2,94755,0:0:0:0:
176,224,95505,2,0,L|160:176,3,38.75,8|8|8|8,0:0|0:0|0:0|0:0,0:0:0:0:
196,160,95880,2,0,L|208:80,1,77.5,8|8,0:0|0:0,0:0:0:0:
279,128,96255,6,0,P|348:160|416:128,1,155,6|2,0:0|0:0,0:0:0:0:
348,76,96817,1,0,0:0:0:0:
416,128,97005,2,0,L|432:216,1,77.5,2|0,0:0|0:0,0:0:0:0:
352,236,97380,2,0,L|339:313,1,77.5,2|0,0:0|0:0,0:0:0:0:
256,332,97755,6,0,P|192:296|116:328,1,155,2|2,0:0|0:0,0:0:0:0:
36,328,98317,1,0,0:0:0:0:
76,252,98505,2,0,P|80:216|64:168,1,77.5,2|0,0:0|0:0,0:0:0:0:
36,100,98880,2,0,P|32:64|48:16,1,77.5,2|0,0:0|0:0,0:0:0:0:
116,72,99255,6,0,P|175:32|257:75,1,155,2|2,0:0|0:0,0:0:0:0:
300,128,99817,1,0,0:0:0:0:
336,52,100005,2,0,P|364:24|400:12,1,77.5,2|0,0:0|0:0,0:0:0:0:
408,96,100380,2,0,L|400:180,1,77.5,2|0,0:0|0:0,0:0:0:0:
320,204,100755,6,0,L|340:380,1,155,2|2,0:0|0:0,0:0:0:0:
420,376,101317,1,0,0:0:0:0:
504,360,101505,2,0,P|492:324|456:296,1,77.5,2|0,0:0|0:0,0:0:0:0:
404,236,101880,2,0,P|400:196|416:160,1,77.5,2|0,0:0|0:0,0:0:0:0:
500,176,102255,6,0,B|512:136|484:100|484:100|460:68|470:24,1,155,6|2,0:0|0:0,0:0:0:0:
388,56,102817,1,0,0:0:0:0:
324,116,103005,2,0,L|240:120,1,77.5,2|0,0:0|0:0,0:0:0:0:
208,196,103380,2,0,L|130:192,1,77.5,2|0,0:0|0:0,0:0:0:0:
84,264,103755,6,0,P|43:201|69:131,1,155,2|2,0:0|0:0,0:0:0:0:
152,120,104317,1,0,0:0:0:0:
232,92,104505,2,0,P|248:56|248:16,1,77.5,2|0,0:0|0:0,0:0:0:0:
324,60,104879,2,0,P|360:76|400:76,1,77.5,2|0,0:0|0:0,0:0:0:0:
464,20,105255,6,0,L|428:8,3,38.75,6|8|8|8,0:0|0:0|0:0|0:0,0:0:0:0:
464,20,105630,2,0,L|480:108,1,77.5,10|8,0:0|0:0,0:0:0:0:
476,180,106005,2,0,L|524:164,3,38.75,6|8|8|8,0:0|0:0|0:0|0:0,0:0:0:0:
476,180,106380,2,0,L|396:172,1,77.5,10|8,0:0|0:0,0:0:0:0:
312,172,106755,6,0,P|324:252|268:304,1,155,6|6,0:0|0:0,0:0:0:0:
244,220,107317,1,2,0:0:0:0:
236,136,107505,2,0,P|284:91|379:119,1,155,6|8,0:0|0:0,0:0:0:0:
