osu file format v13

[General]
AudioFilename: tiger.mp3
AudioLeadIn: 1500
PreviewTime: 62880
Countdown: 0
SampleSet: Soft
StackLeniency: 0.7
Mode: 0
LetterboxInBreaks: 1
WidescreenStoryboard: 1

[Editor]
DistanceSpacing: 1
BeatDivisor: 2
GridSize: 8
TimelineZoom: 2.1

[Metadata]
Title:Horang Pungryuga
TitleUnicode:호랑풍류가
Artist:Narae
ArtistUnicode:나래
Creator:Dark Fang
Version:K i A i's Easy
Source:나와 호랑이님
Tags:상록수 scanter captin1 HelloSCV K_i_A_i KiAi
BeatmapID:558940
BeatmapSetID:200187

[Difficulty]
HPDrainRate:2
CircleSize:3
OverallDifficulty:2
ApproachRate:3
SliderMultiplier:1.1
SliderTickRate:2

[Events]
//Background and Video events
0,0,"2012_5_2_1336462055.jpg",0,0
Video,0,"PV.avi"
//Break Periods
//Storyboard Layer 0 (Background)
//Storyboard Layer 1 (Fail)
//Storyboard Layer 2 (Pass)
//Storyboard Layer 3 (Foreground)
//Storyboard Sound Samples

[TimingPoints]
255,375,4,2,99,100,1,0
1755,-100,4,2,99,80,0,0
2130,-100,4,2,99,100,0,0
2505,-100,4,2,0,100,0,0
3255,-100,4,2,99,100,0,1
8130,-100,4,2,97,100,0,1
8317,-100,4,2,99,100,0,1
8880,-100,4,2,97,100,0,1
9067,-100,4,2,99,100,0,1
13380,-100,4,2,97,100,0,1
13567,-100,4,2,99,100,0,1
15255,-100,4,2,99,100,0,0
15630,-100,4,2,97,100,0,0
15817,-100,4,2,99,100,0,0
26130,-100,4,2,97,100,0,0
26317,-100,4,2,99,100,0,0
26505,-100,4,2,2,100,0,0
27255,-100,4,2,99,100,0,0
29130,-100,4,2,97,100,0,0
29317,-100,4,2,99,100,0,0
29880,-100,4,2,97,100,0,0
30067,-100,4,2,99,100,0,0
33630,-100,4,2,97,100,0,0
33817,-100,4,2,99,100,0,0
36630,-100,4,2,97,100,0,0
36817,-100,4,2,99,100,0,0
38505,-100,4,2,2,100,0,0
39255,-100,4,2,99,100,0,0
39630,-100,4,2,97,100,0,0
39817,-100,4,2,99,100,0,0
41130,-100,4,2,97,100,0,0
41317,-100,4,2,99,100,0,0
42630,-100,4,2,97,100,0,0
42817,-100,4,2,99,100,0,0
45630,-100,4,2,97,100,0,0
45817,-100,4,2,99,100,0,0
47130,-100,4,2,97,100,0,0
47317,-100,4,2,99,100,0,0
51255,-100,4,2,0,100,0,0
57255,-100,4,2,99,100,0,0
62505,-100,4,2,0,100,0,0
63255,-100,4,2,99,100,0,1
63630,-100,4,2,97,100,0,1
63817,-100,4,2,99,100,0,1
64380,-100,4,2,97,100,0,1
64567,-100,4,2,99,100,0,1
68130,-100,4,2,97,100,0,1
68317,-100,4,2,99,100,0,1
70380,-100,4,2,97,100,0,1
70567,-100,4,2,99,100,0,1
75067,-100,4,2,99,100,0,0
75255,-100,4,2,99,100,0,1
78630,-100,4,2,97,100,0,1
78817,-100,4,2,99,100,0,1
92505,-100,4,2,0,100,0,1
92880,-100,4,2,99,100,0,1
93348,-100,4,2,99,100,0,1
96255,-100,4,2,99,100,0,0

[Colours]
Combo1 : 128,128,192
Combo2 : 128,255,255
Combo3 : 128,255,128
Combo4 : 255,0,128

[HitObjects]
388,272,255,6,0,P|412:320|412:376,2,110,4|8|4,0:0|0:0|0:0,0:0:0:0:
308,348,1380,1,8,0:0:0:0:
200,336,1755,2,0,L|48:320,2,110,4|12|4,0:1|0:0|0:0,0:0:0:0:
48,176,3255,6,0,L|200:192,1,110,4|8,0:0|0:0,0:0:0:0:
248,128,4005,2,0,P|272:80|272:24,1,110,2|8,0:0|0:0,0:0:0:0:
168,56,4755,1,2,0:0:0:0:
144,160,5130,1,8,0:0:0:0:
224,232,5505,2,0,P|280:232|328:256,1,110,2|8,0:0|0:0,0:0:0:0:
256,336,6255,6,0,P|200:336|152:312,2,110,2|8|2,0:0|0:0|0:0,0:0:0:0:
328,256,7380,1,8,0:0:0:0:
272,160,7755,2,0,P|376:160|436:256,2,220,2|2|4,0:0|0:0|0:0,0:0:0:0:
216,256,9630,6,0,L|208:368,2,110,8|2|8,0:0|0:0|0:0,0:0:0:0:
152,160,10755,2,0,P|96:152|40:160,1,110,2|8,0:0|0:0,0:0:0:0:
8,264,11505,2,0,P|64:272|120:264,1,110,2|8,0:0|0:0,0:0:0:0:
152,160,12255,6,0,L|144:48,1,110,2|8,0:0|0:0,0:0:0:0:
248,0,13005,2,0,B|256:112|256:112|344:176,1,220,2|4,0:0|0:1,0:0:0:0:
448,128,14130,2,0,L|456:16,2,110,12|8|8,0:0|0:0|0:0,0:0:0:0:
360,192,15255,6,0,P|256:192|192:280,1,220,4|0,0:0|0:0,0:0:0:0:
304,296,16380,1,8,0:0:0:0:
232,384,16755,2,0,L|120:376,3,110,0|8|0|8,0:0|0:0|0:0|0:0,0:0:0:0:
72,272,18255,6,0,P|80:216|72:160,1,110,0|8,0:0|0:0,0:0:0:0:
128,72,19005,2,0,P|72:64|16:72,2,110,0|8|0,0:0|0:0|0:0,0:0:0:0:
184,168,20130,2,0,P|240:176|296:168,2,110,8|0|8,0:0|0:0|0:0,0:0:0:0:
80,192,21255,6,0,P|80:136|112:88,1,110,0|8,0:0|0:0,0:0:0:0:
200,24,22005,2,0,P|256:24|304:56,1,110,0|8,0:0|0:0,0:0:0:0:
224,128,22755,1,0,0:0:0:0:
304,200,23130,2,0,P|256:232|200:232,2,110,8|0|8,0:0|0:0|0:0,0:0:0:0:
384,128,24255,6,0,L|496:128,2,110,0|8|0,0:0|0:0|0:0,0:0:0:0:
280,80,25380,1,8,0:0:0:0:
296,192,25755,2,0,B|336:232|336:232|440:232|440:232|488:280,1,220,0|8,0:0|0:0,0:0:0:0:
488,384,26880,1,8,0:0:0:0:
384,352,27255,6,0,L|272:352,1,110,4|8,0:0|0:0,0:0:0:0:
192,272,28005,2,0,P|184:216|192:160,1,110,0|8,0:0|0:0,0:0:0:0:
144,64,28755,2,0,P|248:64|304:160,2,220,0|0|0,0:0|0:0|0:0,0:0:0:0:
64,144,30630,6,0,P|32:96|32:40,2,110,8|0|8,0:0|0:0|0:0,0:0:0:0:
168,176,31755,2,0,L|160:288,1,110,0|8,0:0|0:0,0:0:0:0:
264,248,32505,2,0,L|272:136,1,110,0|8,0:0|0:0,0:0:0:0:
376,96,33255,6,0,L|360:320,1,220
448,384,34380,1,8,0:0:0:0:
496,280,34755,2,0,L|488:168,1,110,0|8,0:0|0:0,0:0:0:0:
472,64,35505,1,0,0:0:0:0:
384,136,35880,1,8,0:0:0:0:
368,24,36255,6,0,P|264:24|200:112,1,220
312,128,37380,2,0,B|320:184|320:184|312:240,1,110,8|0,0:0|0:0,0:0:0:0:
216,296,38130,2,0,B|208:240|208:240|216:184,1,110,8|8,0:0|0:0,0:0:0:0:
216,72,38880,1,8,0:0:0:0:
312,128,39255,6,0,P|464:128|512:280,1,330,4|8,0:1|0:0,0:0:0:0:
448,360,40755,2,0,P|296:360|248:208,1,330,0|8,0:0|0:0,0:0:0:0:
312,128,42255,6,0,B|200:136|200:136|112:72,1,220
24,136,43380,1,8,0:0:0:0:
72,240,43755,2,0,P|120:216|176:216,3,110,0|8|0|8,0:0|0:0|0:0|0:0,0:0:0:0:
144,320,45255,6,0,P|296:320|344:168,1,330,4|8,0:1|0:0,0:0:0:0:
288,80,46755,2,0,P|136:80|88:232,1,330,0|8,0:0|0:0,0:0:0:0:
144,320,48255,6,0,P|256:304|360:320,1,220,8|8,0:0|0:0,0:0:0:0:
472,128,49755,2,0,P|360:144|256:128,1,220,8|10,0:0|0:0,0:0:0:0:
256,348,51255,5,4,0:0:0:0:
104,192,52755,1,2,0:0:0:0:
256,40,54255,5,2,0:0:0:0:
416,192,55755,1,2,0:0:0:0:
256,128,57255,6,0,L|256:352,3,220,4|2|2|2,0:0|0:0|0:0|0:0,0:0:0:0:
176,144,60255,6,0,P|256:208|336:144,1,220,2|2,0:0|0:0,0:0:0:0:
200,320,61755,2,0,P|256:328|312:320,2,110,4|12|4,0:1|0:0|0:0,0:0:0:0:
184,104,63255,6,0,P|80:104|16:192,2,220,4|2|2,0:0|0:0|0:0,0:0:0:0:
264,184,65130,2,0,L|376:176,1,110,8|2,0:0|0:0,0:0:0:0:
416,72,65880,1,8,0:0:0:0:
480,168,66255,6,0,P|488:224|480:280,1,110,2|8,0:0|0:0,0:0:0:0:
384,336,67005,2,0,P|376:280|384:224,1,110,2|8,0:0|0:0,0:0:0:0:
464,152,67755,2,0,P|360:152|296:48,1,220,2|2,0:0|0:0,0:0:0:0:
408,56,68880,1,8,0:0:0:0:
464,152,69255,6,0,L|456:264,1,110,4|8,0:0|0:0,0:0:0:0:
448,368,70005,2,0,P|336:352|232:368,1,220,2|2,0:0|0:0,0:0:0:0:
128,328,71130,1,8,0:0:0:0:
72,232,71505,2,0,L|80:120,1,110,2|8,0:0|0:0,0:0:0:0:
128,24,72255,6,0,P|184:16|240:24,1,110,2|8,0:0|0:0,0:0:0:0:
296,120,73005,2,0,P|240:128|184:120,1,110,2|8,0:0|0:0,0:0:0:0:
80,120,73755,1,12,0:0:0:0:
72,232,74130,1,12,0:0:0:0:
128,328,74505,1,12,0:0:0:0:
128,328,75255,6,0,L|240:320,1,110,4|8,0:0|0:0,0:0:0:0:
336,368,76005,2,0,L|448:360,1,110,2|8,0:0|0:0,0:0:0:0:
504,264,76755,2,0,P|512:208|504:152,1,110,2|8,0:0|0:0,0:0:0:0:
408,208,77505,2,0,P|400:152|408:96,1,110,2|8,0:0|0:0,0:0:0:0:
456,0,78255,6,0,P|352:0|296:96,1,220,2|2,0:0|0:0,0:0:0:0:
184,88,79380,1,8,0:0:0:0:
240,184,79755,2,0,P|184:192|128:184,3,110,0|8|0|8,0:0|0:0|0:0|0:0,0:0:0:0:
184,88,81255,5,4,0:0:0:0:
232,0,81630,2,0,L|344:8,1,110,8|2,0:0|0:0,0:0:0:0:
456,16,82380,1,8,0:0:0:0:
392,104,82755,2,0,P|384:160|392:216,1,110,0|8,0:0|0:0,0:0:0:0:
488,272,83505,2,0,P|496:216|488:160,2,110,0|8|0,0:0|0:0|0:0,0:0:0:0:
408,352,84630,5,8,0:0:0:0:
312,288,85005,2,0,L|320:176,1,110,2|8,0:0|0:0,0:0:0:0:
328,72,85755,1,12,0:0:0:0:
424,128,86130,1,12,0:0:0:0:
416,240,86505,1,12,0:0:0:0:
416,240,87255,6,0,L|304:232,1,110,4|8,0:0|0:0,0:0:0:0:
216,296,88005,2,0,L|104:288,1,110,2|8,0:0|0:0,0:0:0:0:
0,280,88755,1,12,0:0:0:0:
56,184,89130,1,12,0:0:0:0:
168,192,89505,1,12,0:0:0:0:
168,192,90255,6,0,P|160:136|168:80,1,110,4|8,0:0|0:0,0:0:0:0:
256,16,91005,2,0,P|264:72|256:128,1,110,2|8,0:0|0:0,0:0:0:0:
168,192,91755,5,4,0:1:0:0:
200,296,92130,1,12,0:0:0:0:
312,296,92505,1,4,0:0:0:0:
344,192,92880,1,12,0:0:0:0:
256,128,93255,1,4,0:0:0:0:
256,192,93348,12,4,96255,0:0:0:0:
