osu file format v13

[General]
AudioFilename: tiger.mp3
AudioLeadIn: 1500
PreviewTime: 62880
Countdown: 0
SampleSet: Soft
StackLeniency: 0.7
Mode: 0
LetterboxInBreaks: 1
WidescreenStoryboard: 1

[Editor]
Bookmarks: 59016
DistanceSpacing: 0.6
BeatDivisor: 4
GridSize: 4
TimelineZoom: 2.1

[Metadata]
Title:Horang Pungryuga
TitleUnicode:호랑풍류가
Artist:Narae
ArtistUnicode:나래
Creator:Dark Fang
Version:Insane
Source:나와 호랑이님
Tags:상록수 scanter captin1 HelloSCV K_i_A_i KiAi
BeatmapID:474591
BeatmapSetID:200187

[Difficulty]
HPDrainRate:7.2
CircleSize:4.2
OverallDifficulty:8.5
ApproachRate:9.1
SliderMultiplier:1.92
SliderTickRate:2

[Events]
//Background and Video events
0,0,"2012_5_2_1336462055.jpg",0,0
Video,0,"PV.avi"
//Break Periods
//Storyboard Layer 0 (Background)
//Storyboard Layer 1 (Fail)
//Storyboard Layer 2 (Pass)
//Storyboard Layer 3 (Foreground)
//Storyboard Sound Samples

[TimingPoints]
255,375,4,2,2,70,1,0
3255,-100,4,2,2,80,0,1
14036,-100,4,2,2,5,0,1
14130,-100,4,2,2,80,0,1
14411,-100,4,2,2,5,0,1
14505,-100,4,2,2,80,0,1
15255,-100,4,2,2,70,0,0
26505,-100,4,2,2,61,0,0
27255,-100,4,2,2,70,0,0
39255,-100,4,2,2,60,0,0
48255,-100,4,2,2,70,0,0
49755,-100,4,2,2,82,0,0
50505,-100,4,2,2,90,0,0
51255,-133.333333333333,4,2,2,57,0,0
57255,-100,4,2,2,60,0,0
61755,-100,4,2,2,70,0,0
62036,-100,4,2,2,5,0,0
62130,-100,4,2,2,70,0,0
62411,-100,4,2,2,5,0,0
62505,-100,4,2,2,70,0,0
63255,-100,4,2,2,80,0,1
74036,-100,4,2,2,5,0,1
74130,-100,4,2,2,80,0,1
74411,-100,4,2,2,5,0,1
74505,-100,4,2,2,80,0,1
86036,-100,4,2,2,5,0,1
86130,-100,4,2,2,80,0,1
86411,-100,4,2,2,5,0,1
86505,-100,4,2,2,80,0,1
89036,-100,4,2,2,5,0,1
89130,-100,4,2,2,80,0,1
89411,-100,4,2,2,5,0,1
89505,-100,4,2,2,80,0,1
92036,-100,4,2,2,5,0,1
92130,-100,4,2,2,80,0,1
92411,-100,4,2,2,5,0,1
92505,-100,4,2,2,80,0,1
92786,-100,4,2,2,5,0,1
92880,-100,4,2,2,80,0,1
93161,-100,4,2,2,5,0,1
93255,-100,4,2,2,80,0,1
93348,-100,4,2,2,20,0,1
96255,-100,4,2,2,80,0,0

[Colours]
Combo1 : 128,128,192
Combo2 : 128,255,255
Combo3 : 128,255,128
Combo4 : 255,0,128

[HitObjects]
176,188,255,5,0,0:0:0:0:
176,188,348,1,8,0:0:0:0:
348,152,536,1,0,0:0:0:0:
348,151,630,2,0,P|377:115|377:68,1,96,8|0,0:0|0:0,0:0:0:0:
150,38,1005,5,0,0:0:0:0:
150,38,1098,1,8,0:0:0:0:
98,198,1286,1,0,0:0:0:0:
98,198,1380,2,0,P|74:238|74:286,1,96,8|0,0:0|0:0,0:0:0:0:
276,356,1755,5,0,0:0:0:0:
276,356,1848,2,0,P|322:347|355:313,1,96,8|0,0:0|0:0,0:0:0:0:
400,248,2130,2,0,L|339:224,1,48,8|0,0:0|0:0,0:0:0:0:
332,124,2317,2,0,L|392:147,1,48,8|0,0:0|0:0,0:0:0:0:
284,204,2505,6,0,L|177:161,1,96,0|0,0:0|0:0,0:0:0:0:
144,20,2880,2,0,L|251:63,1,96,2|0,0:0|0:0,0:0:0:0:
360,176,3255,6,0,P|352:245|294:284,1,144,4|0,0:0|0:0,0:0:0:0:
263,279,3630,2,0,P|216:276|174:297,1,96,8|0,0:0|0:0,0:0:0:0:
32,152,4005,2,0,P|52:194|92:220,1,96
224,224,4380,2,0,P|266:203|292:163,1,96,0|8,0:0|0:0,0:0:0:0:
166,80,4755,2,0,L|160:224,1,144
160,252,5130,1,8,0:0:0:0:
336,312,5317,1,0,0:0:0:0:
239,311,5505,6,0,P|249:265|284:233,1,96
429,118,5880,2,0,P|383:128|352:164,1,96,0|8,0:0|0:0,0:0:0:0:
168,216,6255,2,0,P|231:188|248:120,1,144
232,96,6630,2,0,P|224:48|252:0,1,96,8|0,0:0|0:0,0:0:0:0:
384,32,7005,1,0,0:0:0:0:
420,216,7192,1,0,0:0:0:0:
429,118,7380,1,0,0:0:0:0:
340,268,7567,1,8,0:0:0:0:
429,118,7755,6,0,P|352:124|301:83,1,144
287,59,8130,2,0,P|244:40|197:45,1,96,8|0,0:0|0:0,0:0:0:0:
56,160,8505,5,0,0:0:0:0:
96,340,8692,1,0,0:0:0:0:
236,144,8880,1,0,0:0:0:0:
180,319,9067,1,8,0:0:0:0:
395,224,9255,6,0,P|327:238|268:200,1,144
255,171,9630,2,0,P|246:124|214:89,1,96,8|0,0:0|0:0,0:0:0:0:
160,168,10005,1,0,0:0:0:0:
340,156,10192,1,0,0:0:0:0:
120,80,10380,2,0,P|82:109|65:153,1,96,0|8,0:0|0:0,0:0:0:0:
180,319,10755,6,0,L|352:296,1,144,0|0,0:0|0:0,0:0:0:0:
352,296,11130,2,0,P|388:325|400:371,1,96,8|0,0:0|0:0,0:0:0:0:
280,230,11505,2,0,L|340:156,1,96
510,77,11880,2,0,L|416:96,1,96,0|8,0:0|0:0,0:0:0:0:
319,96,12255,6,0,P|249:91|197:43,1,144
184,20,12630,2,0,P|192:66|176:111,1,96,8|0,0:0|0:0,0:0:0:0:
64,312,13005,2,0,P|55:265|71:220,1,96,8|0,0:0|0:0,0:0:0:0:
248,136,13380,1,0,0:0:0:0:
140,188,13567,1,8,0:0:0:0:
280,230,13755,6,0,P|347:247|403:205,1,144,4|0,0:0|0:0,0:0:0:0:
248,136,14130,2,0,P|199:185|207:255,1,144,4|0,0:0|0:0,0:0:0:0:
345,155,14505,2,0,P|326:87|261:60,1,144,4|0,0:0|0:0,0:0:0:0:
261,60,14880,2,0,L|165:63,1,96,8|0,0:0|0:0,0:0:0:0:
44,200,15255,5,4,0:0:0:0:
44,200,15348,2,0,L|139:196,1,96,8|0,0:0|0:0,0:0:0:0:
208,160,15630,2,0,P|236:112|236:64,1,96,8|0,0:0|0:0,0:0:0:0:
139,196,16005,5,0,0:0:0:0:
139,196,16098,2,0,P|171:231|220:240,1,96,10|0,0:0|0:0,0:0:0:0:
280,196,16380,2,0,L|374:178,1,96,8|0,0:0|0:0,0:0:0:0:
444,208,16661,1,8,0:0:0:0:
492,268,16755,2,0,P|496:328|476:360,1,96,0|2,0:0|0:0,0:0:0:0:
374,179,17130,6,0,P|370:119|390:87,1,96,8|0,0:0|0:0,0:0:0:0:
452,48,17411,1,8,0:0:0:0:
288,104,17598,1,2,0:0:0:0:
288,104,17692,2,0,P|242:116|197:101,1,96,8|2,0:0|0:0,0:0:0:0:
64,176,18067,2,0,L|40:232,1,48,8|0,0:0|0:0,0:0:0:0:
88,284,18255,5,0,0:0:0:0:
88,284,18348,2,0,P|127:309|175:307,1,96,8|0,0:0|0:0,0:0:0:0:
248,276,18630,2,0,P|277:238|280:191,1,96,8|0,0:0|0:0,0:0:0:0:
136,44,19005,5,0,0:0:0:0:
136,44,19098,2,0,L|232:48,1,96,10|0,0:0|0:0,0:0:0:0:
288,104,19380,2,0,L|384:108,1,96,8|0,0:0|0:0,0:0:0:0:
440,164,19661,1,8,0:0:0:0:
495,220,19755,2,0,P|454:243|408:236,1,96,0|2,0:0|0:0,0:0:0:0:
200,119,20130,6,0,P|241:96|288:104,1,96,8|0,0:0|0:0,0:0:0:0:
344,156,20411,1,8,0:0:0:0:
112,152,20598,1,2,0:0:0:0:
112,152,20692,2,0,P|64:152|28:183,1,96,8|2,0:0|0:0,0:0:0:0:
128,300,21067,2,0,L|180:316,1,48,8|0,0:0|0:0,0:0:0:0:
248,288,21255,5,0,0:0:0:0:
248,287,21348,2,0,P|290:268|336:280,1,96,8|0,0:0|0:0,0:0:0:0:
412,299,21630,2,0,P|456:283|483:245,1,96,8|0,0:0|0:0,0:0:0:0:
448,60,22005,5,0,0:0:0:0:
448,60,22098,2,0,L|404:152,1,96,10|0,0:0|0:0,0:0:0:0:
332,168,22380,2,0,L|252:113,1,96,8|0,0:0|0:0,0:0:0:0:
188,72,22661,1,8,0:0:0:0:
112,88,22755,2,0,P|96:140|112:192,1,96,0|2,0:0|0:0,0:0:0:0:
324,259,23130,6,0,P|340:214|332:168,1,96,8|0,0:0|0:0,0:0:0:0:
288,104,23411,1,8,0:0:0:0:
232,256,23598,1,2,0:0:0:0:
231,256,23692,2,0,P|241:302|277:332,1,96,8|2,0:0|0:0,0:0:0:0:
424,280,24067,2,0,L|440:224,1,48,8|0,0:0|0:0,0:0:0:0:
428,156,24255,5,0,0:0:0:0:
428,156,24348,2,0,B|408:112|408:112|421:94|424:68,1,96,8|0,0:0|0:0,0:0:0:0:
348,64,24630,2,0,P|300:72|256:48,1,96,8|0,0:0|0:0,0:0:0:0:
192,16,24911,1,8,0:0:0:0:
116,32,25005,2,0,L|80:132,1,96,0|8,0:0|0:0,0:0:0:0:
180,352,25380,6,0,L|216:252,1,96,8|0,0:0|0:0,0:0:0:0:
188,188,25661,1,8,0:0:0:0:
111,196,25755,2,0,P|64:197|24:172,1,96,0|8,0:0|0:0,0:0:0:0:
264,180,26130,2,0,L|368:196,1,96,8|0,0:0|0:0,0:0:0:0:
420,148,26411,1,0,0:0:0:0:
484,104,26505,6,0,L|476:52,1,48,8|8,0:0|0:0,0:0:0:0:
360,196,26786,2,0,L|368:248,1,48,8|8,0:0|0:0,0:0:0:0:
484,32,27067,1,8,0:0:0:0:
360,268,27255,5,4,0:0:0:0:
359,268,27348,2,0,P|315:285|269:276,1,96,8|0,0:0|0:0,0:0:0:0:
196,244,27630,2,0,L|100:255,1,96,8|0,0:0|0:0,0:0:0:0:
260,200,28005,5,0,0:0:0:0:
260,200,28098,2,0,L|308:112,1,96,10|0,0:0|0:0,0:0:0:0:
271,44,28380,2,0,P|226:58|180:48,1,96,8|0,0:0|0:0,0:0:0:0:
104,56,28661,1,8,0:0:0:0:
64,120,28755,2,0,P|49:165|14:197,1,96,0|2,0:0|0:0,0:0:0:0:
196,244,29130,6,0,P|231:274|278:274,1,96,8|0,0:0|0:0,0:0:0:0:
336,220,29411,1,8,0:0:0:0:
364,63,29598,1,2,0:0:0:0:
364,63,29692,2,0,L|271:44,1,96,8|2,0:0|0:0,0:0:0:0:
104,56,30067,2,0,L|92:124,1,48,8|0,0:0|0:0,0:0:0:0:
120,176,30255,5,0,0:0:0:0:
120,176,30348,2,0,P|116:236|88:280,1,96,8|0,0:0|0:0,0:0:0:0:
140,331,30630,2,0,P|187:329|233:343,1,96,8|0,0:0|0:0,0:0:0:0:
336,220,31005,5,0,0:0:0:0:
336,220,31098,2,0,L|288:136,1,96,10|0,0:0|0:0,0:0:0:0:
308,60,31380,2,0,L|396:20,1,96,8|0,0:0|0:0,0:0:0:0:
448,76,31661,1,8,0:0:0:0:
500,132,31755,2,0,P|512:192|500:224,1,96,0|2,0:0|0:0,0:0:0:0:
336,311,32130,6,0,P|323:265|336:220,1,96,8|0,0:0|0:0,0:0:0:0:
384,160,32411,1,8,0:0:0:0:
248,228,32598,1,2,0:0:0:0:
247,228,32692,2,0,P|200:233|155:217,1,96,8|2,0:0|0:0,0:0:0:0:
84,32,33067,2,0,L|118:65,1,48,8|0,0:0|0:0,0:0:0:0:
180,112,33255,5,0,0:0:0:0:
180,112,33348,2,0,L|266:70,1,96,8|0,0:0|0:0,0:0:0:0:
344,76,33630,2,0,L|421:132,1,96,8|0,0:0|0:0,0:0:0:0:
512,260,34005,5,0,0:0:0:0:
512,261,34098,2,0,P|469:279|423:268,1,96,10|0,0:0|0:0,0:0:0:0:
344,276,34380,2,0,P|309:307|262:313,1,96,8|0,0:0|0:0,0:0:0:0:
188,288,34661,1,8,0:0:0:0:
112,284,34755,2,0,P|79:318|71:365,1,96,0|2,0:0|0:0,0:0:0:0:
252,236,35130,6,0,P|262:189|246:145,1,96,8|0,0:0|0:0,0:0:0:0:
180,112,35411,1,8,0:0:0:0:
261,312,35598,1,2,0:0:0:0:
261,312,35692,2,0,P|308:307|344:276,1,96,8|2,0:0|0:0,0:0:0:0:
420,140,36067,2,0,L|396:80,1,48,8|0,0:0|0:0,0:0:0:0:
340,48,36255,5,0,0:0:0:0:
340,48,36348,2,0,P|295:64|250:51,1,96,8|0,0:0|0:0,0:0:0:0:
172,36,36630,2,0,P|126:23|82:39,1,96,8|0,0:0|0:0,0:0:0:0:
44,188,37005,5,0,0:0:0:0:
44,188,37098,2,0,L|136:252,1,96,8|0,0:0|0:0,0:0:0:0:
200,232,37380,2,0,L|292:296,1,96,8|0,0:0|0:0,0:0:0:0:
356,276,37661,1,8,0:0:0:0:
433,265,37755,5,8,0:0:0:0:
420,140,37942,1,8,0:0:0:0:
316,72,38130,1,8,0:0:0:0:
192,60,38317,1,8,0:0:0:0:
84,120,38505,5,0,0:0:0:0:
84,120,38598,2,0,P|128:160|176:160,1,96,8|0,0:0|0:0,0:0:0:0:
240,180,38880,2,0,P|285:194|329:178,1,96,8|0,0:0|0:0,0:0:0:0:
408,48,39255,5,4,0:0:0:0:
420,140,39442,1,0,0:0:0:0:
428,156,39536,1,0,0:0:0:0:
436,172,39630,1,0,0:0:0:0:
312,116,39817,5,0,0:0:0:0:
320,132,39911,1,0,0:0:0:0:
328,148,40005,1,0,0:0:0:0:
204,92,40192,5,0,0:0:0:0:
212,108,40286,1,0,0:0:0:0:
220,124,40380,1,0,0:0:0:0:
96,68,40567,5,0,0:0:0:0:
104,84,40661,1,0,0:0:0:0:
112,100,40755,2,0,L|153:186,1,96
144,204,41036,1,0,0:0:0:0:
136,220,41130,1,0,0:0:0:0:
268,176,41317,5,0,0:0:0:0:
258,193,41411,1,0,0:0:0:0:
250,209,41505,1,0,0:0:0:0:
382,165,41692,5,0,0:0:0:0:
372,182,41786,1,0,0:0:0:0:
364,198,41880,1,0,0:0:0:0:
364,216,41973,1,0,0:0:0:0:
372,232,42067,1,0,0:0:0:0:
388,240,42161,1,0,0:0:0:0:
408,240,42255,6,0,L|436:136,1,96
424,128,42536,1,0,0:0:0:0:
416,112,42630,1,0,0:0:0:0:
304,168,42817,5,0,0:0:0:0:
295,148,42911,1,0,0:0:0:0:
287,132,43005,1,0,0:0:0:0:
176,189,43192,5,0,0:0:0:0:
167,169,43286,1,0,0:0:0:0:
159,153,43380,1,0,0:0:0:0:
152,136,43473,1,0,0:0:0:0:
144,152,43567,1,0,0:0:0:0:
136,168,43661,1,0,0:0:0:0:
127,184,43755,6,0,B|115:231|115:231|146:266,1,96
164,268,44036,1,0,0:0:0:0:
184,272,44130,2,0,L|300:312,1,96
288,316,44411,1,0,0:0:0:0:
300,328,44505,5,0,0:0:0:0:
420,292,44692,1,0,0:0:0:0:
464,176,44880,1,0,0:0:0:0:
416,64,45067,1,0,0:0:0:0:
300,108,45255,5,4,0:0:0:0:
180,80,45442,1,0,0:0:0:0:
168,64,45536,1,0,0:0:0:0:
156,48,45630,1,0,0:0:0:0:
121,201,45817,5,0,0:0:0:0:
101,204,45911,1,0,0:0:0:0:
81,206,46005,1,0,0:0:0:0:
197,313,46192,5,0,0:0:0:0:
189,332,46286,1,0,0:0:0:0:
181,350,46380,1,0,0:0:0:0:
332,304,46567,5,0,0:0:0:0:
343,320,46661,1,0,0:0:0:0:
356,336,46755,1,0,0:0:0:0:
430,177,46942,5,0,0:0:0:0:
410,180,47036,1,0,0:0:0:0:
390,182,47130,1,0,0:0:0:0:
255,103,47317,5,0,0:0:0:0:
276,100,47411,1,0,0:0:0:0:
295,98,47505,1,0,0:0:0:0:
232,224,47692,5,0,0:0:0:0:
211,227,47786,1,0,0:0:0:0:
192,224,47880,1,0,0:0:0:0:
176,216,47973,1,0,0:0:0:0:
164,200,48067,1,0,0:0:0:0:
164,180,48161,1,0,0:0:0:0:
176,164,48255,6,0,L|216:264,1,96
208,272,48536,1,0,0:0:0:0:
200,292,48630,1,0,0:0:0:0:
200,312,48723,1,0,0:0:0:0:
208,332,48817,1,0,0:0:0:0:
220,344,48911,1,0,0:0:0:0:
236,352,49005,1,0,0:0:0:0:
256,352,49098,1,0,0:0:0:0:
276,344,49192,1,0,0:0:0:0:
288,332,49286,1,0,0:0:0:0:
296,316,49380,5,0,0:0:0:0:
316,296,49473,1,0,0:0:0:0:
344,292,49567,1,0,0:0:0:0:
372,300,49661,1,0,0:0:0:0:
392,319,49755,6,0,P|414:327|438:325,1,48,0|0,0:0|0:0,0:0:0:0:
512,188,49942,2,0,P|489:180|465:182,1,48
292,216,50130,2,0,P|314:223|338:221,1,48
411,84,50317,2,0,P|388:76|364:78,1,48
191,112,50505,5,2,0:3:0:0:
160,136,51255,6,0,L|124:280,2,144.000005493164,2|0|0,0:0|0:0|0:0,0:0:0:0:
200,76,52380,6,0,P|205:41|198:6,1,72.0000027465821
264,172,52755,2,0,P|258:207|265:242,1,72.0000027465821
424,124,53130,1,0,0:0:0:0:
340,100,53317,1,0,0:0:0:0:
268,152,53505,2,0,P|196:160|128:104,2,144.000005493164,0|0|0,0:0|0:0|0:0,0:0:0:0:
431,208,54630,6,0,P|405:273|344:309,1,144.000005493164
260,284,55192,1,0,0:0:0:0:
192,336,55380,2,0,L|49:312,2,144.000005493164,0|0|0,0:0|0:0|0:0,0:0:0:0:
376,284,56505,2,0,L|409:220,1,72.0000027465821
368,64,56880,2,0,L|334:127,1,72.0000027465821
191,112,57255,6,0,P|96:128|28:64,2,192,4|0|0,0:0|0:0|0:0,0:0:0:0:
204,104,58380,2,0,P|260:92|304:108,1,96,0|0,0:0|0:0,0:0:0:0:
360,172,58755,2,0,P|372:227|356:272,1,96,0|0,0:0|0:0,0:0:0:0:
280,316,59130,1,0,0:0:0:0:
108,228,59317,1,0,0:0:0:0:
268,220,59505,5,0,0:0:0:0:
192,276,59692,1,0,0:0:0:0:
108,228,59880,1,0,0:0:0:0:
132,136,60067,1,0,0:0:0:0:
228,136,60255,6,0,B|288:144|325:97|325:97|420:112,1,192
480,48,60817,1,0,0:0:0:0:
484,144,61005,2,0,P|489:191|467:233,1,96
376,384,61380,2,0,P|362:338|376:293,1,96
403,200,61755,6,0,P|348:243|278:238,1,144,4|0,0:0|0:0,0:0:0:0:
188,59,62130,2,0,P|254:85|285:149,1,144,4|0,0:0|0:0,0:0:0:0:
175,316,62505,2,0,P|164:246|204:188,1,144,4|0,0:0|0:0,0:0:0:0:
203,188,62880,2,0,P|249:175|287:146,1,96
128,12,63255,6,0,L|100:172,1,144,4|0,0:0|0:0,0:0:0:0:
112,180,63630,2,0,P|103:226|69:259,1,96,8|0,0:0|0:0,0:0:0:0:
20,176,64005,1,0,0:0:0:0:
186,130,64192,1,8,0:0:0:0:
183,315,64380,2,0,L|212:224,1,96,0|8,0:0|0:0,0:0:0:0:
373,134,64755,6,0,L|280:156,1,96,0|0,0:0|0:0,0:0:0:0:
112,180,65130,1,8,0:0:0:0:
194,41,65317,1,0,0:0:0:0:
284,176,65505,2,0,P|300:220|289:266,1,96,0|8,0:0|0:0,0:0:0:0:
52,340,65880,2,0,P|35:295|46:249,1,96,0|8,0:0|0:0,0:0:0:0:
112,180,66255,6,0,P|176:168|208:100,1,144
211,72,66630,2,0,L|112:56,1,96,8|0,0:0|0:0,0:0:0:0:
320,36,67005,2,0,P|367:31|408:53,1,96,0|8,0:0|0:0,0:0:0:0:
408,242,67380,2,0,L|392:148,1,96,0|8,0:0|0:0,0:0:0:0:
368,128,67661,1,0,0:0:0:0:
339,132,67755,6,0,P|295:147|249:137,1,96
44,64,68130,2,0,P|88:48|134:58,1,96,8|0,0:0|0:0,0:0:0:0:
260,228,68505,1,8,0:0:0:0:
204,304,68692,1,8,0:0:0:0:
108,312,68880,1,0,0:0:0:0:
36,248,69067,1,8,0:0:0:0:
112,188,69255,6,0,P|162:139|165:69,1,144,0|0,0:0|0:0,0:0:0:0:
143,48,69630,2,0,P|96:52|54:30,1,96,8|0,0:0|0:0,0:0:0:0:
232,7,70005,2,0,P|279:5|322:26,1,96,0|8,0:0|0:0,0:0:0:0:
328,240,70380,2,8,P|300:201|292:154,1,96,0|8,0:0|0:0,0:0:0:0:
512,96,70755,6,0,L|418:115,1,96,0|0,0:0|0:0,0:0:0:0:
264,88,71130,1,8,0:0:0:0:
368,4,71317,1,0,0:0:0:0:
424,128,71505,2,0,P|439:173|435:220,1,96,0|8,0:0|0:0,0:0:0:0:
276,372,71880,2,0,P|260:326|264:279,1,96,0|8,0:0|0:0,0:0:0:0:
264,88,72255,6,0,P|251:155|187:180,1,144
159,167,72630,2,0,P|115:152|68:160,1,96,8|0,0:0|0:0,0:0:0:0:
216,280,73005,2,0,P|260:295|307:287,1,96,8|8,0:0|0:0,0:0:0:0:
496,212,73380,2,0,P|459:242|413:251,1,96,0|8,0:0|0:0,0:0:0:0:
335,191,73755,6,0,P|305:128|241:98,1,144,4|0,0:0|0:0,0:0:0:0:
216,261,74130,2,0,P|286:266|344:226,1,144,4|0,0:0|0:0,0:0:0:0:
215,122,74505,2,0,P|176:181|181:251,1,144,4|0,0:0|0:0,0:0:0:0:
204,272,74880,2,0,L|287:325,1,96
424,215,75255,6,0,P|424:145|382:88,1,144,4|0,0:0|0:0,0:0:0:0:
304,80,75630,2,0,L|212:32,1,96,8|0,0:0|0:0,0:0:0:0:
67,128,76005,2,0,P|52:172|61:219,1,96,0|8,0:0|0:0,0:0:0:0:
256,356,76380,2,0,P|271:311|262:264,1,96,0|8,0:0|0:0,0:0:0:0:
240,236,76661,1,0,0:0:0:0:
212,208,76755,6,0,P|196:163|205:116,1,96,0|8,0:0|0:0,0:0:0:0:
372,28,77130,2,0,P|387:72|378:119,1,96,8|0,0:0|0:0,0:0:0:0:
332,303,77505,2,0,L|340:208,1,96,0|8,0:0|0:0,0:0:0:0:
160,188,77880,2,0,L|246:146,1,96,0|8,0:0|0:0,0:0:0:0:
268,116,78161,1,0,0:0:0:0:
267,75,78255,6,0,P|209:39|145:65,1,144
99,128,78630,2,0,P|53:136|8:120,1,96,8|0,0:0|0:0,0:0:0:0:
220,240,79005,2,0,P|203:283|167:314,1,96,0|8,0:0|0:0,0:0:0:0:
377,191,79380,2,0,P|406:226|415:273,1,96,0|8,0:0|0:0,0:0:0:0:
413,30,79755,6,0,P|457:22|503:38,1,96,0|8,0:0|0:0,0:0:0:0:
328,96,80130,2,0,L|232:84,1,96,8|0,0:0|0:0,0:0:0:0:
156,76,80411,1,0,0:0:0:0:
98,128,80505,2,0,P|83:172|96:218,1,96,0|8,0:0|0:0,0:0:0:0:
217,330,80880,2,0,P|232:285|220:240,1,96,0|8,0:0|0:0,0:0:0:0:
96,24,81255,6,0,P|80:96|136:156,1,144
245,92,81630,2,0,P|203:71|156:76,1,96,8|0,0:0|0:0,0:0:0:0:
16,256,82005,2,0,P|62:253|101:225,1,96,0|8,0:0|0:0,0:0:0:0:
216,330,82380,6,0,P|236:287|232:240,1,96,0|8,0:0|0:0,0:0:0:0:
188,152,82755,1,0,0:0:0:0:
360,196,82942,1,0,0:0:0:0:
160,272,83130,2,0,L|64:264,1,96,8|0,0:0|0:0,0:0:0:0:
360,195,83505,6,0,P|375:151|368:104,1,96,0|8,0:0|0:0,0:0:0:0:
196,60,83880,2,0,P|180:105|188:152,1,96,0|8,0:0|0:0,0:0:0:0:
240,208,84161,1,0,0:0:0:0:
299,256,84255,6,0,P|237:286|175:253,1,144,0|0,0:0|0:0,0:0:0:0:
127,191,84630,2,0,P|80:186|38:208,1,96,8|0,0:0|0:0,0:0:0:0:
260,112,85005,2,0,P|282:70|324:48,1,96,8|8,0:0|0:0,0:0:0:0:
300,256,85380,2,0,L|284:356,1,96,0|8,0:0|0:0,0:0:0:0:
208,368,85661,1,0,0:0:0:0:
135,335,85755,6,0,P|111:269|137:204,1,144,4|0,0:0|0:0,0:0:0:0:
326,159,86130,2,0,P|281:213|212:224,1,144,4|0,0:0|0:0,0:0:0:0:
78,82,86505,2,0,P|147:94|191:149,1,144,4|0,0:0|0:0,0:0:0:0:
232,212,86880,2,0,P|263:247|309:256,1,96
437,93,87255,6,0,P|367:102|326:158,1,144,4|0,0:0|0:0,0:0:0:0:
376,216,87630,2,0,P|385:262|368:306,1,96,8|0,0:0|0:0,0:0:0:0:
191,149,88005,2,0,P|182:103|199:59,1,96,8|8,0:0|0:0,0:0:0:0:
280,272,88380,2,0,L|204:368,1,96,0|8,0:0|0:0,0:0:0:0:
144,332,88661,1,0,0:0:0:0:
80,288,88755,6,0,P|72:224|128:160,1,144,4|0,0:0|0:0,0:0:0:0:
184,64,89130,2,0,P|243:89|270:169,1,144,4|0,0:0|0:0,0:0:0:0:
325,266,89505,2,0,P|273:304|190:288,1,144,4|0,0:0|0:0,0:0:0:0:
191,149,89880,2,0,L|276:88,1,96,0|0,0:0|0:0,0:0:0:0:
408,28,90255,6,0,P|432:92|396:160,1,144,4|0,0:0|0:0,0:0:0:0:
399,232,90630,2,0,P|355:216|329:177,1,96,8|0,0:0|0:0,0:0:0:0:
268,12,91005,2,0,L|248:106,1,96,0|8,0:0|0:0,0:0:0:0:
104,332,91380,2,0,L|123:237,1,96,0|8,0:0|0:0,0:0:0:0:
192,200,91661,1,0,0:0:0:0:
264,228,91755,6,0,P|331:248|392:213,1,144,4|0,0:0|0:0,0:0:0:0:
380,136,92130,2,0,P|312:115|251:150,1,144,4|0,0:0|0:0,0:0:0:0:
192,200,92505,2,0,P|130:233|63:212,1,144,4|0,0:0|0:0,0:0:0:0:
24,145,92880,2,0,P|45:78|105:42,1,144,4|0,0:0|0:0,0:0:0:0:
172,84,93255,1,4,0:0:0:0:
256,192,93348,12,4,96255,0:0:0:0:
