osu file format v9

[General]
AudioFilename: Naotyu- remixed by Est feat.miyu - MAKINA - Acque Minerali -Ultimo Blu-.mp3
AudioLeadIn: 0
PreviewTime: 80963
Countdown: 0
SampleSet: Normal
StackLeniency: 0.7
Mode: 0
LetterboxInBreaks: 1

[Editor]
Bookmarks: 61428
DistanceSpacing: 0.7
BeatDivisor: 4
GridSize: 16

[Metadata]
Title:Acque Minerali -Ultimo Blu-
Artist:Naotyu- remixed by Est feat.miyu
Creator:tsuka
Version:Normal
Source:BMS
Tags:Dr_dy

[Difficulty]
HPDrainRate:1
CircleSize:4
OverallDifficulty:3
ApproachRate:4
SliderMultiplier:1.2
SliderTickRate:1

[Events]
//Background and Video events
0,0,"mira_title.png"
Video,-3985,"[Naotyu-_remixed_by_Est_feat.miyu]_Acque_Minerali_-Ultimo_Blu-.avi"
//Break Periods
2,29510,39153
//Storyboard Layer 0 (Background)
//Storyboard Layer 1 (Fail)
//Storyboard Layer 2 (Pass)
//Storyboard Layer 3 (Foreground)
//Storyboard Sound Samples
//Background Colour Transformations
3,100,163,162,255

[TimingPoints]
5590,348.837209302326,4,1,0,70,1,0
28526,-100,4,2,0,60,0,0
40473,-200,4,2,1,70,0,1
51462,-200,4,2,0,70,0,0
62799,-100,4,1,0,29,0,0
64194,-133.333333333333,4,1,0,50,0,1
65590,-100,4,2,0,50,0,1
66811,-133.333333333333,4,1,0,50,0,1
68206,-100,4,2,0,50,0,1
69602,-133.333333333333,4,1,0,50,0,1
71172,-100,4,2,0,50,0,1
72392,-133.333333333333,4,1,0,50,0,1
73788,-100,4,2,0,50,0,1
75358,-100,4,2,0,69,0,0
77015,-133.333333333333,4,1,0,60,0,0
80765,-100,4,1,0,69,0,0
81898,-200,4,1,0,60,0,0
82858,-100,4,1,0,60,0,0
84689,-200,4,2,0,60,0,0
86520,-133.333333333333,4,2,0,60,0,0

[Colours]
Combo1 : 255,255,255
Combo2 : 0,128,255
Combo3 : 128,255,255
Combo4 : 128,128,255

[HitObjects]
256,192,5590,12,0,6985
80,256,7334,5,8
256,192,8031,1,8
432,256,8729,1,8
256,320,9427,2,0,B|256:240,1,60,8|0
256,192,9776,5,0
352,144,10124,1,8
112,96,10822,1,8
352,64,11520,1,8
112,16,12217,1,8
16,48,12566,1,0
80,128,12915,5,8
256,192,13613,1,8
432,128,14310,1,8
256,64,15008,2,0,B|256:144,1,60,8|0
256,192,15357,5,0
352,240,15706,1,8
112,288,16403,1,8
352,320,17101,1,8
400,224,17450,2,8,B|416:180|416:180|384:112,1,120
368,80,17973,1,0
368,80,18148,6,0,B|224:80,1,120,0|8
120,104,19020,2,0,B|104:136|104:136|120:168,1,60,0|8
192,192,19543,2,0,B|336:192,1,120,0|8
432,224,20415,2,0,B|448:256|448:256|432:288,1,60,0|8
368,304,20938,6,0,B|224:336,1,120,0|8
120,224,21985,1,8
200,240,22334,2,0,B|344:272,1,120,0|8
440,152,23380,1,8
360,168,23729,6,0,B|216:200,1,120,0|8
112,88,24776,1,8
192,104,25124,2,0,B|336:136,1,120,0|8
144,168,26171,1,8
128,240,26520,5,0
216,240,26869,1,0
304,240,27217,1,0
392,240,27566,1,0
344,312,27915,1,0
392,384,28264,1,0
440,312,28613,6,0,B|504:312,4,60,0|0|0|0|4
128,80,40473,6,0,B|160:48|160:48|192:80|192:80|224:48|224:48|256:80|256:80|288:48|288:48|320:80|320:80|352:48|352:48|384:80,1,360,2|2
384,128,42915,1,2
352,144,43264,2,0,B|112:176,1,240,2|2
192,192,45357,1,2
112,208,46055,2,0,B|352:240,1,240,2|2
432,256,48148,1,2
352,272,48845,2,0,B|114:303,1,240,2|2
114,303,50938,1,2
64,240,51636,5,0
112,208,52159,1,2
160,240,52683,1,0
448,144,54427,5,0
400,176,54950,1,2
352,144,55473,1,0
256,336,57217,5,0
288,288,57741,1,2
256,240,58264,1,0
256,32,60008,6,0,B|256:128,1,90,0|2
256,192,61055,2,0,B|336:224|336:304|256:352|144:304|168:232|208:368,1,300
48,352,64194,6,0,B|0:280|48:224,2,134.999995976687
120,288,65764,1,2
248,288,66287,1,2
248,288,66636,1,2
328,312,66985,6,0,B|456:360,2,134.999995976687
368,192,68555,1,2
368,64,69078,1,2
368,64,69427,1,2
296,104,69776,6,0,B|232:144|152:96,2,134.999995976687
168,104,71345,5,2
48,64,71869,1,2
8,136,72217,1,2
48,208,72566,2,0,B|16:360,2,134.999995976687
152,280,74136,1,2
280,280,74659,2,2,B|416:280,1,120
432,200,75357,5,4
256,160,75880,1,4
80,200,76403,1,4
56,40,78148,6,0,B|56:128,1,89.9999973177911,0|8
136,96,78845,2,0,B|136:192,1,89.9999973177911,0|8
224,152,79543,1,0
224,152,79892,1,8
312,152,80241,1,0
312,152,80590,1,8
400,192,80938,6,0,B|448:240|400:304,1,120,0|8
368,320,81462,1,0
368,320,81985,2,0,B|256:240,1,120,8|0
144,144,83380,1,8
160,64,83729,2,0,B|288:64,1,120,0|8
304,96,84252,2,0,B|432:96,1,120
464,112,84776,2,0,B|512:160|464:224,1,120,10|0
96,64,86520,5,4
320,64,87741,1,2
256,96,88090,1,2
256,96,88264,1,0
448,96,89310,5,2
256,192,90531,1,2
208,160,90880,2,0,B|144:160,2,44.9999986588955,2|0|2
48,192,92101,5,2
256,272,93322,1,2
192,288,93671,1,2
192,288,93845,1,0
16,336,94892,5,4
176,192,96113,1,0
224,240,96462,1,2
224,240,96636,2,0,B|288:240,1,44.9999986588955,0|2
416,64,97683,5,4
192,64,98903,1,2
256,96,99252,1,2
256,96,99427,1,0
64,96,100473,5,2
256,192,101694,1,2
304,160,102043,2,0,B|368:160,2,44.9999986588955,2|0|2
464,192,103264,5,2
256,272,104485,1,2
320,288,104834,1,2
320,288,105008,1,0
384,272,105357,2,2,B|480:272,1,89.9999973177911
480,208,106055,5,2
416,128,106578,1,2
320,144,107101,1,2
160,128,107973,5,2
160,128,108148,2,0,B|96:128,4,44.9999986588955,0|2|0|2|4
