osu file format v9

[General]
AudioFilename: Naotyu- remixed by Est feat.miyu - MAKINA - Acque Minerali -Ultimo Blu-.mp3
AudioLeadIn: 0
PreviewTime: 80963
Countdown: 0
SampleSet: Soft
StackLeniency: 0.7
Mode: 0
LetterboxInBreaks: 1

[Editor]
Bookmarks: 61428
DistanceSpacing: 1.4
BeatDivisor: 4
GridSize: 4

[Metadata]
Title:Acque Minerali -Ultimo Blu-
Artist:Naotyu- remixed by Est feat.miyu
Creator:tsuka
Version:Hyper
Source:BMS
Tags:Dr_dy

[Difficulty]
HPDrainRate:6
CircleSize:4
OverallDifficulty:6
ApproachRate:6
SliderMultiplier:1
SliderTickRate:1

[Events]
//Background and Video events
0,0,"mira_title.png"
Video,-3985,"[Naotyu-_remixed_by_Est_feat.miyu]_Acque_Minerali_-Ultimo_Blu-.avi"
//Break Periods
2,29510,38551
//Storyboard Layer 0 (Background)
//Storyboard Layer 1 (Fail)
//Storyboard Layer 2 (Pass)
//Storyboard Layer 3 (Foreground)
//Storyboard Sound Samples
//Background Colour Transformations
3,100,163,162,255

[TimingPoints]
5590,348.837209302326,4,1,0,70,1,0
6810,-100,4,1,0,0,0,0
6898,-100,4,1,0,80,0,0
28526,-100,4,2,0,70,0,0
40473,-200,4,2,1,80,0,1
51462,-100,4,2,0,60,0,0
52945,-100,4,1,0,40,0,0
62102,-50,4,1,0,39,0,0
64194,-100,4,1,0,60,0,1
66201,-100,4,2,0,60,0,1
66810,-100,4,1,0,60,0,1
71782,-100,4,2,0,61,0,1
72392,-100,4,1,0,61,0,1
75358,-100,4,2,0,80,0,0
76317,-200,4,2,0,80,0,0
77015,-100,4,1,0,72,0,0
84689,-200,4,1,0,70,0,0
85474,-100,4,2,0,69,0,0
105881,-100,4,1,0,89,0,0
107887,-100,4,2,0,89,0,0

[Colours]
Combo1 : 255,255,255
Combo2 : 0,128,255
Combo3 : 128,255,255
Combo4 : 128,128,255

[HitObjects]
256,192,5590,12,0,6810
204,84,6985,6,0,B|152:76|96:100,2,100,0|8|0
204,84,7857,1,0
256,192,8206,1,0
332,100,8555,2,0,B|372:52,2,50,0|8|0
352,156,9078,2,0,B|320:192,2,50,0|0|8
100,296,9776,6,0,B|132:256|188:252,2,100,0|8|0
100,296,10648,1,0
68,180,10996,1,0
160,104,11345,1,0
184,220,11694,1,0
184,220,11869,1,8
276,140,12217,1,8
276,140,12392,1,0
276,140,12566,5,0
300,256,12915,2,0,B|360:256,1,50,8|0
212,128,13438,2,0,B|152:128,1,50
212,128,13787,2,0,B|222:76|282:52,3,100,0|0|0|0
328,164,15183,1,0
328,164,15357,5,0
256,260,15706,2,0,B|208:252,1,50,8|0
88,236,16229,1,0
160,140,16578,2,0,B|108:124|40:144,2,100
196,152,17450,1,0
232,164,17624,1,0
264,176,17799,1,0
300,188,17973,1,0
332,200,18148,5,0
264,296,18496,2,0,B|312:284,1,50,8|0
208,256,18845,2,0,B|160:268,1,50,0|0
44,296,19369,1,0
84,184,19717,1,0
200,156,20066,2,0,B|248:144,3,50,0|8|0|0
384,312,20938,5,0
432,204,21287,1,8
400,180,21462,1,0
368,156,21636,1,0
336,132,21810,1,0
236,64,22159,2,0,B|176:60|132:80,2,100
236,64,23031,1,8
236,64,23206,1,0
236,64,23380,1,0
276,320,23729,6,0,B|336:324|380:304,2,100,0|8|0
276,320,24601,1,0
256,192,24950,2,0,B|200:184|136:208,3,100
36,208,26345,1,0
36,208,26520,5,0
32,156,26694,1,0
44,108,26869,1,8
80,72,27043,1,0
152,156,27217,5,0
184,124,27392,1,0
228,104,27566,1,8
276,100,27741,1,0
268,224,27915,5,0
268,224,28089,2,0,B|324:208,1,50
424,224,28438,2,0,B|372:240,1,50
268,224,28787,1,0
220,240,28962,1,0
180,272,29136,1,0
156,316,29310,5,4
88,112,39601,5,0
60,164,39776,1,0
108,204,39950,1,0
160,176,40124,1,0
144,116,40299,1,0
144,116,40473,6,0,B|168:80|204:64,3,75,2|0|0|0
228,60,42217,1,0
256,56,42392,1,0
284,52,42566,1,2
284,52,42915,1,2
368,268,43264,6,0,B|344:304|308:320,2,75,2|0|0
400,168,44659,1,0
120,216,45357,2,0,B|152:204,1,25,2|0
84,172,45706,2,0,B|52:184,1,25,2|0
84,172,46055,6,0,B|96:132|128:104,2,75,0|0|0
64,272,47450,1,0
448,112,48148,1,2
448,112,48496,1,2
344,172,48845,6,0,B|396:168|428:184,2,75
316,176,50066,1,0
288,184,50241,1,0
260,196,50415,1,2
236,212,50589,1,0
216,232,50764,1,0
200,256,50938,1,4
200,256,51287,1,2
84,168,51636,6,0,B|132:100|224:76,2,150
84,168,52857,2,0,B|24:192,1,50
84,168,53206,2,0,B|120:204,3,50
428,216,54427,6,0,B|348:200|276:220,2,150
428,216,55648,2,0,B|472:176,1,50
428,216,55996,2,0,B|440:264,2,50
352,104,56520,2,0,B|288:76,1,50
176,136,56869,2,0,B|120:148,1,50
96,268,57217,5,0
256,348,57741,1,0
416,264,58264,2,0,B|348:268,2,50
444,212,58787,2,0,B|512:208,2,50
392,176,59310,1,0
300,220,59485,1,0
212,172,59659,1,0
120,212,59834,1,0
256,192,60008,12,0,62799
60,244,64194,6,0,B|72:188|128:160,1,100,4|8
160,208,64717,2,0,B|208:180|264:192,1,100
252,252,65241,1,8
252,252,65589,2,0,B|304:256,1,50
301,255,65938,2,0,B|359:259,1,50,8|0
351,259,66287,1,2
416,64,66636,1,8
356,76,66810,1,0
396,120,66985,6,0,B|404:172|368:216,1,100,0|8
324,176,67508,2,0,B|292:220|216:228,1,100
224,168,68031,1,8
76,136,68380,1,0
96,80,68555,1,0
136,124,68729,1,8
252,100,69078,2,0,B|304:88,1,50,8|0
264,164,69427,2,0,B|212:176,1,50,8|0
280,228,69776,6,0,B|324:204|384:200,1,100,0|8
296,292,70299,2,0,B|252:312|192:316,1,100
280,228,70822,1,8
88,192,71171,1,0
60,244,71345,1,0
116,268,71520,1,8
396,116,71869,1,0
452,136,72043,1,0
428,192,72217,1,2
160,120,72566,6,0,B|208:96|268:92,1,100,0|8
236,148,73089,2,0,B|216:196|240:244,1,100,0|0
288,208,73613,1,8
392,264,73962,1,0
448,156,74310,1,8
340,104,74659,1,0
280,104,74834,1,0
224,124,75008,1,8
180,168,75183,1,0
164,224,75357,5,4
332,284,75880,1,4
180,100,76403,2,0,B|152:140|96:160,1,100,4|8
332,284,77450,2,0,B|360:244|416:224,1,100,0|8
411,225,78148,5,0
428,108,78496,1,8
380,72,78671,1,0
268,116,79020,1,0
208,120,79194,1,8
128,208,79543,1,0
104,264,79717,1,0
164,256,79892,1,8
336,200,80241,2,0,B|388:160,1,50
352,268,80590,2,0,B|300:308,1,50,8|0
312,298,80938,5,0
104,164,81462,1,0
320,64,81985,1,8
208,240,82334,1,0
232,184,82508,1,0
288,204,82683,1,0
312,148,82857,1,0
364,176,83031,1,0
472,232,83380,1,8
400,328,83729,5,0
80,272,84252,1,0
276,48,84776,2,0,B|328:40|376:56,1,100,0|0
432,80,85648,1,2
408,136,85822,1,0
348,128,85996,1,2
324,184,86171,1,0
264,180,86345,1,2
236,236,86520,5,4
116,248,86869,1,2
116,248,87043,2,0,B|56:260|24:316,2,100
164,136,88090,1,0
164,136,88264,1,2
276,176,88613,1,0
332,196,88787,1,0
368,148,88962,1,2
332,100,89136,1,0
276,116,89310,5,0
164,136,89659,1,2
164,136,89834,2,0,B|112:112|44:120,2,100
220,244,90880,1,0
220,244,91055,1,2
220,244,91229,2,0,B|252:200|312:180,1,100
298,184,91752,1,2
298,184,91927,1,0
298,184,92101,5,0
344,296,92450,1,2
344,296,92624,2,0,B|364:244|424:216,2,100
224,312,93671,1,0
224,312,93845,1,2
116,256,94194,5,0
136,156,94369,1,0
180,248,94543,1,2
88,196,94717,1,0
192,184,94892,5,0
308,136,95241,1,2
308,136,95415,2,0,B|360:112|424:120,2,100
116,256,96462,2,0,B|96:280|56:288,2,50,0|2|0
152,208,96985,1,0
152,208,97072,1,2
152,208,97159,1,0
192,164,97334,1,2
248,144,97508,1,0
308,136,97683,5,4
308,256,98031,1,8
308,256,98206,2,0,B|344:292|408:296,2,100
188,232,99252,1,0
188,232,99427,1,8
72,200,99776,5,0
144,112,99950,1,0
256,76,100124,1,8
376,116,100299,1,0
452,200,100473,5,0
72,200,100822,1,8
72,200,100996,2,0,B|128:180|176:164,2,100
176,264,102043,2,0,B|116:284,2,50,0|8|0
232,248,102566,1,0
232,248,102653,1,8
232,248,102741,1,0
288,228,102915,1,8
344,252,103090,1,0
400,232,103264,5,2
344,124,103613,1,8
344,124,103787,2,0,B|384:92|444:96,2,100
168,260,104834,1,2
168,260,105008,2,0,B|128:292|68:288,2,100
300,56,106055,5,4
384,312,106578,1,4
96,264,107101,1,4
300,80,107973,5,2
244,120,108148,1,0
288,172,108322,1,2
232,212,108496,1,0
272,272,108671,1,2
216,312,108845,5,4
