osu file format v9

[General]
AudioFilename: Naotyu- remixed by Est feat.miyu - MAKINA - Acque Minerali -Ultimo Blu-.mp3
AudioLeadIn: 0
PreviewTime: 80963
Countdown: 0
SampleSet: Normal
StackLeniency: 0.7
Mode: 0
LetterboxInBreaks: 1

[Editor]
Bookmarks: 61428
DistanceSpacing: 1.6
BeatDivisor: 4
GridSize: 8

[Metadata]
Title:Acque Minerali -Ultimo Blu-
Artist:Naotyu- remixed by Est feat.miyu
Creator:tsuka
Version:Another
Source:BMS
Tags:Dr_dy

[Difficulty]
HPDrainRate:7
CircleSize:5
OverallDifficulty:8
ApproachRate:8
SliderMultiplier:1.7
SliderTickRate:0.5

[Events]
//Background and Video events
0,0,"mira_title.png"
Video,-3985,"[Naotyu-_remixed_by_Est_feat.miyu]_Acque_Minerali_-Ultimo_Blu-.avi"
//Break Periods
//Storyboard Layer 0 (Background)
//Storyboard Layer 1 (Fail)
//Storyboard Layer 2 (Pass)
//Storyboard Layer 3 (Foreground)
//Storyboard Sound Samples
//Background Colour Transformations
3,100,163,162,255

[TimingPoints]
5590,348.837209302326,4,1,0,70,1,0
6810,-100,4,1,0,0,0,0
6898,-100,4,1,0,70,0,0
28526,-100,4,2,0,60,0,0
40473,-200,4,2,1,70,0,1
51462,-100,4,1,0,30,0,0
62101,-50,4,1,0,29,0,0
64194,-100,4,1,0,50,0,1
66201,-100,4,2,0,50,0,1
66811,-100,4,1,0,50,0,1
71782,-100,4,2,0,50,0,1
72392,-100,4,1,0,50,0,1
75358,-100,4,2,0,69,0,0
76317,-200,4,2,0,69,0,0
77015,-100,4,1,0,60,0,0
84689,-200,4,1,0,60,0,0
85648,-100,4,2,0,79,0,0
86433,-200,4,2,0,69,0,0
86956,-100,4,2,0,69,0,0
105881,-100,4,1,0,70,0,0
107887,-100,4,2,0,79,0,0

[Colours]
Combo1 : 255,255,255
Combo2 : 0,128,255
Combo3 : 128,255,255
Combo4 : 128,128,255

[HitObjects]
256,192,5590,12,0,6810
64,24,6985,6,0,B|32:56|32:56|64:80,1,85
128,136,7334,1,0
192,192,7508,1,0
24,224,7857,1,0
88,384,8206,1,0
24,224,8555,1,0
192,192,8903,1,0
256,248,9078,1,0
176,264,9252,1,0
176,264,9340,1,0
176,264,9427,2,0,B|152:360,1,85
344,352,9776,6,0,B|432:352,1,85
512,352,10124,1,0
464,280,10299,1,0
512,120,10648,1,0
344,144,10996,1,0
511,198,11345,2,0,B|496:160|496:160|512:120,1,85
424,192,11694,1,0
424,192,11781,1,0
424,192,11869,1,0
344,224,12043,1,0
400,288,12217,1,0
400,288,12392,1,0
128,360,12566,6,0,B|160:328|160:328|128:304,1,85
64,248,12915,1,0
0,192,13090,1,0
200,144,13438,1,0
0,96,13787,1,0
200,56,14136,1,0
0,8,14485,1,0
72,48,14659,1,0
152,32,14834,1,0
152,32,14921,1,0
152,32,15008,2,0,B|184:32|184:32|200:40|200:40|248:40,1,85
512,8,15357,6,0,B|496:48|496:48|512:88,1,85
512,168,15706,1,0
440,120,15880,1,0
280,168,16229,1,0
304,0,16578,1,0
280,168,16927,2,0,B|296:208|296:208|280:248,1,85
224,208,17276,5,0
120,176,17450,1,0
184,264,17624,1,0
184,152,17799,1,0
120,240,17973,1,0
16,152,18148,6,0,B|144:152,1,127.5
184,152,18496,1,0
256,112,18671,2,0,B|336:72|424:112,1,170
488,144,19194,1,0
488,144,19369,1,0
448,320,19543,6,0,B|272:320,1,170
192,304,20066,2,0,B|24:304,1,170
40,232,20589,1,0
40,232,20938,6,0,B|168:232,1,127.5
208,232,21287,1,0
280,272,21462,2,0,B|360:312|448:272,1,170
512,240,21985,1,0
512,240,22159,1,0
448,64,22334,6,0,B|272:64,1,170
22,48,22857,2,0,B|192:48,1,170
192,48,23380,1,0
40,152,23555,1,0
40,152,23642,1,0
40,152,23729,6,0,B|168:152,1,127.5
208,152,24078,1,0
280,112,24252,2,0,B|360:72|448:112,1,170
512,144,24776,1,0
512,144,24950,1,0
448,320,25124,6,0,B|272:320,1,170
192,304,25648,2,0,B|22:304,1,170
22,304,26171,1,0
384,192,26520,5,0
384,192,26694,1,0
384,192,26869,1,0
384,192,27043,1,0
256,144,27217,5,0
256,144,27392,1,0
256,144,27566,1,0
256,144,27741,1,0
128,192,27915,5,0
128,192,28089,1,0
128,192,28264,1,0
128,192,28438,1,0
0,144,28613,5,0
80,144,28787,1,2
40,88,28962,1,0
40,200,29136,1,2
304,48,29310,5,4
304,48,29398,1,0
304,48,29485,1,0
368,64,29659,1,0
304,48,29834,1,0
304,48,29921,1,0
208,96,30095,5,0
208,96,30183,1,0
144,112,30357,1,0
208,96,30531,1,0
208,96,30619,1,0
336,144,30793,5,0
336,144,30880,1,0
272,112,31055,1,0
336,144,31229,1,0
336,144,31316,1,0
176,192,31491,5,0
176,192,31578,1,0
112,176,31752,1,0
176,192,31927,1,0
176,192,32014,1,0
304,240,32188,5,0
304,240,32276,1,0
368,208,32450,1,0
304,240,32624,1,0
304,240,32712,1,0
208,272,32886,5,0
208,272,32973,1,0
144,288,33148,1,0
208,272,33322,1,0
208,272,33409,1,0
336,352,33584,5,0
336,352,33671,1,0
288,304,33845,1,0
336,352,34020,1,0
336,352,34107,1,0
160,368,34281,5,0
160,368,34369,1,0
224,336,34543,1,0
160,368,34717,1,0
160,368,34805,1,0
32,320,34979,5,0
32,320,35066,2,0,B|16:224,1,85
48,160,35415,1,0
48,160,35502,1,0
144,80,35677,5,0
144,80,35764,2,0,B|160:176,1,85
128,240,36113,1,0
128,240,36200,1,0
240,352,36374,5,0
240,352,36462,2,0,B|224:256,1,85
256,192,36810,1,0
256,192,36898,1,0
368,0,37072,5,0
368,0,37159,2,0,B|384:96,1,85
352,160,37508,1,0
352,160,37595,1,0
512,336,37770,5,0
512,336,37857,2,0,B|416:352,1,85
352,320,38206,1,0
352,320,38293,1,0
256,192,38467,5,0
256,192,38555,2,0,B|160:176,1,85
96,208,38903,1,0
96,208,38991,1,0
16,16,39165,5,0
16,16,39252,2,0,B|0:112,1,85
32,176,39601,1,0
32,176,39688,1,0
16,240,39863,5,0
24,256,39950,1,2
16,272,40037,1,0
8,288,40124,1,0
16,304,40212,1,0
24,320,40299,1,2
16,336,40386,1,0
32,344,40473,6,2,B|64:328|64:328|96:344|96:344|128:328|128:328|160:344|160:344|192:328|192:328|224:344|224:344|256:328|256:328|288:344|288:344|320:328|320:328|352:344|352:344|384:328|384:328|416:344|416:344|448:328|448:328|480:344|480:344,1,510,2|2
488,348,42915,1,2
440,232,43264,2,2,B|408:248|408:248|376:232|376:232|344:248|344:248|312:232|312:232|280:248|280:248|248:232|248:232|216:248|216:248|184:232|184:232|152:248|152:248|120:232|120:232,1,340,2|2
32,232,45357,1,2
72,152,46055,2,0,B|104:136|104:136|136:152|136:152|168:136|168:136|200:152|200:152|232:136|232:136|264:152|264:152|296:136|296:136|328:152|328:152|360:136|360:136|392:152|392:152,1,340,2|2
464,152,48148,1,2
440,32,48845,2,0,B|408:48|408:48|376:32|376:32|344:48|344:48|312:32|312:32|280:48|280:48|248:32|248:32|216:48|216:48|184:32|184:32|152:48|152:48|120:32|120:32,1,340,2|2
135,39,50938,1,2
32,80,51636,5,0
64,112,51810,1,0
32,144,51985,1,0
64,176,52159,1,0
112,176,52334,1,0
144,160,52508,1,0
176,176,52683,1,0
208,160,52857,1,0
240,144,53031,5,0
288,144,53206,1,0
272,112,53380,1,0
320,112,53555,1,0
304,80,53729,1,0
352,80,53903,1,0
336,48,54078,1,0
384,48,54252,1,0
432,48,54427,5,0
432,104,54601,1,0
480,72,54776,1,0
480,128,54950,1,0
480,184,55124,1,0
432,152,55299,1,0
432,208,55473,1,0
480,240,55648,1,0
400,256,55822,5,0
352,288,55996,1,0
304,320,56171,1,0
256,352,56345,1,0
304,320,56520,1,0
256,288,56694,1,0
208,256,56869,1,0
160,224,57043,1,0
160,136,57217,5,0
168,128,57305,1,0
176,120,57392,1,0
184,112,57479,1,0
192,104,57566,1,0
200,96,57653,1,0
208,88,57741,1,0
216,80,57828,1,0
224,80,57915,1,0
232,88,58002,1,0
240,96,58089,1,0
248,104,58177,1,0
256,112,58264,1,0
264,120,58351,1,0
272,128,58438,1,0
280,136,58526,1,0
288,136,58613,5,0
296,128,58700,1,0
304,120,58787,1,0
312,112,58874,1,0
320,104,58962,1,0
328,96,59049,1,0
336,88,59136,1,0
344,80,59223,1,0
352,80,59310,1,0
360,88,59398,1,0
368,96,59485,1,0
376,104,59572,1,0
384,112,59659,1,0
392,120,59746,1,0
400,128,59834,1,0
408,136,59921,1,0
408,144,60008,5,0
400,152,60095,1,0
392,160,60183,1,0
384,168,60270,1,0
376,176,60357,1,0
368,184,60444,1,0
360,192,60531,1,0
352,200,60619,1,0
352,208,60706,1,0
360,216,60793,1,0
368,224,60880,1,0
376,232,60967,1,0
384,240,61055,1,0
392,248,61142,1,0
400,256,61229,1,0
408,264,61316,1,0
408,272,61403,6,0,B|408:304,15,21.25
408,293,62101,2,0,B|448:320,7,42.5
443,316,62450,2,0,B|400:344,7,42.5
407,339,62799,5,0
96,48,64194,6,0,B|32:96|64:208,1,170,4|8
192,240,64717,2,0,B|256:192|224:80,1,170
352,48,65241,2,0,B|440:64,1,85,8|0
256,320,65764,1,0
320,272,65938,1,8
384,224,66113,1,0
464,192,66287,5,4
48,192,66636,1,4
416,336,66985,6,0,B|480:288|448:176,1,170,4|8
320,144,67508,2,0,B|256:192|288:304,1,170
286,299,68031,1,8
144,288,68206,2,0,B|32:304,2,85,0|0|8
416,64,68903,1,8
336,32,69078,1,0
256,64,69252,1,0
176,96,69427,1,8
96,128,69601,1,8
144,192,69776,6,0,B|128:240|128:240|160:288|160:288|144:352,1,170,0|8
256,336,70299,2,0,B|304:352|304:352|352:320|352:320|416:336,1,170
384,176,70822,2,0,B|400:272,1,85,8|0
312,56,71345,2,0,B|296:96|296:96|312:136,1,85,0|8
368,96,71694,1,0
472,40,71869,5,4
40,40,72217,1,4
40,40,72392,5,0
40,40,72566,2,0,B|56:88|56:88|24:136|24:136|40:200,1,170,0|8
144,144,73089,2,0,B|192:160|192:160|240:128|240:128|304:144,1,170
416,160,73613,2,0,B|464:80,2,85,8|0|0
376,216,74136,1,8
384,352,74485,5,8
298,329,74659,1,0
213,306,74834,1,0
128,283,75008,1,8
43,260,75183,1,8
184,112,75357,6,0,B|256:48|340:112,1,170,4|0
338,273,75880,2,0,B|256:336|184:272,1,170,4|0
32,192,76403,2,0,B|128:192,1,85,4|0
176,192,76927,1,0
176,192,77101,1,0
256,192,77799,1,8
320,192,77973,5,0
336,192,78060,1,0
352,192,78148,2,0,B|392:272,1,85
488,280,78496,2,0,B|398:274,1,85,8|0
344,360,78845,2,0,B|393:285,1,85
280,320,79194,1,8
192,328,79369,1,0
184,240,79543,1,0
104,296,79717,6,0,B|96:200,1,85,4|8
24,176,80066,1,0
48,96,80241,2,0,B|135:137,1,85,4|0
248,144,80590,2,0,B|168:198,1,85,12|0
344,184,80938,6,0,B|373:349,1,170,0|8
442,323,81462,2,0,B|412:155,1,170
482,133,81985,2,0,B|511:300,1,170,8|0
511,300,82508,1,4
208,280,82857,1,4
288,256,83031,2,0,B|247:169,1,85,4|0
240,56,83380,2,0,B|186:136,1,85,12|0
172,196,83729,6,0,B|6:166,1,170,0|8
33,98,84252,2,0,B|200:127,1,170
223,58,84776,6,0,B|55:28,1,170,4|0
0,48,85648,5,2
0,184,85822,1,0
96,96,85996,1,2
96,232,86171,1,2
192,144,86345,1,2
192,272,86520,2,0,B|216:248|216:248|240:248|240:248|272:224,1,85,4|0
320,176,87043,5,2
512,128,87392,1,2
432,336,87741,1,2
512,128,88090,1,2
464,184,88264,2,0,B|432:216|432:280,1,85,2|0
336,360,88613,5,0
256,328,88787,1,2
176,296,88962,1,0
96,264,89136,1,2
32,136,89310,6,2,B|8:48|104:48|104:48|144:8,1,170
160,96,89834,2,2,B|184:184|88:184|88:184|48:224,1,170
256,192,90531,1,2
480,192,90880,1,2
448,256,91055,1,0
416,320,91229,1,2
416,32,91578,1,2
448,112,91752,1,0
360,88,91927,1,2
360,88,92014,1,0
360,88,92101,6,0,B|232:64|272:192,1,170,4|0
192,208,92624,1,2
0,256,92973,1,2
80,48,93322,1,2
0,256,93671,1,2
56,208,93845,2,0,B|88:168|80:112,1,85,2|0
176,72,94194,5,0
208,152,94369,1,2
240,232,94543,1,0
272,312,94717,1,2
368,192,94892,6,0,B|336:280,1,85,0|2
400,328,95241,1,0
400,328,95415,2,0,B|480:296|456:176,1,170,2|0
457,183,96113,1,2
480,112,96462,1,2
416,80,96636,1,0
352,48,96810,1,2
144,120,97159,1,2
80,176,97334,1,0
160,208,97508,1,2
160,208,97595,1,0
160,208,97683,6,0,B|64:256|128:384,1,170
176,384,98206,2,2,B|272:336|208:208,1,170
384,192,98903,1,2
416,32,99252,1,2
416,32,99427,1,0
256,64,99776,1,0
176,96,99950,1,2
240,144,100124,1,0
176,96,100299,1,2
240,144,100473,6,0,B|336:192|272:320,1,170,2|0
224,320,100996,2,2,B|128:272|192:144,1,170
352,192,101694,1,2
512,256,102043,1,2
448,288,102217,1,0
384,320,102392,1,2
128,336,102741,1,2
80,272,102915,1,0
160,256,103090,1,2
200,264,103177,1,0
240,272,103264,6,2,B|216:184|312:184|312:184|352:144,1,170,4|2
368,232,103787,2,2,B|392:320|296:320|296:320|256:360,1,170
480,192,104485,1,2
256,192,104834,1,2
256,192,105008,1,0
32,192,105357,5,2
480,192,105706,1,2
96,320,106055,5,0
96,232,106229,1,0
96,144,106403,1,0
216,280,106578,1,0
216,192,106752,1,0
216,104,106927,1,0
328,240,107101,1,0
328,152,107276,1,0
328,64,107450,1,0
464,128,107624,5,0
464,144,107712,1,0
464,160,107799,1,0
416,240,107973,5,2
368,320,108148,1,0
320,208,108322,1,2
224,320,108496,1,0
176,160,108671,1,0
48,320,108845,1,4
