osu file format v6

[General]
AudioFilename: F-Zero_-_Big_Blue.mp3
AudioLeadIn: 0
PreviewTime: 8727
Countdown: 0
SampleSet: Soft
StackLeniency: 0.8
Mode: 0
LetterboxInBreaks: 1
StoryFireInFront: 0

[Editor]
Bookmarks: 8727,43686,61140,96050
DistanceSpacing: 0.800000011920929
BeatDivisor: 4
GridSize: 8

[Metadata]
Title:Big Blue
Artist:Naoto Ishida/Yumiko Kametani
Creator:BananasGoMoo
Version:MB & Kyto Co-Op
Source:F-Zero
Tags:F-Zero SNES Captain Falcon Matma Rex Loogiesquared Blue Dragon

[Difficulty]
HPDrainRate:6
CircleSize:4
OverallDifficulty:6
SliderMultiplier:1.2
SliderTickRate:1

[Events]
//Background and Video events
0,0,"fzero.jpg"
//Break Periods
2,32927,38222
2,96224,103701
//Storyboard Layer 0 (Background)
//Storyboard Layer 1 (Fail)
//Storyboard Layer 2 (Pass)
//Storyboard Layer 3 (Foreground)
//Storyboard Sound Samples
//Background Colour Transformations
3,100,128,128,255

[TimingPoints]
0,272.727272727273,4,2,1,100,1,0
8590,-200,4,1,1,100,0,0
8863,-100,4,2,1,100,0,0
10772,-100,4,1,1,100,0,0
10977,-100,4,2,1,100,0,0
13090,-100,4,1,1,100,0,0
13295,-100,4,2,1,100,0,0
16977,-100,4,1,1,100,0,0
32727,-100,4,1,1,100,0,0
60954,-100,4,2,1,100,0,0
77478,-100,4,2,1,100,0,0
78024,-100,4,1,1,100,0,0
85114,-100,4,1,2,100,0,0
85387,-100,4,1,1,100,0,0
85933,-100,4,1,1,100,0,0
86478,-100,4,1,1,100,0,0
87024,-100,4,1,1,100,0,0
96024,-100,4,1,1,100,0,0

[Colours]
Combo1 : 255,255,255
Combo2 : 0,0,255
Combo3 : 255,255,0
Combo4 : 255,0,0

[HitObjects]
256,208,7636,12,0,8454
256,192,8727,5,4
256,96,9000,1,2
304,96,9136,1,0
352,96,9272,1,2
448,96,9545,1,0
448,144,9681,2,0,B|400:320,1,180
344,240,10363,1,8
296,240,10500,1,0
256,272,10636,1,8
112,264,10909,6,0,B|8:264|8:96|128:120,1,240,4|0
208,120,11727,1,2
264,112,11863,1,2
216,32,12136,2,8,B|144:32,2,60
312,32,12681,2,4,B|392:32,2,60
264,32,13090,5,4
48,96,13909,1,0
96,96,14045,1,0
328,96,14727,5,2
400,192,14931,1,2
328,280,15136,1,2
256,280,15340,2,0,B|184:280,1,60
104,56,16090,1,0
152,56,16227,2,8,B|288:56,3,120,8|8|8|4
288,256,17454,6,0,L|288:120,1,120
288,88,17863,2,0,L|416:88,1,120
432,136,18272,1,0
456,176,18409,2,2,B|544:256|432:352,1,180
360,328,19090,5,8
312,320,19227,1,8
264,304,19363,1,8
256,208,19500,12,2,20318
256,192,20454,5,0
256,192,20590,1,0
256,208,20727,12,0,21545
120,40,21818,5,0
264,40,22227,1,0
360,40,22500,1,2
400,64,22635,1,2
416,112,22772,1,2
408,160,22909,2,0,B|408:344,1,180
312,352,23590,1,2
264,352,23727,1,2
216,352,23863,2,2,B|192:312|168:352,1,60
256,208,24136,12,0,25909
256,192,26181,6,0,B|320:192,1,60
360,192,26454,2,0,B|424:192,1,60
464,192,26727,2,0,B|464:264,3,60
256,48,27818,1,2
256,240,28363,6,0,B|208:240,2,30
256,240,28636,2,0,B|304:240,2,30
256,192,28909,1,0
208,184,29045,1,0
160,184,29182,1,0
112,200,29318,2,2,B|16:232|16:352,1,180
112,336,30000,5,0
160,328,30136,1,0
200,304,30272,1,0
232,272,30409,1,0
264,240,30545,2,0,B|312:192|336:112|328:48,1,180,4|2
232,72,31227,5,0
248,120,31363,1,0
288,144,31500,1,0
328,168,31636,1,4
376,184,31772,2,8,B|448:184,2,60
376,280,32318,5,2
328,280,32454,1,2
280,280,32590,1,2
232,280,32727,1,4
40,32,39272,5,2
88,32,39409,1,2
136,32,39545,1,2
184,32,39681,1,8
368,192,40363,5,2
320,192,40500,1,2
272,192,40636,1,2
224,192,40772,1,10
40,344,41454,6,0,B|40:264|120:264,1,120,4|0
160,264,41863,6,0,L|240:264|288:264,1,120,4|0
328,264,42272,6,0,B|408:264|408:184,1,120,4|0
408,144,42681,6,0,B|408:64|328:64,1,120,4|0
288,64,43090,1,2
192,64,43363,1,2
96,64,43636,6,0,L|96:144,1,60
96,176,43909,1,8
144,176,44045,2,0,L|208:176,1,60
256,176,44318,1,0
256,224,44454,2,0,L|256:296,1,60,8|0
304,280,44727,1,0
352,280,44863,1,0
400,280,45000,2,0,L|432:224|392:168,1,120,8|0
400,128,45409,1,0
400,80,45545,1,8
304,80,45818,5,0
248,80,45954,2,0,L|208:80|208:112,1,60,0|8
208,152,46227,1,0
208,200,46363,2,0,L|208:264,1,60
208,312,46636,1,8
208,360,46772,2,0,L|128:360,1,60
144,312,47045,1,0
144,264,47181,1,8
144,168,47454,2,2,B|112:136|80:184,2,60
240,168,48000,6,0,B|384:168,5,120
360,264,49636,1,2
360,360,49909,1,2
440,312,50181,6,0,B|440:240,10,60
440,216,51818,2,2,B|424:168|360:168|344:224,1,120
256,208,52363,6,0,B|256:128,2,60
208,208,52772,2,0,B|208:128,2,60,0|0|0
160,208,53181,2,0,B|160:128,2,60,0|0|0
112,208,53590,2,0,B|112:128,2,60,0|0|0
64,208,54000,2,0,B|32:208,5,30
40,136,54545,6,0,B|152:16|368:16|480:144,1,480
472,232,55909,1,0
376,232,56181,2,2,B|240:232,1,120
160,232,56727,5,0
160,328,57000,1,0
80,280,57272,1,0
80,280,57409,1,0
80,280,57545,1,0
112,152,57818,6,0,B|128:104|200:104|208:176,1,120
304,152,58363,2,0,B|320:104|392:104|400:176,1,120
472,256,58909,6,0,B|360:376|144:376|32:248,1,480
40,144,60296,5,0
80,176,60433,1,0
168,144,60705,1,0
200,176,60842,1,0
272,112,61114,5,12
344,176,61387,1,0
440,192,61660,1,8
448,288,61933,2,0,B|336:288,1,60
344,288,62205,5,0
296,280,62342,1,0
256,256,62478,1,0
224,216,62614,1,0
176,216,62751,1,2
144,256,62887,1,0
104,280,63023,1,0
56,288,63160,1,0
56,288,63296,5,8
56,192,63569,1,0
56,96,63842,1,8
128,32,64114,2,0,B|184:32|184:72,1,60
176,152,64524,5,0
176,200,64660,1,0
192,248,64796,1,0
232,280,64933,1,2
280,280,65069,1,0
320,248,65206,1,0
336,200,65342,1,0
336,152,65478,6,0,B|400:88,1,60,12|0
328,112,65751,1,0
232,112,66024,1,8
136,112,66296,2,0,B|192:168,1,60
168,200,66569,5,0
144,240,66705,1,0
152,288,66842,1,0
184,320,66978,1,0
232,320,67114,1,2
264,288,67251,1,0
272,240,67387,1,0
248,200,67524,1,0
208,168,67660,6,0,B|208:104,5,60,8|0|0|0|8|0
232,64,68478,1,0
272,40,68614,1,0
352,96,68887,6,0,B|296:128|400:160,2,60
400,96,69296,2,0,B|456:128|352:160,3,60,2|0|0|0
376,176,69842,6,0,B|376:264|336:328|208:352,1,240,12|0
192,336,70524,1,0
192,336,70660,1,8
192,336,70796,1,0
160,304,70933,2,0,B|144:240|240:96|320:136,2,240,0|0|0
192,336,72160,6,0,B|336:192,1,180,8|0
384,144,72842,1,0
384,144,72978,2,0,B|320:208,1,60,8|0
296,168,73251,5,0
256,144,73387,1,0
208,128,73524,2,0,B|144:104|96:160,1,120,2|0
80,200,73933,1,0
72,248,74069,1,0
112,280,74205,6,0,B|168:336,1,60,2|0
202,322,74478,2,0,B|264:257,1,60,8|0
291,278,74751,2,0,B|347:334,1,60,2|0
382,321,75024,2,0,B|443:255,1,60,8|0
389,243,75296,1,0
328,168,75569,1,0
232,168,75842,2,8,B|152:88,2,90
232,168,76387,6,0,B|176:224,1,60,2|0
144,232,76660,1,8
76,164,76933,1,2
143,96,77205,1,8
191,96,77342,1,0
256,208,77478,12,4,78296
272,192,78569,6,2,B|264:112|360:104,1,120,10|0
368,104,78978,2,0,B|448:104|448:192,1,120,10|0
464,224,79387,1,0
440,264,79524,2,2,B|400:360|256:360|176:248,1,300,8|0
152,240,80342,1,0
184,208,80478,1,0
152,176,80614,6,2,B|192:96|288:56|400:56|464:128|480:168,1,360,8|0
424,168,81569,1,0
464,192,81705,2,2,B|480:256|408:312|312:320|224:256,1,300,8|0
56,328,82933,6,2,B|56:192,1,120,14|0
104,208,83342,2,2,B|104:336,1,120,8|0
152,328,83751,1,0
200,328,83887,1,0
248,328,84024,2,10,B|232:248|144:224,2,120,8|0|8
296,328,84705,6,0,B|368:328,2,60
296,280,85114,2,2,B|256:192|176:144|72:144,3,240,8|0|0|0
296,88,87296,5,8
360,160,87569,1,8
224,200,87978,1,0
304,144,88251,2,0,B|224:200,4,60
336,184,88933,2,0,B|328:272|232:344|136:280,1,240,8|0
88,232,89751,5,0
216,160,90160,1,0
152,232,90433,2,0,B|200:184,4,60
120,200,91114,6,0,B|64:120|144:24|256:32,1,240,8|0
320,40,91933,2,0,B|352:24|392:56,1,60,0|2
424,128,92342,2,0,B|456:144|448:192,1,60,0|2
424,272,92751,5,8
336,304,93024,2,0,B|304:328|280:288,1,60,0|2
200,248,93433,2,0,B|152:272|144:184,2,60,0|2|0
256,208,93842,12,4,96024
64,64,104751,5,8
112,64,104887,2,0,B|64:128,1,60,0|0
112,136,105159,2,0,B|72:192,1,60,0|8
112,208,105433,2,0,B|72:264,2,60,0|0|0
160,208,105842,5,8
200,184,105978,1,0
216,136,106114,1,8
224,88,106251,1,8
256,48,106387,1,10
304,32,106524,1,8
352,24,106660,1,0
400,32,106796,1,0
448,64,106933,5,8
400,64,107069,2,0,B|448:128,1,60
400,136,107341,2,0,B|440:192,1,60,0|8
400,208,107615,2,0,B|440:264,2,60
352,208,108024,5,8
312,184,108160,1,0
296,136,108296,1,8
296,88,108433,1,8
256,48,108569,1,2
208,32,108706,1,8
160,24,108842,1,0
112,32,108978,1,0
80,64,109114,6,0,B|8:120,3,60,2|0|0|0
32,152,109660,2,0,B|88:208,3,60,2|0|0|0
72,240,110205,2,0,B|8:304,3,60,2|0|0|0
32,328,110751,1,10
80,328,110887,1,10
432,328,111296,6,0,B|504:272,3,60,2|0|0|0
480,240,111842,2,0,B|424:184,3,60,2|0|0|0
440,152,112387,2,0,B|504:88,3,60,2|0|0|0
480,64,112933,1,12
432,64,113069,1,12
296,16,113478,5,0
216,64,113751,1,8
296,112,114024,1,0
256,136,114160,1,0
216,168,114296,1,8
256,192,114433,1,0
264,288,114705,1,0
224,312,114842,1,8
264,344,114978,1,0
304,376,115114,1,0
344,344,115251,1,0
384,312,115387,1,8
344,288,115524,1,0
344,192,115796,5,0
384,168,115933,1,8
344,136,116069,1,0
248,136,116342,1,0
208,160,116478,1,8
248,184,116614,1,0
248,280,116887,1,0
216,312,117024,2,0,B|168:360,1,60,8|0
128,352,117296,2,0,B|72:296,1,60,2|2
88,264,117569,2,0,B|136:216,1,60
176,224,117842,6,0,B|136:176|176:112|184:96,1,120,2|8
272,112,118387,2,0,B|312:176|272:224,1,120,2|8
176,224,118933,2,0,B|136:176|176:112|184:96,1,120,2|8
272,112,119478,2,0,B|312:176|272:224,1,120,2|8
224,288,120024,6,0,B|224:152,1,120,8|0
224,168,120569,1,8
224,168,120774,1,8
224,168,120978,1,8
64,120,121387,6,0,B|144:32,1,60,8|2
407,75,121796,6,0,B|448:120,1,60,8|2
