osu file format v6

[General]
AudioFilename: F-Zero_-_Big_Blue.mp3
AudioLeadIn: 3000
PreviewTime: 8727
Countdown: 1
SampleSet: Soft
StackLeniency: 0.8
Mode: 0
LetterboxInBreaks: 1
StoryFireInFront: 0

[Editor]
Bookmarks: 8727,9545,14795,15000,15136,15272,19568,20250,20795,21750,27340,27954,29318,30136,43686,61140,96050
DistanceSpacing: 0.899999976158142
BeatDivisor: 4
GridSize: 8

[Metadata]
Title:Big Blue
Artist:Naoto Ishida/Yumiko Kametani
Creator:BananasGoMoo
Version:Loogie vs. BlueDragon
Source:F-Zero
Tags:F-Zero SNES Captain Falcon Matma Rex Loogiesquared Blue Dragon

[Difficulty]
HPDrainRate:4
CircleSize:3
OverallDifficulty:6
SliderMultiplier:1.2
SliderTickRate:2

[Events]
//Background and Video events
0,0,"fzero.jpg"
//Break Periods
2,35109,42586
2,56654,58404
//Storyboard Layer 0 (Background)
//Storyboard Layer 1 (Fail)
//Storyboard Layer 2 (Pass)
//Storyboard Layer 3 (Foreground)
Sprite,Foreground,Centre,"Loogiesquared.png",320,240 M,0,0,,368,374 F,0,0,750,1,0 F,0,750,818,0,1 F,0,818,954,1,0 F,0,954,1022,0,1 F,0,1022,2113,1,0 F,0,2113,2181,0,1 F,0,2181,2931,1,0 F,0,2931,3000,0,1 F,0,3000,3068,1,0 F,0,3068,3136,0,1 F,0,3136,4363,1 R,0,4363,17739,-0.06143982,0.1638397 R,0,17739,35250,0.1638397,-0.210333 F,0,4363,59454,1,0 R,0,35250,59522,-0.210333,-0.04649263 F,0,59454,59522,0,1 F,0,59522,59727,1,0 F,0,59727,59795,0,1 F,0,59795,59863,1,0 F,0,59863,59931,0,1 F,0,59931,60477,1,0.1482305
Sprite,Foreground,Centre,"BlueDragon.png",320,240 F,0,61090,61159,0,1 M,0,61159,,392,378 F,0,61159,61840,1,0 F,0,61840,61909,0,1 F,0,61909,61977,1,0 F,0,61977,62045,0,1 R,0,63761,63781,0,-0.02048035 R,0,63781,63801,-0.02048035,-0.04096008 R,0,63801,63821,-0.04096008 R,0,63821,63841,-0.04096008,-0.06143982 R,0,63841,63861,-0.06143982 R,0,63861,63881,-0.06143982,-0.08192017 R,0,63881,63901,-0.08192017 R,0,63901,63921,-0.08192017 R,0,63921,63941,-0.08192017 R,0,63941,63961,-0.08192017 R,0,63961,63981,-0.08192017,-0.1023999 R,0,63981,64001,-0.1023999 R,0,64001,64021,-0.1023999 R,0,64021,64041,-0.1023999 R,0,64041,64061,-0.1023999 R,0,64061,64081,-0.1023999 R,0,64081,64101,-0.1023999,-0.1228803 R,0,64101,64121,-0.1228803 R,0,64121,64141,-0.1228803 R,0,64141,64171,-0.1228803 R,0,64171,64191,-0.1228803 R,0,64191,64211,-0.1228803 R,0,64211,64231,-0.1228803 R,0,64231,64251,-0.1228803 R,0,64251,68031,-0.1228803,0.1843201 R,0,68031,73755,0.1843201,-0.2047998 R,0,73755,78762,-0.2047998,0.1843201 R,0,78762,83175,0.1843201,-0.2047992 R,0,83175,87511,-0.2047992,0.2048004 R,0,87511,91601,0.2048004,-0.2457599 F,0,62045,93681,1 R,0,91601,93871,-0.2457599,0.18432 F,0,93681,94909,1,0
//Storyboard Sound Samples
//Background Colour Transformations
3,100,128,128,255

[TimingPoints]
0,272.727272727273,4,2,1,100,1,0
22977,-200,4,2,1,100,0,0
23727,-100,4,2,1,100,0,0
26113,-100,4,1,1,100,0,0
26522,-100,4,2,1,100,0,0
28295,-100,4,1,1,100,0,0
28704,-100,4,2,1,100,0,0
45204,-100,4,1,1,100,0,0
61022,-100,4,2,1,100,0,0

[Colours]
Combo1 : 255,255,255
Combo2 : 0,0,255
Combo3 : 255,255,0
Combo4 : 255,0,0

[HitObjects]
352,192,0,5,8
104,168,818,1,2
104,208,954,1,2
256,288,2181,5,8
280,40,2999,1,2
240,40,3136,1,2
160,192,4363,5,8
408,216,5181,1,2
408,176,5318,1,2
256,96,6545,5,8
232,344,7363,1,2
272,344,7499,1,2
320,280,7772,5,0
320,232,7909,2,0,C|376:176,1,60
320,184,8181,2,0,C|264:128,1,60
320,136,8454,2,0,C|376:80,1,60
320,88,8727,6,0,B|240:16|104:200|8:48|40:24|64:16|120:8|152:8,1,360,8|2
176,16,9681,1,2
472,256,10909,6,0,B|392:328|256:144|160:296|192:320|216:328|272:336|304:336,1,360,8|2
328,328,11863,1,2
320,88,13090,6,0,B|240:16|104:200|8:48|40:24|64:16|120:8|152:8,1,360,8|2
176,16,14045,1,2
256,240,14727,6,2,B|304:248|304:192|232:192,1,90
216,192,15136,2,8,B|216:128,2,60
56,72,16499,5,2
104,64,16636,1,2
152,72,16772,1,2
200,88,16909,1,2
240,112,17045,1,2
272,144,17181,1,2
304,184,17318,1,2
304,240,17454,1,6
408,192,17863,5,0
320,192,18136,2,0,B|288:168|328:136,2,60,0|8|10
40,304,19090,5,0
88,272,19227,1,0
40,232,19363,1,0
88,192,19499,2,0,C|160:192|176:184|176:168|160:160|144:160|128:168|128:184|144:192|272:192,1,300
288,152,20318,1,0
248,104,20454,1,0
288,56,20590,2,0,B|376:56|368:200|352:248|328:256|280:224|128:144,1,420
200,64,21818,6,8,B|264:24|352:152,1,180
256,208,22499,2,0,B|240:176|264:136|256:136,2,60
256,248,22909,2,0,B|224:224|144:288|24:176,1,240
16,80,23727,6,0,B|0:48|24:8|16:8,1,60
256,208,24000,12,4,26181
256,200,26454,5,4
464,192,26863,6,0,B|392:192,2,60
408,192,27272,2,0,B|336:120|192:272|144:176,1,270
256,40,28363,5,4
256,280,28636,1,4
416,192,29045,5,0
360,192,29181,1,0
304,192,29318,2,0,B|240:16|120:448|56:176,1,360
56,128,30272,6,2,B|16:112|64:80,2,60
184,128,30818,1,8
240,128,30954,1,8
128,128,31227,2,0,B|88:160|152:192,3,60,0|0|0|2
216,240,31909,1,8
264,264,32045,1,8
352,176,32318,2,2,B|392:144|328:112,3,60
256,208,32863,12,4,34909
256,192,43636,6,0,B|288:192,12,30
424,192,44863,5,0
424,192,44999,1,0
424,192,45136,1,0
424,192,45272,1,0
360,88,45545,1,8
296,192,45818,1,0
240,88,46090,1,8
184,192,46363,2,0,B|128:208|200:232,2,60,0|0|8
128,88,46909,1,0
64,192,47181,1,8
128,288,47454,2,0,B|184:304|112:328,2,60,0|0|8
200,192,47863,6,0,B|200:128,2,60
256,192,48272,1,0
304,160,48409,2,0,B|304:224,2,60
256,192,48818,2,0,B|256:160|256:128,2,60
312,184,49227,1,0
360,168,49363,2,0,B|360:240,5,60
384,272,50181,6,0,B|384:208,2,60
328,280,50590,1,0
272,272,50727,2,0,B|272:336,2,60
312,232,51136,1,0
352,200,51272,2,0,B|352:168|352:136,2,60
320,248,51681,2,0,B|320:320,3,60
424,328,52636,5,8
416,224,52909,2,0,B|392:272|376:216,3,60,0|0|0|8
280,176,53590,1,8
256,224,53727,1,8
152,192,53999,2,0,B|128:240|112:184,2,60
256,152,54545,5,8
256,264,54818,1,8
352,216,55090,2,0,B|376:264|392:208,3,60,0|0|0|8
288,192,55772,1,0
288,192,55909,1,0
184,168,56181,1,8
184,280,56454,1,8
256,192,59454,5,4
256,192,59727,1,4
256,192,59863,1,4
256,192,61090,5,14
216,72,61909,6,14,B|240:48|264:96|288:40,1,60
256,192,63272,5,14
256,192,63409,1,10
288,72,64090,6,14,B|264:48|240:96|216:40,1,60
256,192,65454,5,14
232,72,66272,6,14,B|256:48|280:96|304:40,1,60
256,192,67636,5,14
256,192,67772,1,10
288,72,68454,6,14,B|264:48|240:96|216:40,1,60
224,168,68863,6,0,B|312:176,7,60,0|0|0|0|0|0|0|4
456,80,70636,5,4
456,136,70772,1,0
24,360,71999,5,4
80,360,72136,1,0
352,360,72818,5,4
296,360,72954,1,4
256,232,73227,6,0,B|176:192,1,60,0|8
248,184,73499,2,0,B|192:128,1,60,0|8
256,152,73772,2,0,B|232:80,1,60,0|8
288,120,74045,2,0,B|304:48,1,60,0|4
256,352,74999,5,4
256,352,75136,1,0
256,80,75818,5,2
336,104,76022,1,2
400,152,76227,1,0
392,208,76363,1,2
384,264,76499,1,2
128,176,77181,5,2
184,184,77318,2,8,B|224:240|152:280|72:264|40:208|72:96|128:72|176:48|296:96|280:192|288:232|232:280|184:312,1,540,8|0
424,312,79090,6,8,B|448:232,1,60
392,272,79363,2,0,B|352:216,1,60,0|2
120,104,80181,5,2
232,104,80454,1,8
344,104,80727,2,8,B|368:104|328:208|256:280|224:296|176:304|128:296|104:280|72:248,1,360,8|0
64,224,81681,1,8
344,200,82909,6,8,B|472:200,1,120,8|0
464,144,83318,2,8,B|320:144,1,120,8|0
288,144,83727,1,0
232,144,83863,1,0
176,152,83999,2,2,B|176:128|136:32|96:112|96:144|80:200|88:240|104:256|128:336|144:240|168:216|200:184,1,360
256,192,84954,5,0
208,224,85090,2,0,B|248:264|296:264|320:208|336:184|344:184|392:264|424:272|440:216|432:176|424:128|368:80|336:96|320:136|240:128|136:208|112:176|160:48|0:152|168:216|-8:296|288:344,1,840
296,192,87272,6,2,B|320:112|288:64|208:88|176:144|160:192|128:224|16:248|48:112,1,420
256,208,88363,12,2,89454
216,192,89727,6,2,B|192:272|248:272|280:288|304:256|304:200|360:192|416:192|408:272,1,300
256,208,90545,12,2,91635
256,192,91909,6,0,B|176:192,1,60,0|8
144,192,92181,2,8,B|64:192,1,60
32,192,92454,1,2
32,248,92590,1,2
32,248,92727,2,2,B|32:312|32:312|176:312,1,180
256,312,93409,5,0
312,312,93545,1,0
368,312,93681,1,0
424,304,93818,6,4,B|456:256|432:232|368:224|-72:224|312:152|368:152|432:144|432:112|416:56|280:0|320:64|368:0|224:0|0:16|40:264,1,840
200,208,96204,6,2,B|232:240|272:184,1,60
360,200,96545,2,2,B|360:136,3,60
256,208,97090,12,2,99000
256,192,99272,6,2,B|200:152,1,60,2|0
232,200,99545,2,2,B|176:240,1,60,2|0
240,248,99818,2,2,B|296:288,1,60,2|0
144,328,100363,6,2,B|80:248|64:176|80:120|160:56|256:24|352:48|408:112|368:224|360:248,1,600
232,216,102000,1,8
240,272,102136,1,0
296,272,102272,1,8
384,216,102545,6,2,B|352:152|272:120|216:104,1,180
192,120,103090,1,8
144,152,103227,1,0
120,200,103363,1,8
120,256,103500,2,0,B|168:336|224:352|264:352,1,180
312,328,104045,2,8,B|376:272,1,60
376,240,104318,1,2
344,200,104454,1,2
272,120,104727,1,4
