osu file format v6

[General]
AudioFilename: F-Zero_-_Big_Blue.mp3
AudioLeadIn: 0
PreviewTime: 8727
Countdown: 1
SampleSet: Soft
StackLeniency: 0.8
Mode: 0
LetterboxInBreaks: 1
StoryFireInFront: 0

[Editor]
Bookmarks: 8727,43686,61140,96050
DistanceSpacing: 0.800000011920929
BeatDivisor: 4
GridSize: 8

[Metadata]
Title:Big Blue
Artist:Naoto Ishida/Yumiko Kametani
Creator:BananasGoMoo
Version:3rd Place
Source:F-Zero
Tags:F-Zero SNES Captain Falcon Matma Rex Loogiesquared Blue Dragon

[Difficulty]
HPDrainRate:4
CircleSize:4
OverallDifficulty:2
SliderMultiplier:0.8
SliderTickRate:1

[Events]
//Background and Video events
0,0,"fzero.jpg"
//Break Periods
2,43836,59530
//Storyboard Layer 0 (Background)
//Storyboard Layer 1 (Fail)
//Storyboard Layer 2 (Pass)
//Storyboard Layer 3 (Foreground)
//Storyboard Sound Samples
//Background Colour Transformations
3,100,128,128,255

[TimingPoints]
0,272.727272727273,4,2,1,100,1,0

[Colours]
Combo1 : 255,255,255
Combo2 : 0,0,255
Combo3 : 255,255,0
Combo4 : 255,0,0

[HitObjects]
256,192,8727,2,0,B|168:216,1,80
120,232,9272,1,0
168,296,9545,2,2,B|256:272,1,80
304,256,10090,1,8
304,192,10363,1,2
264,144,10636,1,8
200,160,10909,6,0,B|200:248|224:296|280:336|336:352,1,240,0|8
360,296,11999,1,2
384,240,12272,1,8
368,176,12545,1,8
320,128,12818,1,8
256,104,13090,5,2
224,160,13363,1,0
192,216,13636,1,0
144,168,13909,1,8
144,168,14045,1,0
64,120,14454,1,0
40,176,14727,6,0,B|48:248|136:320,1,160
152,288,15409,1,2
304,336,16090,1,0
304,336,16227,1,0
312,272,16499,1,2
328,240,16636,1,0
320,208,16772,1,2
296,184,16909,2,0,B|232:160|160:184,1,120,8|0
144,184,17454,1,4
48,192,17727,5,0
16,136,17999,1,8
40,80,18272,1,0
104,64,18545,1,8
168,64,18818,1,0
232,64,19090,1,8
232,96,19227,1,0
240,128,19363,1,0
240,160,19499,1,0
256,192,19636,6,0,B|176:184|120:160|56:200,1,200
56,232,20454,1,2
88,232,20590,2,8,B|144:256|232:248|80:336|120:376|280:352,1,280,8|10
288,312,21818,5,2
336,264,22090,1,2
328,232,22227,1,0
344,200,22363,1,0
376,200,22499,1,0
408,200,22636,1,2
440,200,22772,1,2
472,192,22909,6,0,B|440:120|376:72|312:80,1,200
288,80,23727,1,2
256,88,23863,1,2
232,112,23999,2,0,B|168:184,1,80,0|8
200,232,24545,1,0
264,232,24818,1,8
272,168,25090,5,0
272,104,25363,1,8
208,104,25636,1,0
144,104,25909,1,8
88,136,26181,5,2
88,200,26454,1,2
144,200,26863,1,2
144,232,26999,1,2
168,256,27136,2,0,B|256:256|296:208|304:136,1,200,0|8
216,160,28363,5,0
152,160,28636,1,0
128,104,29045,1,0
128,104,29181,1,0
128,104,29318,2,2,B|256:96|328:40,1,200,2|0
352,48,30136,1,2
384,56,30272,1,0
392,88,30409,1,2
368,120,30545,6,2,B|280:112|200:160,1,160
208,184,31227,1,0
200,216,31363,1,0
200,248,31499,1,0
200,280,31636,6,2,B|128:328,1,80
112,304,32045,2,0,B|80:256|128:216,1,80
136,208,32454,2,0,B|48:168,1,80,8|4
256,208,33000,12,0,34090
80,168,34363,5,8
96,232,34636,1,8
184,248,35045,5,4
200,224,35181,2,0,B|256:224,4,40
200,192,35863,2,0,B|248:160,1,40
280,208,36272,1,0
280,264,36409,2,0,B|248:320|160:320,1,120,0|2
128,352,37090,5,0
64,352,37363,1,0
64,288,37636,1,8
128,288,37909,1,8
128,224,38181,5,0
160,224,38318,1,2
192,224,38454,1,0
192,192,38590,1,2
224,192,38727,1,0
256,192,38863,2,0,B|256:104,1,80
256,80,39272,6,2,B|200:48|120:48|88:72,1,160
96,128,40090,1,0
120,184,40363,1,8
136,208,40499,1,0
160,232,40636,1,8
144,256,40772,6,0,B|112:224|32:192,1,120
16,280,41454,1,0
16,280,41727,1,8
16,344,41999,1,2
80,344,42272,1,8
80,280,42545,1,2
136,312,42818,1,0
128,248,43090,5,0
160,248,43227,1,0
192,248,43363,1,0
192,184,43636,1,4
120,192,61090,6,0,B|216:192,1,80
264,192,61636,1,0
264,256,61909,1,8
232,256,62045,1,2
232,352,62454,1,2
168,352,62727,1,2
168,288,62999,1,2
136,232,63272,6,0,B|72:272|72:304,1,80
24,248,63818,1,0
64,200,64090,1,8
88,176,64227,1,2
184,152,64636,1,0
184,88,64909,1,0
248,88,65181,1,0
248,152,65454,6,2,B|320:184|360:136|408:80|480:72,1,240
464,104,66409,1,0
464,200,66818,1,8
464,264,67090,1,8
408,296,67363,1,8
400,232,67636,6,0,B|352:272|280:272|232:224|168:304,1,240
152,320,68590,1,0
152,224,68999,1,2
112,176,69272,1,2
176,176,69545,1,2
240,176,69818,6,0,B|352:232|416:152|392:56,1,240,0|8
376,48,70772,1,2
280,48,71181,1,0
216,48,71454,1,0
152,48,71727,1,0
216,48,71999,6,2,B|152:72|144:152|160:192,1,160
224,176,72818,2,0,B|224:224,1,40,8|0
224,280,73363,1,0
312,240,73636,1,0
312,176,73909,1,0
376,184,74181,6,0,B|464:168|440:304,1,160
376,312,74999,1,2
344,320,75136,1,2
184,320,75818,6,0,B|120:288|88:232,1,120
80,216,76363,1,0
80,184,76499,1,0
128,104,76909,1,0
184,80,77181,1,0
216,80,77318,1,0
272,112,77590,2,2,B|312:152,5,40
344,184,78545,6,0,B|408:240,1,80
424,264,79090,2,0,B|472:240|512:176|456:104|368:80|288:80|424:40,1,320
448,48,80318,2,0,B|488:80,3,40
344,128,80999,1,8
408,128,81272,1,0
464,160,81545,1,8
480,224,81818,1,0
416,224,82090,1,8
368,272,82363,1,0
328,224,82636,1,8
280,272,82909,5,4
216,344,83318,2,0,B|120:352,1,80
128,320,83727,1,0
120,288,83863,1,0
112,256,83999,6,0,B|96:200|120:160|184:120,1,160
240,112,84818,1,0
304,112,85090,1,2
304,176,85363,1,0
240,176,85636,1,2
272,232,85909,1,0
272,296,86181,1,2
216,264,86454,1,0
216,328,86727,1,2
160,296,86999,1,4
160,232,87272,6,0,B|160:160|160:104|264:104|328:104|368:104,1,280
360,200,88636,1,0
360,264,88909,1,0
296,264,89181,1,0
296,200,89454,5,0
296,136,89727,1,2
208,184,90136,1,2
192,208,90272,1,2
160,224,90409,6,0,B|112:168|128:24,1,200,8|0
160,32,91227,1,0
192,24,91363,1,0
224,16,91500,1,0
256,16,91636,1,8
288,72,91909,5,2
320,128,92181,1,0
304,192,92454,1,0
296,256,92727,5,8
248,296,92999,1,2
184,296,93272,1,0
128,264,93545,1,0
96,208,93818,5,8
88,144,94090,2,0,B|184:144,4,80
120,56,95454,5,0
152,56,95590,1,2
184,56,95863,1,2
216,56,96000,1,4
