osu file format v6

[General]
AudioFilename: F-Zero_-_Big_Blue.mp3
AudioLeadIn: 0
PreviewTime: 8727
Countdown: 1
SampleSet: Soft
StackLeniency: 0.8
Mode: 0
LetterboxInBreaks: 1
StoryFireInFront: 0

[Editor]
Bookmarks: 8727,43686,61140,96050
DistanceSpacing: 1
BeatDivisor: 4
GridSize: 8

[Metadata]
Title:Big Blue
Artist:Naoto Ishida/Yumiko Kametani
Creator:BananasGoMoo
Version:2nd Place
Source:F-Zero
Tags:F-Zero SNES Captain Falcon Matma Rex Loogiesquared Blue Dragon

[Difficulty]
HPDrainRate:4
CircleSize:5
OverallDifficulty:6
SliderMultiplier:1.2
SliderTickRate:1

[Events]
//Background and Video events
0,0,"fzero.jpg"
//Break Periods
2,43836,58404
//Storyboard Layer 0 (Background)
//Storyboard Layer 1 (Fail)
//Storyboard Layer 2 (Pass)
//Storyboard Layer 3 (Foreground)
//Storyboard Sound Samples
//Background Colour Transformations
3,100,128,128,255

[TimingPoints]
0,272.727272727273,4,2,1,100,1,0

[Colours]
Combo1 : 255,255,255
Combo2 : 0,0,255
Combo3 : 255,255,0
Combo4 : 255,0,0

[HitObjects]
48,88,8727,2,0,B|56:136|96:200|176:208,1,180,0|2
224,208,9272,1,8
344,184,9545,1,0
344,240,9681,1,0
344,64,10090,1,8
248,136,10363,1,8
200,248,10636,1,8
208,368,10909,6,0,B|280:344|304:296|304:224,1,180
304,176,11454,1,0
232,80,11727,1,8
176,80,11863,1,0
88,144,12136,2,0,B|64:208|88:288|112:328|176:344,1,240
184,288,12818,1,2
232,256,12954,1,4
248,312,13090,6,0,B|312:328|368:288|408:240,1,180
440,200,13636,1,0
352,120,13909,2,0,B|264:120|208:136|168:152,1,180
120,168,14454,1,8
80,208,14590,1,0
112,256,14727,6,2,B|176:240|88:168|168:144,2,120
88,200,15409,2,0,B|8:224|96:304|-8:352,1,180
8,224,16090,1,8
48,264,16227,1,2
168,208,16636,5,8
288,200,16909,1,8
280,80,17181,1,4
160,48,17454,6,0,B|96:72|64:120|64:200,1,180
88,240,17999,1,2
120,288,18136,1,2
176,304,18272,1,8
160,248,18409,6,0,B|128:184|216:144|296:160|320:240,1,240
296,344,19090,1,0
296,344,19227,1,2
328,296,19363,1,2
360,248,19499,1,0
360,248,19636,1,8
424,144,19909,1,0
320,96,20181,5,0
272,128,20318,1,0
248,72,20454,1,2
208,32,20590,2,2,B|160:80|40:120,1,180,8|10
64,232,21272,1,2
176,280,21545,1,2
224,168,21818,5,8
344,168,22090,1,2
344,224,22227,1,2
224,168,22499,1,8
160,168,22636,1,0
160,224,22772,1,0
152,280,22909,2,2,B|224:312|272:264|264:184|256:112|320:64,1,300,2|8
352,112,23727,1,0
376,232,23999,6,2,B|320:256|248:240|200:296|192:168|24:200,1,360
128,264,25090,1,8
216,184,25363,1,8
312,112,25636,1,8
408,40,25909,1,0
392,160,26181,6,0,B|296:240,1,120
208,312,26727,1,2
160,280,26863,2,8,B|152:192,1,60,8|10
96,208,27136,2,2,B|152:184|280:240,1,180,0|4
328,232,27818,6,2,B|264:248|208:216|160:176|72:224,1,240
48,328,28636,1,8
168,328,28909,1,2
224,328,29045,1,2
280,328,29181,1,8
336,336,29318,2,4,B|272:336|216:296|168:272|104:336|40:328,1,300,4|0
40,272,30136,1,2
32,216,30272,1,8
80,184,30409,1,2
136,168,30545,6,0,B|256:168|320:88|216:40,1,240,0|8
168,64,31227,1,0
112,56,31363,1,0
72,96,31499,2,0,B|72:160,1,60,0|8
96,272,31909,1,2
144,304,32045,1,2
264,280,32318,1,2
312,248,32454,1,8
344,200,32590,1,8
352,144,32727,6,4,B|280:96|232:96|176:120|144:184|184:264|272:296|360:240|408:160,1,480,4|2
256,208,33954,12,0,34635
56,192,34909,5,0
72,248,35045,1,2
112,288,35181,1,0
160,320,35318,1,2
216,320,35454,2,0,B|288:320|328:272,1,120,0|2
368,160,35999,1,8
272,80,36272,2,0,B|80:160,1,180,0|8
64,192,36818,1,8
88,312,37090,5,0
128,272,37227,1,0
168,312,37363,1,0
224,288,37499,2,2,B|272:248|208:112,1,180
136,24,38181,1,0
80,40,38318,1,8
88,96,38454,1,8
144,112,38590,1,8
176,160,38727,2,0,B|96:160,2,60
280,224,39272,5,0
336,248,39409,1,0
392,224,39545,1,0
336,200,39681,2,2,B|296:152|352:88|416:64|264:24|176:56,1,300
136,88,40499,1,8
104,136,40636,1,2
96,192,40772,2,0,B|112:256|192:272,1,120,8|4
232,272,41181,2,0,B|328:304|352:168|320:56|184:24|40:120,1,480
72,168,42409,2,0,B|120:216|192:184|216:120|304:128|360:176|400:320,1,420
280,280,43636,1,4
264,224,59454,5,8
144,192,59727,1,8
160,312,59999,1,8
64,240,60272,5,8
64,296,60409,1,0
112,264,60545,1,0
112,320,60681,1,0
64,352,60818,1,0
184,352,61090,5,8
272,272,61363,2,2,B|336:304|392:272|432:216,1,180,2|2
392,176,61909,1,8
344,144,62045,1,2
192,240,62454,1,8
88,176,62727,1,8
128,64,62999,1,8
248,48,63272,6,0,B|312:64|376:104|408:152|408:216,1,240
320,288,64090,1,8
264,272,64227,2,2,B|192:248|176:176|192:120,1,180
80,88,64909,1,8
32,200,65181,1,8
56,320,65454,6,0,B|136:320|168:264|192:208|184:144|264:96|312:88,1,360,8|0
360,112,66409,1,2
280,272,66681,5,0
232,240,66817,1,0
184,272,67090,1,0
88,272,67363,1,0
16,176,67636,6,2,B|104:88,1,120,8|2
224,80,68181,1,0
344,96,68454,2,2,B|400:152|360:216|288:312,1,240
232,312,69136,1,8
184,280,69272,1,0
232,248,69409,1,8
184,216,69545,1,0
232,184,69681,1,8
280,152,69818,6,2,B|248:96|168:112|104:136|72:184|80:264|88:336,1,360,2|8
32,352,70772,1,8
80,240,71045,1,0
128,280,71182,1,0
16,256,71454,1,0
128,224,71727,1,0
56,136,71999,6,0,B|144:128|192:144|232:192|224:256,1,240,8|4
336,240,72818,1,0
336,184,72954,2,8,B|304:152|264:128|224:120,1,120,8|4
176,120,73363,1,0
40,232,73772,1,0
88,200,73909,1,0
48,160,74045,1,0
32,104,74181,6,0,B|144:40,1,120
192,48,74590,1,0
248,64,74727,2,0,B|280:120,2,60
200,104,75136,1,8
160,272,75545,1,0
280,288,75818,1,0
280,160,76090,5,2
320,120,76227,1,2
376,112,76363,1,2
416,152,76499,2,8,B|400:224|344:248|264:224|200:224|208:320,1,300,8|4
152,328,77318,1,0
64,176,77727,5,0
168,120,77999,1,0
272,176,78272,1,0
288,296,78545,6,0,B|216:248|152:240|96:256,1,180
32,168,79227,1,2
88,144,79363,1,2
144,128,79499,2,8,B|272:120|440:224,1,300,8|0
464,264,80318,1,2
408,264,80454,1,2
352,248,80590,2,0,B|280:200,2,60
288,256,80999,1,0
176,248,81272,1,0
72,184,81545,1,0
48,128,81681,2,0,B|248:128,1,180
288,128,82227,5,0
336,96,82363,1,0
392,88,82499,1,0
448,80,82636,1,0
448,200,82909,5,8
336,248,83181,1,8
216,264,83454,1,8
176,224,83590,1,2
120,216,83727,1,2
80,176,83863,1,8
72,120,83999,6,0,B|136:96|200:136|240:184|320:168|368:152,1,300,4|0
408,120,84818,1,0
448,160,84954,1,0
416,208,85090,1,0
312,272,85363,1,0
192,264,85636,5,0
144,232,85772,1,0
96,200,85909,1,0
56,88,86181,1,0
112,56,86318,1,0
176,48,86454,1,0
224,88,86590,1,0
232,144,86727,1,0
224,200,86863,1,0
176,240,86999,1,0
120,264,87136,1,0
96,320,87272,6,8,B|160:336|240:320,1,120
328,280,87818,1,2
432,224,88090,2,8,B|448:152|384:96|344:80|280:64|216:128|232:224,1,360,8|0
56,376,89454,6,2,B|56:248,1,120
8,144,89999,1,0
16,200,90136,1,0
56,160,90272,2,0,B|112:120|192:96|224:104|296:128|392:200,1,360
336,232,91227,1,8
296,280,91363,1,8
256,320,91499,1,8
208,288,91636,6,0,B|152:224,1,60
128,200,91909,2,0,B|88:152|64:88,1,120
112,64,92318,2,8,B|168:40,1,60
224,40,92590,1,0
280,56,92727,2,0,B|344:96|360:144|352:216|304:264,1,240
256,288,93409,1,8
200,312,93545,1,8
152,280,93681,1,0
136,224,93818,6,2,B|96:176|80:112|128:32|216:24|272:32|344:56|384:104|392:176|360:256|320:320|208:328|136:328|104:328|40:288|24:200|40:56,1,960,2|4
