osu file format v6

[General]
AudioFilename: F-Zero_-_Big_Blue.mp3
AudioLeadIn: 0
PreviewTime: 8727
Countdown: 1
SampleSet: Soft
StackLeniency: 0.8
Mode: 0
LetterboxInBreaks: 1
StoryFireInFront: 0

[Editor]
Bookmarks: 8727,43686,61140,96050
DistanceSpacing: 1.20000004768372
BeatDivisor: 4
GridSize: 8

[Metadata]
Title:Big Blue
Artist:Naoto Ishida/Yumiko Kametani
Creator:BananasGoMoo
Version:1st Place
Source:F-Zero
Tags:F-Zero SNES Captain Falcon Matma Rex Loogiesquared Blue Dragon

[Difficulty]
HPDrainRate:5
CircleSize:5
OverallDifficulty:7
SliderMultiplier:1.2
SliderTickRate:2

[Events]
//Background and Video events
0,0,"fzero.jpg"
//Break Periods
2,43836,60190
//Storyboard Layer 0 (Background)
//Storyboard Layer 1 (Fail)
//Storyboard Layer 2 (Pass)
//Storyboard Layer 3 (Foreground)
//Storyboard Sound Samples
//Background Colour Transformations
3,100,128,128,255

[TimingPoints]
0,272.727272727273,4,2,1,100,1,0

[Colours]
Combo1 : 255,255,255
Combo2 : 0,0,255
Combo3 : 255,255,0
Combo4 : 255,0,0

[HitObjects]
416,88,8727,1,0
312,176,8999,1,0
344,112,9136,1,0
296,64,9272,1,0
224,88,9409,6,0,B|160:128,2,60
96,264,10090,1,8
216,344,10363,1,8
328,256,10636,1,8
232,152,10909,5,0
168,192,11045,1,0
104,224,11181,2,0,B|56:176|56:112,1,120
184,48,11727,1,0
184,48,11863,2,0,B|312:48,1,120
368,72,12272,1,0
432,112,12409,1,0
216,144,12818,1,2
240,208,12954,1,4
192,256,13090,6,0,B|88:240|32:88,1,240
176,96,13909,1,2
104,88,14045,1,2
144,32,14181,1,8
216,144,14454,1,8
312,248,14727,6,0,B|264:248|248:216,4,60
336,184,15409,1,0
192,240,16090,2,0,B|120:224,1,60,2|8
104,168,16499,5,0
64,224,16636,1,0
96,288,16772,1,0
160,320,16909,1,0
232,320,17045,1,0
280,272,17181,1,0
288,128,17454,6,0,B|312:64|232:24,1,120
176,64,17863,2,0,B|112:24|64:80,1,120,8|2
24,136,18272,2,0,B|24:200,1,60,2|4
128,288,18818,2,2,B|200:328|240:256,1,120,2|10
224,192,19227,1,0
288,160,19363,1,0
320,224,19499,1,0
352,160,19636,6,4,B|392:160|440:216|392:272,1,120,4|2
320,352,20181,1,0
352,288,20318,1,0
288,288,20454,1,0
240,336,20590,2,2,B|136:352|96:256|112:192|152:168|224:184,1,300,2|4
280,144,21409,2,0,B|296:80|208:56,1,120
152,88,21818,5,0
112,144,21954,1,0
40,144,22090,1,0
80,80,22227,1,0
136,32,22363,2,2,B|208:0|240:40|216:104|192:136,1,180,8|4
264,160,22909,1,0
224,224,23045,1,0
152,216,23181,1,0
88,240,23318,1,0
136,296,23454,1,0
80,336,23590,1,0
32,288,23727,6,2,B|32:256|0:192|96:96|32:32,1,240
128,224,24545,2,8,B|104:176|120:112|160:56|248:16,1,240,8|2
192,256,25363,2,8,B|248:232|288:192|312:144|288:32,1,240,8|2
192,160,26181,6,0,B|320:160,2,120
192,232,26863,1,0
192,160,26999,1,4
120,160,27136,2,2,B|8:304,1,180,8|2
0,232,27681,1,0
32,168,27818,1,0
64,104,27954,2,0,B|272:104,1,180,2|2
312,96,28499,5,0
288,168,28636,1,0
232,216,28772,2,0,B|184:264,3,60
224,320,29318,2,2,B|304:264|400:312,1,180,2|4
456,176,29999,1,0
384,184,30136,1,0
312,200,30272,1,0
256,240,30409,1,0
200,200,30545,6,0,B|136:96,1,120
192,48,30954,2,0,B|264:152,1,120
320,192,31363,2,0,B|376:168|408:112,1,120
272,152,31909,1,8
200,160,32045,2,2,B|128:216|160:288,1,120,2|8
168,336,32454,1,8
256,208,32727,12,2,34363
256,192,34909,5,0
256,256,35045,1,0
256,320,35181,1,8
320,288,35318,1,0
320,224,35454,1,8
328,80,35727,2,0,B|288:40|208:32,1,120,2|2
80,72,36272,1,8
40,136,36409,6,2,B|0:184|24:272|240:312,1,300,2|10
368,280,37363,2,0,B|432:240|448:184,3,120
368,192,38318,1,0
296,192,38454,1,0
232,224,38590,1,0
192,288,38727,2,2,B|160:272|120:256,1,60
32,112,39272,6,2,B|56:48|112:8|160:16|176:24,1,180,2|0
144,88,39818,1,8
136,232,40090,1,8
272,296,40363,1,8
344,168,40636,1,8
224,80,40909,1,0
224,80,41181,1,0
224,296,41454,5,2
224,224,41590,1,0
224,152,41727,1,2
160,184,41863,1,0
168,112,41999,1,2
104,144,42136,1,0
96,72,42272,1,4
160,48,42409,2,0,B|192:24|248:8|296:32,2,120
24,96,43227,1,0
64,160,43363,1,0
64,304,43636,1,4
256,192,61090,5,8
208,240,61227,1,0
160,288,61363,1,0
80,168,61636,1,0
80,312,61909,1,8
32,264,62045,1,0
112,64,62454,5,0
40,80,62590,1,0
104,120,62727,1,0
176,104,62863,1,0
248,96,62999,1,0
376,160,63272,6,2,B|408:232|352:288|256:272|232:208,1,240
88,224,64090,1,8
120,288,64227,1,4
192,288,64499,1,0
256,256,64636,1,0
288,192,64772,1,0
256,128,64909,1,0
224,64,65045,2,0,B|168:72|128:128|144:216,1,180,0|8
64,320,65727,5,0
192,352,65999,1,0
328,312,66272,1,8
360,248,66409,1,8
256,152,66681,1,0
192,192,66818,1,0
128,152,67090,1,0
128,312,67363,1,0
136,232,67636,5,2
224,112,67909,1,0
184,56,68045,1,0
224,112,68454,2,2,B|208:152|160:160,1,60,2|2
312,240,68999,2,2,B|288:296|312:336|392:336|464:240,1,240,8|0
256,160,69818,6,2,B|320:120|400:160|376:232,1,180,8|0
216,88,70636,1,8
152,120,70772,1,8
128,184,70909,1,0
152,248,71045,1,0
88,288,71181,2,0,B|88:208|16:168,2,120
64,144,71999,6,0,B|96:112|48:32,1,120,2|0
24,104,72409,1,0
24,176,72545,1,0
96,184,72681,1,0
160,152,72818,1,8
304,136,73090,6,2,B|248:248,2,120
352,192,73772,1,0
344,264,73909,1,0
280,296,74045,1,0
264,224,74181,6,0,B|304:192|312:120|192:48|32:208,1,360
88,256,75136,1,8
208,184,75409,1,0
16,96,75818,5,2
64,56,75954,1,0
120,96,76090,1,2
184,64,76227,1,0
256,64,76363,1,4
320,96,76499,1,4
40,328,77181,5,0
112,320,77318,2,0,B|248:328|248:176|136:112,1,300
64,256,78272,2,0,B|0:144,1,120,0|2
32,96,78681,5,0
96,64,78818,1,8
168,64,78954,1,8
136,128,79090,1,0
200,128,79227,1,0
168,192,79363,1,0
112,232,79499,6,0,B|64:176|56:128|56:88|72:56,1,180,8|0
8,200,80181,1,2
8,272,80318,1,2
24,344,80454,1,8
96,344,80590,1,8
144,288,80727,2,0,B|200:288|176:240|216:200|296:200|288:296|432:312|512:160,1,420
288,88,82090,5,0
288,160,82227,1,0
216,160,82363,1,0
144,160,82499,1,0
144,88,82636,1,0
216,88,82772,1,0
288,88,82909,6,8,B|272:136|232:152|288:200|224:240|48:368,1,360
8,320,83863,1,0
56,264,83999,2,0,B|16:248|0:200|32:152|120:120,1,180
272,256,84681,2,8,B|336:232|320:128,4,120,8|0|8|0|8
144,224,86045,6,0,B|128:176|160:152|200:152|240:160|256:200|312:192|376:168|456:24,1,420,0|8
312,56,87272,5,8
240,56,87409,1,0
168,56,87545,1,8
104,96,87681,1,0
160,136,87818,1,0
232,136,87954,1,8
240,208,88090,1,8
168,208,88227,2,0,B|168:248|168:320|96:328|64:288,1,180,8|4
8,160,88909,6,8,B|16:120|32:88|24:40|216:64,1,240
328,96,89727,1,0
328,240,89999,1,2
328,168,90136,1,0
256,192,90272,1,2
256,264,90409,1,0
192,288,90545,2,0,B|208:328|248:344|312:336|368:296,1,180
384,168,91227,1,2
352,104,91363,1,2
288,72,91499,1,2
216,88,91636,6,0,B|184:216,1,120
160,272,92045,2,8,B|120:256|104:240|72:216|48:168|40:96|104:0,1,300,8|2
248,24,92999,1,8
304,72,93136,5,0
368,112,93272,1,0
432,72,93409,1,0
432,144,93545,1,0
368,176,93681,1,0
304,144,93818,2,2,B|320:224|328:248|328:352|256:392|152:384|56:336|56:272|56:232|104:208,1,480
272,8,95454,5,8
256,80,95590,1,8
240,152,95727,1,4
224,224,95863,1,8
208,296,96000,1,4
