osu file format v12

[General]
AudioFilename: naomile last christmas.mp3
AudioLeadIn: 0
PreviewTime: 16242
Countdown: 0
SampleSet: Soft
StackLeniency: 0.7
Mode: 0
LetterboxInBreaks: 0
WidescreenStoryboard: 0

[Editor]
Bookmarks: 18194
DistanceSpacing: 1.2
BeatDivisor: 4
GridSize: 4

[Metadata]
Title:LAST CHRISTMAS
TitleUnicode:LAST CHRISTMAS
Artist:Naomile
ArtistUnicode:Naomile
Creator:Lust
Version:Hard
Source:
Tags:holidays winter xmas utau
BeatmapID:334703
BeatmapSetID:133252

[Difficulty]
HPDrainRate:6
CircleSize:4
OverallDifficulty:6
ApproachRate:8
SliderMultiplier:1.3
SliderTickRate:2

[Events]
//Background and Video events
0,0,"bg1.jpg",0,0
//Break Periods
//Storyboard Layer 0 (Background)
//Storyboard Layer 1 (Fail)
//Storyboard Layer 2 (Pass)
//Storyboard Layer 3 (Foreground)
//Storyboard Sound Samples
//Background Colour Transformations
3,100,163,162,255

[TimingPoints]
877,487.80487804878,4,2,1,85,1,0
9169,-100,4,2,1,50,0,0
9413,-100,4,2,1,85,0,0
16486,-100,4,2,1,90,0,1
32096,-100,4,2,1,85,0,0
78925,-100,4,2,1,90,0,1
92584,-100,4,2,1,85,0,0
94535,-100,4,2,1,90,0,1
110145,-100,4,2,1,85,0,0

[Colours]
Combo1 : 0,128,0
Combo2 : 255,0,0
Combo3 : 255,255,255

[HitObjects]
220,319,877,2,0,P|237:249|224:181,1,130,2|2,0:0|0:0,0:0:0:0:
180,131,1608,2,0,P|138:142|112:131,2,65,0|0|0,0:0|0:0|0:0,0:0:0:0:
212,108,2218,1,0,0:0:0:0:
247,91,2340,1,2,0:0:0:0:
323,105,2584,1,0,0:0:0:0:
323,105,2828,5,2,0:0:0:0:
272,164,3072,1,0,0:0:0:0:
255,240,3316,2,0,P|258:289|272:312,1,65,0|2,0:0|0:0,0:0:0:0:
323,355,3803,2,0,P|345:325|349:291,1,65,2|0,0:0|0:0,0:0:0:0:
445,233,4291,2,0,P|439:265|427:296,1,65
436,157,4779,6,0,P|426:126|403:105,1,65,2|0,0:0|0:0,0:0:0:0:
337,61,5267,2,0,P|323:102|325:124,1,65
307,200,5755,5,2,0:0:0:0:
307,200,6120,2,0,L|334:210,2,16.25
307,200,6486,1,0,0:0:0:0:
307,200,6730,6,0,P|339:198|369:186,2,65,2|0|2,0:0|0:0|0:0,0:0:0:0:
317,122,7462,1,0,0:0:0:0:
252,77,7706,2,0,P|230:144|231:211,1,130,2|2,0:0|0:0,0:0:0:0:
235,282,8438,1,0,0:0:0:0:
294,332,8681,6,0,P|230:357|174:329,1,130,2|0,0:0|0:0,0:0:0:0:
235,282,9413,1,0,0:0:0:0:
294,332,9657,1,2,0:0:0:0:
365,298,9901,1,0,0:0:0:0:
439,320,10145,1,0,0:0:0:0:
421,244,10389,6,0,P|450:213|454:188,1,65,0|2,0:0|0:0,0:0:0:0:
374,181,10876,2,0,P|337:201|311:196,1,65,2|0,0:0|0:0,0:0:0:0:
238,182,11364,2,0,P|201:170|172:145,1,65,0|2,0:0|0:0,0:0:0:0:
316,198,11852,2,0,P|297:236|264:254,1,65,0|2,0:0|0:0,0:0:0:0:
238,181,12340,1,2,0:0:0:0:
205,110,12584,6,0,P|179:130|165:159,1,65,2|0,0:0|1:0,0:0:0:0:
163,236,13072,1,0,0:0:0:0:
163,236,13316,1,0,0:0:0:0:
230,275,13559,2,0,P|210:300|179:311,2,65,0|0|2,1:0|0:0|0:0,0:0:0:0:
261,203,14291,1,0,1:0:0:0:
192,240,14535,6,0,P|176:205|147:191,1,65,2|0,0:0|1:0,0:0:0:0:
75,194,15023,2,0,P|143:181|187:140,1,130,2|2,0:0|0:0,0:0:0:0:
280,76,15755,2,0,P|319:103|338:130,2,65,0|2|0,0:0|1:2|0:0,0:0:0:0:
266,152,16486,6,0,P|240:180|237:220,1,65,4|2,1:2|0:2,0:0:0:0:
288,262,16974,2,0,P|326:264|364:233,2,65,8|2|0,1:2|0:0|1:0,0:0:0:0:
307,185,17706,1,2,0:2:0:0:
288,262,17950,1,8,1:2:0:0:
233,205,18194,1,2,0:0:0:0:
198,119,18437,6,0,P|229:91|254:81,1,65,0|2,1:0|0:2,0:0:0:0:
160,184,18925,2,0,P|131:218|48:208,1,130,8|0,1:2|1:0,0:0:0:0:
38,136,19657,1,2,0:0:0:0:
52,212,19901,1,8,1:2:0:0:
55,289,20145,1,2,0:0:0:0:
118,336,20389,6,0,P|148:355|179:352,1,65,0|2,1:0|0:0,0:0:0:0:
162,276,20876,1,8,1:2:0:0:
234,246,21120,1,2,0:0:0:0:
289,302,21364,1,0,1:2:0:0:
289,302,21608,2,0,P|316:267|325:219,1,65,2|8,0:0|1:2,0:0:0:0:
342,172,22096,1,2,0:0:0:0:
290,115,22340,5,0,1:0:0:0:
226,70,22584,1,2,0:0:0:0:
161,113,22828,2,0,P|128:145|103:149,1,65,8|2,1:2|0:0,0:0:0:0:
37,120,23316,2,0,P|73:147|90:227,1,130,0|8,1:0|1:2,0:0:0:0:
59,298,24047,1,2,1:2:0:0:
127,335,24291,6,0,P|166:350|194:344,1,65,0|2,1:0|0:0,0:0:0:0:
275,262,24779,2,0,P|236:264|209:273,1,65,8|2,1:2|0:2,0:0:0:0:
305,334,25267,2,0,P|345:280|330:213,1,130,0|8,1:0|1:2,0:0:0:0:
310,147,25998,1,2,0:0:0:0:
232,135,26242,6,0,P|206:104|201:75,2,65,0|2|2,1:0|0:0|1:2,0:0:0:0:
285,77,26974,1,2,0:0:0:0:
285,77,27218,1,0,1:0:0:0:
363,77,27462,1,2,0:0:0:0:
363,77,27706,1,8,1:2:0:0:
422,127,27950,1,2,0:0:0:0:
441,202,28194,5,0,0:0:0:0:
425,278,28437,1,4,1:0:0:0:
362,230,28681,2,0,L|290:223,1,65,0|2,0:0|0:0,0:0:0:0:
254,289,29169,2,0,L|177:281,2,65,4|2|0,1:2|0:0|2:0,0:0:0:0:
298,224,29901,1,4,1:0:0:0:
256,192,30389,12,4,32096,0:0:0:0:
127,95,32584,5,8,1:2:0:0:
188,144,32828,2,0,P|216:166|249:172,2,65,2|0|2,0:0|1:0|0:0,0:0:0:0:
212,113,33437,1,0,0:0:0:0:
249,94,33559,1,8,1:2:0:0:
322,68,33803,1,2,0:0:0:0:
385,113,34047,5,0,1:0:0:0:
394,190,34291,2,0,P|432:176|452:148,2,65,2|8|2,0:0|1:2|0:0,0:0:0:0:
315,185,35023,1,2,1:2:0:0:
239,166,35267,1,2,0:0:0:0:
163,191,35511,1,2,1:2:0:0:
86,186,35755,1,2,0:0:0:0:
163,191,35998,6,0,P|189:228|221:240,1,65,0|2,1:0|0:0,0:0:0:0:
281,256,36486,2,0,P|327:264|368:249,1,65,8|2,1:2|0:0,0:0:0:0:
419,237,36974,2,0,P|443:217|460:189,1,65,0|2,1:0|0:0,0:0:0:0:
383,171,37462,1,8,1:2:0:0:
419,237,37706,1,2,0:0:0:0:
414,316,37950,5,0,1:0:0:0:
341,345,38194,2,0,P|312:361|261:357,2,65,2|8|2,0:0|1:2|0:0,0:0:0:0:
293,282,38925,1,2,1:2:0:0:
218,257,39169,1,2,0:0:0:0:
196,182,39413,1,2,1:2:0:0:
127,144,39657,1,2,0:0:0:0:
196,182,39901,6,0,P|232:171|266:178,1,65,0|2,1:0|0:0,0:0:0:0:
325,216,40389,1,8,1:2:0:0:
382,269,40633,1,2,0:0:0:0:
325,216,40876,1,2,1:2:0:0:
319,138,41120,1,2,0:0:0:0:
374,82,41364,2,0,P|346:61|306:65,1,65,8|2,1:2|2:0,0:0:0:0:
243,85,41852,5,0,1:0:0:0:
186,139,42096,1,2,0:0:0:0:
113,167,42340,2,0,P|89:137|86:100,2,65,8|2|2,1:2|0:0|1:2,0:0:0:0:
167,222,43072,1,2,0:0:0:0:
241,246,43316,1,0,1:0:0:0:
305,289,43559,1,2,0:0:0:0:
377,317,43803,6,0,P|417:327|443:318,2,65,2|4|0,0:0|1:0|0:0,1:0:0:0:
408,246,44535,1,2,0:0:0:0:
344,200,44779,2,0,L|279:142,1,65,4|2,1:2|0:0,0:0:0:0:
236,104,45267,1,0,2:0:0:0:
192,169,45511,2,0,L|241:218,1,65,4|0,1:2|0:0,0:0:0:0:
294,268,45998,5,2,1:2:0:0:
224,303,46242,1,0,1:2:0:0:
147,320,46486,1,2,1:2:0:0:
71,298,46730,1,0,1:2:0:0:
25,234,46974,1,2,1:2:0:0:
37,157,47218,1,0,1:2:0:0:
37,157,47706,5,4,1:2:0:0:
112,139,47950,1,2,0:0:0:0:
112,139,48194,2,0,P|140:137|168:158,1,65,8|2,1:2|0:0,0:0:0:0:
201,227,48681,2,0,P|240:176|227:115,1,130,0|8,1:0|1:2,0:0:0:0:
178,53,49413,1,2,0:0:0:0:
227,115,49657,6,0,P|281:148|346:147,1,130,0|8,1:0|1:2,0:0:0:0:
346,147,50389,2,0,P|295:185|266:243,1,130,2|2,0:0|0:0,0:0:0:0:
257,321,51120,1,8,1:2:0:0:
257,321,51364,1,2,0:0:0:0:
324,360,51608,6,0,L|390:360,1,65,0|2,1:0|0:0,0:0:0:0:
421,288,52096,2,0,L|352:288,1,65,8|2,1:2|0:0,0:0:0:0:
328,214,52584,2,0,L|393:214,2,65,0|2|8,1:0|0:0|1:2,0:0:0:0:
254,187,53316,1,2,0:0:0:0:
240,263,53559,6,0,P|195:241|188:215,1,65,0|2,1:0|0:0,0:0:0:0:
178,152,54047,1,8,1:2:0:0:
204,78,54291,1,2,0:0:0:0:
178,152,54535,2,0,P|154:183|102:197,1,65,0|2,1:0|0:0,0:0:0:0:
105,120,55023,1,8,1:2:0:0:
59,183,55267,1,2,0:0:0:0:
105,120,55511,5,0,1:0:0:0:
59,183,55755,2,0,P|65:228|99:253,2,65,2|8|2,0:0|1:2|0:0,0:0:0:0:
136,188,56486,1,0,1:0:0:0:
174,256,56730,1,2,0:0:0:0:
214,189,56974,2,0,P|264:206|278:226,1,65,8|2,1:2|0:0,0:0:0:0:
290,289,57462,6,0,P|323:317|349:322,1,65,0|2,1:0|0:0,0:0:0:0:
417,347,57950,2,0,P|387:311|388:224,1,130,2|2,1:2|1:2,0:0:0:0:
438,173,58681,1,2,0:0:0:0:
474,104,58925,1,2,1:2:0:0:
409,59,59169,1,2,0:0:0:0:
353,113,59413,5,2,1:2:0:0:
303,52,59657,1,2,0:0:0:0:
265,121,59901,2,0,P|231:140|201:142,1,65,8|0,1:2|0:0,0:0:0:0:
210,64,60389,1,0,1:0:0:0:
137,93,60633,1,2,0:0:0:0:
82,147,60876,2,0,P|103:188|121:200,1,65,8|2,1:2|0:0,0:0:0:0:
190,222,61364,6,0,P|194:190|185:159,1,65,0|2,1:0|0:0,0:0:0:0:
142,284,61852,1,8,1:2:0:0:
217,302,62096,2,0,P|254:307|301:285,1,65,2|0,0:0|1:0,0:0:0:0:
352,269,62584,1,2,1:2:0:0:
352,269,62828,1,0,1:2:0:0:
352,269,63072,1,2,1:2:0:0:
352,269,63316,1,4,0:0:0:0:
68,77,65267,6,0,P|99:93|118:126,1,65,0|2,1:0|0:0,0:0:0:0:
152,186,65755,1,8,1:2:0:0:
215,230,65998,1,2,0:0:0:0:
289,253,66242,2,0,P|343:251|361:238,2,65,0|2|8,1:0|0:0|1:2,0:0:0:0:
309,177,66974,2,0,P|304:134|322:101,1,65,2|0,0:0|1:0,0:0:0:0:
361,53,67462,6,0,P|384:94|384:141,1,65,2|8,0:0|1:2,0:0:0:0:
395,189,67950,1,2,0:0:0:0:
336,240,68194,1,0,1:0:0:0:
336,240,68437,1,2,0:0:0:0:
326,317,68681,1,8,1:2:0:0:
264,270,68925,1,2,0:0:0:0:
264,270,69047,1,0,0:0:0:0:
264,270,69169,6,0,P|202:286|135:272,2,130,0|8|0,1:0|1:2|1:0,0:0:0:0:
264,270,70389,1,2,0:0:0:0:
264,270,70633,1,8,1:2:0:0:
264,270,70876,1,2,0:0:0:0:
339,289,71120,6,0,P|382:310|411:304,2,65,0|2|8,1:0|0:0|1:2,0:0:0:0:
394,234,71852,2,0,P|344:197|274:179,1,130,2|2,0:0|0:0,0:0:0:0:
241,248,72584,2,0,P|210:224|202:199,1,65,8|2,1:2|0:0,0:0:0:0:
185,123,73072,6,0,P|216:151|301:168,1,130,0|8,1:0|1:2,0:0:0:0:
362,120,73803,1,2,0:0:0:0:
362,120,74047,1,0,1:0:0:0:
410,181,74291,2,0,L|460:243,1,65,2|8,0:0|1:2,0:0:0:0:
438,308,74779,1,2,0:0:0:0:
364,281,75023,5,0,2:0:0:0:
291,309,75267,2,0,P|285:259|293:244,1,65,6|0,1:2|0:0,0:0:0:0:
216,222,75755,2,0,L|150:170,2,65,2|4|2,0:2|1:2|0:0,0:0:0:0:
154,270,76486,2,0,L|88:219,1,65,0|4,0:2|1:2,0:0:0:0:
73,157,76974,5,0,2:0:0:0:
133,107,77218,2,0,P|159:79|170:39,2,65,2|0|2,1:2|1:0|1:2,1:0:0:0:
197,152,77950,1,0,1:0:0:0:
260,197,78194,1,2,0:0:0:0:
335,183,78437,1,2,1:2:0:0:
411,201,78681,1,2,0:0:0:0:
325,121,78925,6,0,P|337:150|334:183,1,65,4|2,1:2|0:0,0:0:0:0:
398,65,79413,2,0,P|416:104|445:137,2,65,8|2|0,1:2|0:0|1:0,0:0:0:0:
475,51,80145,1,2,0:0:0:0:
398,65,80389,1,8,1:2:0:0:
321,65,80633,1,2,0:0:0:0:
248,91,80876,6,0,P|211:127|181:135,1,65,0|2,1:0|0:0,0:0:0:0:
123,111,81364,2,0,P|165:151|157:236,1,130,8|0,1:2|1:0,0:0:0:0:
94,184,82096,1,2,0:0:0:0:
166,219,82340,1,8,1:2:0:0:
235,253,82584,1,2,0:0:0:0:
288,196,82828,5,0,1:0:0:0:
288,196,83072,1,2,0:0:0:0:
288,196,83316,1,8,1:2:0:0:
288,196,83803,5,0,1:0:0:0:
288,196,84535,1,2,0:0:0:0:
288,196,84779,5,0,1:2:0:0:
214,223,85023,1,2,0:0:0:0:
161,281,85267,1,8,1:2:0:0:
161,281,85511,2,0,P|133:264|113:238,1,65,2|0,0:0|1:0,0:0:0:0:
103,334,85998,1,2,0:0:0:0:
178,357,86242,1,8,1:2:0:0:
256,351,86486,1,0,1:0:0:0:
256,351,86730,6,0,P|276:299|350:277,1,130,2|0,1:2|1:0,0:0:0:0:
256,351,87462,2,0,P|236:299|162:277,1,130,2|2,0:0|0:0,0:0:0:0:
195,201,88194,1,8,1:2:0:0:
258,156,88437,1,2,0:0:0:0:
326,196,88681,6,0,L|378:147,2,65,2|2|2,1:2|0:0|1:2,0:0:0:0:
257,157,89413,1,2,0:0:0:0:
195,201,89657,2,0,P|159:245|70:262,1,130,0|8,1:0|1:2,0:0:0:0:
48,200,90389,1,2,0:0:0:0:
91,264,90633,5,2,0:0:0:0:
53,332,90876,1,2,1:2:0:0:
131,337,91120,2,0,L|200:337,1,65,0|2,2:0|0:0,0:0:0:0:
185,259,91608,2,0,L|254:259,2,65,0|2|0,1:0|0:2|2:0,0:0:0:0:
220,189,92340,1,2,1:2:0:0:
256,192,92828,12,4,94047,1:2:0:0:
79,324,94535,6,0,P|129:300|160:295,1,65,4|2,1:2|0:0,0:0:0:0:
210,311,95023,2,0,P|148:269|139:198,1,130,8|0,1:2|1:0,0:0:0:0:
171,149,95755,2,0,L|217:99,2,65,2|8|2,0:0|1:2|0:0,1:0:0:0:
97,123,96486,5,2,1:2:0:0:
171,149,96730,1,2,0:0:0:0:
222,207,96974,2,0,P|256:237|287:243,2,65,8|2|0,1:2|0:0|1:0,0:0:0:0:
286,162,97706,1,2,0:0:0:0:
360,137,97950,1,8,1:2:0:0:
432,165,98194,1,2,0:0:0:0:
486,220,98437,6,0,P|466:257|474:291,1,65,2|2,1:2|0:0,0:0:0:0:
497,353,98925,2,0,P|461:306|372:282,1,130,8|0,1:2|1:0,0:0:0:0:
318,290,99657,1,2,0:2:0:0:
240,301,99901,1,8,1:2:0:0:
169,267,100145,6,0,P|138:248|121:215,2,65,2|0|2,0:0|1:0|0:0,0:0:0:0:
200,195,100876,2,0,P|227:177|259:177,1,65,8|2,1:2|0:0,0:0:0:0:
315,228,101364,2,0,P|291:190|303:85,1,130,0|8,1:0|1:2,0:0:0:0:
138,139,102340,6,0,P|166:81|226:56,1,130,0|8,1:0|1:2,0:0:0:0:
283,108,103072,1,2,0:0:0:0:
335,166,103316,1,0,1:0:0:0:
267,203,103559,1,2,0:0:0:0:
323,256,103803,1,8,1:2:0:0:
400,262,104047,1,2,0:0:0:0:
466,221,104291,6,0,P|438:191|412:189,2,65,2|2|2,1:2|0:0|1:2,0:0:0:0:
400,262,105023,1,2,0:0:0:0:
356,327,105267,2,0,P|293:353|219:346,1,130,0|0,1:0|1:0,0:0:0:0:
169,304,105998,1,0,0:0:0:0:
117,245,106242,5,2,0:0:0:0:
174,192,106486,1,4,1:2:0:0:
227,135,106730,2,0,P|250:146|297:144,2,65,0|2|4,0:0|0:0|1:2,0:0:0:0:
274,73,107462,2,0,P|318:75|352:96,1,65,2|0,0:2|0:0,0:0:0:0:
256,192,107950,12,4,110145,1:2:0:0:
