osu file format v12

[General]
AudioFilename: CastleBleck.mp3
AudioLeadIn: 0
PreviewTime: 29788
Countdown: 0
SampleSet: Normal
StackLeniency: 0.7
Mode: 0
LetterboxInBreaks: 0

[Editor]
Bookmarks: 6378,45546,63431
DistanceSpacing: 1.06
BeatDivisor: 4
GridSize: 8

[Metadata]
Title:Castle Bleck
TitleUnicode:Castle Bleck
Artist:Naoko Mitome, Chika Sekigawa
ArtistUnicode:Naoko Mitome, Chika Sekigawa
Creator:Royston
Version:Normal
Source:Super Paper Mario
Tags:Nintendo Wii
BeatmapID:189942
BeatmapSetID:64574

[Difficulty]
HPDrainRate:3
CircleSize:3
OverallDifficulty:4
ApproachRate:5
SliderMultiplier:1.50000000596046
SliderTickRate:2

[Events]
//Background and Video events
0,0,"Bleck.jpg",0,0
//Break Periods
2,72646,80478
//Storyboard Layer 0 (Background)
//Storyboard Layer 1 (Fail)
//Storyboard Layer 2 (Pass)
//Storyboard Layer 3 (Foreground)
//Storyboard Sound Samples
//Background Colour Transformations
3,100,0,0,0

[TimingPoints]
2097,576.923076923077,4,1,1,40,1,0
10462,576.923076923077,6,1,1,40,1,0
17673,576.923076923077,4,1,1,40,1,0
22721,-100,4,1,1,30,0,0
29788,576.923076923077,4,1,1,40,1,1
33538,576.923076923077,6,1,1,40,1,1
40749,576.923076923077,4,1,1,40,1,1
45220,-100,4,1,1,30,0,1
45364,-100,4,1,1,30,0,0
45936,576.923076923077,4,1,1,30,1,0
47666,576.923076923077,4,1,1,30,1,0
62955,-100,4,1,1,20,0,0
63387,-100,4,1,1,40,0,0
63810,576.923076923077,4,1,1,40,1,0
68136,576.923076923077,4,1,1,40,1,0
68698,576.923076923077,4,1,1,40,1,0
70428,576.923076923077,4,1,1,40,1,0
72448,576.923076923077,4,1,1,40,1,0
98842,-100,4,1,1,30,0,0
99419,-100,4,1,1,20,0,0
99996,-100,4,1,1,15,0,0
100284,-100,4,1,1,5,0,0

[Colours]
Combo1 : 210,210,210
Combo2 : 100,0,200

[HitObjects]
120,64,6712,6,0,P|64:88|32:168,2,150.000000596046,4|0|2,0:2|0:0|0:0,0:0:0:0:
200,48,8154,1,0,0:0:0:0:
280,64,8443,1,0,0:0:0:0:
392,320,10462,6,0,P|448:296|480:216,2,150.000000596046,4|0|2,0:2|0:0|0:0,0:0:0:0:
312,336,11904,1,0,0:0:0:0:
232,320,12192,1,0,0:0:0:0:
64,80,13923,6,0,P|80:120|120:144,1,75.000000298023,0|0,0:0|0:0,0:0:0:0:
432,64,15365,1,0,0:0:0:0:
400,136,15654,1,0,0:0:0:0:
352,72,15942,1,0,0:0:0:0:
192,256,16808,2,0,P|112:256|168:160,1,225.000000894069,0|0,0:0|0:0,0:0:0:0:
192,88,17961,6,0,L|192:40,2,37.5000001490115,0|0|8,0:0|0:0|0:0,0:0:0:0:
232,160,18538,1,0,0:0:0:0:
304,120,18826,1,0,0:0:0:0:
304,200,19115,1,0,0:0:0:0:
376,160,19403,1,8,0:0:0:0:
376,240,19692,1,0,0:0:0:0:
448,200,19980,5,0,0:0:0:0:
448,280,20269,2,0,P|432:336|392:352,2,75.000000298023,0|8|0,0:0|0:0|0:0,0:0:0:0:
376,240,21134,1,0,0:0:0:0:
344,312,21423,1,0,0:0:0:0:
264,296,21711,2,0,P|252:287|236:231,1,75.000000298023,8|0,0:0|0:0,0:0:0:0:
168,192,22288,6,0,P|96:212|24:192,1,150.000000596046,0|4,0:0|0:2,0:0:0:0:
216,48,23730,1,0,0:0:0:0:
296,48,24019,1,8,0:0:0:0:
256,112,24307,1,0,0:0:0:0:
256,192,24596,6,0,L|256:280|256:344,1,150.000000596046,0|8,0:0|0:0,0:0:0:0:
344,208,25749,2,0,P|360:280|336:352,1,150.000000596046,0|8,0:0|0:0,0:0:0:0:
175,350,26903,2,0,P|152:280|168:208,1,150.000000596046,0|8,0:0|0:0,0:0:0:0:
256,72,28057,1,2,0:2:0:0:
256,192,28634,12,4,29788,0:2:0:0:
216,232,30941,5,2,0:0:0:0:
296,232,31230,1,2,0:0:0:0:
256,164,31518,1,2,0:0:0:0:
176,312,33538,6,0,P|136:320|119:232,1,150.000000596046,4|2,0:2|0:0,0:0:0:0:
216,120,34691,1,2,0:0:0:0:
296,120,34980,1,2,0:0:0:0:
256,188,35268,1,2,0:0:0:0:
256,344,36999,6,0,L|256:264,1,75.000000298023,2|2,0:0|0:0,0:0:0:0:
80,88,38441,2,0,P|71:72|71:16,2,75.000000298023,2|2|2,0:0|0:0|0:0,0:0:0:0:
320,56,39884,2,0,P|376:56|391:64,2,75.000000298023,2|0|2,0:1|0:0|0:0,0:0:0:0:
256,104,40749,5,0,0:0:0:0:
200,160,41037,1,0,0:0:0:0:
144,216,41325,2,0,L|197:269,1,75.000000298023,8|0,0:0|0:0,0:0:0:0:
256,320,41902,1,0,0:0:0:0:
312,264,42191,1,0,0:0:0:0:
368,208,42479,2,0,L|424:152,1,75.000000298023,8|0,0:0|0:0,0:0:0:0:
368,96,43056,5,0,0:0:0:0:
288,96,43345,1,0,0:0:0:0:
288,176,43633,2,0,L|208:176,1,75.000000298023,8|0,0:0|0:0,0:0:0:0:
136,152,44210,2,0,L|136:72,1,75.000000298023,0|0,0:0|0:0,0:0:0:0:
56,96,44787,2,0,L|56:176,1,75.000000298023,8|0,0:0|0:0,0:0:0:0:
80,248,45364,5,4,0:2:0:0:
240,288,45936,1,8,0:0:0:0:
296,136,46512,1,8,0:0:0:0:
368,100,46801,1,0,0:0:0:0:
440,64,47089,1,8,0:0:0:0:
368,208,47666,5,0,0:0:0:0:
400,356,48243,2,8,P|468:320|472:252,1,150.000000596046
400,280,49109,1,0,0:0:0:0:
320,272,49397,1,8,0:0:0:0:
176,344,49974,5,0,0:0:0:0:
88,216,50551,1,8,0:0:0:0:
108,140,50839,2,0,L|96:88,2,37.5000001490115,0|0|8,0:0|0:0|0:0,0:0:0:0:
168,192,51416,2,0,P|200:208|232:192,1,75.000000298023,0|8,0:0|0:0,0:0:0:0:
320,48,52282,6,0,P|400:48|400:104,1,150.000000596046,0|8,0:0|0:0,0:0:0:0:
264,184,53435,2,0,P|299:180|336:152,2,75.000000298023,8|0|8,0:0|0:0|0:0,0:0:0:0:
264,104,54301,2,0,L|240:64,2,37.5000001490115,0|0|0,0:0|0:0|0:0,0:0:0:0:
112,160,55166,5,8,0:0:0:0:
136,320,55743,1,8,0:0:0:0:
208,288,56032,1,0,0:0:0:0:
144,240,56320,1,8,0:0:0:0:
216,208,56609,2,0,L|280:176,2,37.5000001490115,0|0|0,0:0|0:0|0:0,0:0:0:0:
280,56,57474,5,8,0:0:0:0:
352,88,57762,2,0,L|392:64,2,37.5000001490115,0|0|8,0:0|0:0|0:0,0:0:0:0:
344,168,58339,1,0,0:0:0:0:
416,144,58628,1,8,0:0:0:0:
256,128,59205,6,0,P|192:184|216:264,1,150.000000596046,0|8,0:0|0:0,0:0:0:0:
336,336,60359,1,8,0:0:0:0:
408,304,60647,1,0,0:0:0:0:
344,256,60935,1,8,0:0:0:0:
432,120,61512,6,0,P|360:72|336:112,1,150.000000596046,0|8,0:0|0:0,0:0:0:0:
175,106,62666,2,0,P|152:72|80:120,1,150.000000596046,8|8,0:0|0:0,0:0:0:0:
112,192,63532,1,0,0:0:0:0:
176,240,63810,5,0,0:0:0:0:
248,272,64098,2,0,L|304:296,1,37.5000001490115
360,268,64531,1,0,0:0:0:0:
400,200,64819,1,0,0:0:0:0:
368,128,65108,2,0,L|384:72,2,37.5000001490115
288,144,65684,2,0,L|272:96,1,37.5000001490115
264,72,65973,6,0,P|235:23|192:40,1,112.500000447034
144,104,66694,1,0,0:0:0:0:
208,152,66983,1,0,0:0:0:0:
136,184,67271,2,0,L|160:240,2,37.5000001490115
72,232,67848,2,0,L|57:197,2,37.5000001490115,0|0|4,0:0|0:0|0:2,0:0:0:0:
48,312,68424,6,0,L|96:320,1,37.5000001490115
160,336,68842,1,0,0:0:0:0:
216,280,69130,1,0,0:0:0:0:
184,208,69419,2,0,L|224:192,2,37.5000001490115
176,128,69996,2,0,L|200:80,1,37.5000001490115
208,56,70284,6,0,P|251:39|280:88,1,112.500000447034
352,120,71004,1,0,0:0:0:0:
424,152,71293,1,0,0:0:0:0:
360,200,71581,2,0,L|384:256,2,37.5000001490115
296,248,72158,2,0,L|281:213,2,37.5000001490115,0|0|4,0:0|0:0|0:0,0:0:0:0:
40,120,81678,6,0,P|80:192|160:184,1,150.000000596046,0|8,0:0|0:0,0:0:0:0:
168,120,82544,1,0,0:0:0:0:
216,184,82832,2,0,P|264:184|296:160,1,75.000000298023,8|0,0:0|0:0,0:0:0:0:
264,96,83409,2,0,P|312:96|344:120,1,75.000000298023,8|0,0:0|0:0,0:0:0:0:
368,184,83986,5,2,0:2:0:0:
424,32,84563,2,0,P|437:54|437:102,1,75.000000298023,8|0,0:0|0:0,0:0:0:0:
464,176,85140,2,0,P|464:224|477:246,1,75.000000298023,8|0,0:0|0:0,0:0:0:0:
416,296,85717,2,0,P|393:309|345:309,1,75.000000298023,8|0,0:0|0:0,0:0:0:0:
328,232,86294,5,0,0:0:0:0:
296,80,86871,1,8,0:0:0:0:
296,80,87159,1,0,0:0:0:0:
216,72,87447,2,0,P|152:76|136:88,1,75.000000298023,8|0,0:0|0:0,0:0:0:0:
184,152,88024,1,8,0:0:0:0:
184,152,88313,1,0,0:0:0:0:
184,232,88601,5,2,0:2:0:0:
336,288,89178,2,0,L|408:264,1,75.000000298023,8|0,0:0|0:0,0:0:0:0:
384,184,89755,2,0,L|312:208,1,75.000000298023,8|0,0:0|0:0,0:0:0:0:
288,128,90332,2,0,L|360:104,2,75.000000298023,8|0|4,0:0|0:0|0:2,0:0:0:0:
168,232,91486,6,0,P|160:128|104:272,1,450.000001788138,8|2,0:0|0:2,0:0:0:0:
224,336,93794,5,8,0:0:0:0:
296,304,94082,1,0,0:0:0:0:
368,272,94371,2,0,P|408:280|448:264,1,75.000000298023,8|0,0:0|0:0,0:0:0:0:
400,200,94947,2,0,P|406:173|406:125,1,75.000000298023,8|0,0:0|0:0,0:0:0:0:
328,120,95524,5,2,0:2:0:0:
192,40,96101,1,8,0:0:0:0:
128,88,96390,1,2,0:2:0:0:
136,168,96678,1,8,0:0:0:0:
200,120,96967,1,0,0:0:0:0:
208,200,97255,2,0,L|201:274,1,75.000000298023,8|0,0:0|0:0,0:0:0:0:
280,256,97832,5,4,0:2:0:0:
400,152,98409,1,8,0:0:0:0:
368,80,98697,1,0,0:0:0:0:
288,80,98986,2,0,P|248:80|208:96,1,75.000000298023,8|0,0:0|0:0,0:0:0:0:
144,128,99563,1,8,0:0:0:0:
80,176,99851,1,0,0:0:0:0:
48,248,100140,1,2,0:2:0:0:
256,192,100284,12,0,101871,0:0:0:0:
