osu file format v12

[General]
AudioFilename: CastleBleck.mp3
AudioLeadIn: 0
PreviewTime: 29788
Countdown: 0
SampleSet: Normal
StackLeniency: 0.7
Mode: 0
LetterboxInBreaks: 0

[Editor]
Bookmarks: 6378,45546,63431
DistanceSpacing: 1
BeatDivisor: 12
GridSize: 8

[Metadata]
Title:Castle Bleck
TitleUnicode:Castle Bleck
Artist:Naoko Mitome, Chika Sekigawa
ArtistUnicode:Naoko Mitome, Chika Sekigawa
Creator:Royston
Version:Hard
Source:Super Paper Mario
Tags:Nintendo Wii
BeatmapID:189941
BeatmapSetID:64574

[Difficulty]
HPDrainRate:5
CircleSize:4
OverallDifficulty:7
ApproachRate:8
SliderMultiplier:2.10000000596046
SliderTickRate:2

[Events]
//Background and Video events
0,0,"Bleck.jpg",0,0
//Break Periods
2,72648,80928
//Storyboard Layer 0 (Background)
//Storyboard Layer 1 (Fail)
//Storyboard Layer 2 (Pass)
//Storyboard Layer 3 (Foreground)
//Storyboard Sound Samples
//Background Colour Transformations
3,100,0,0,0

[TimingPoints]
2097,576.923076923077,4,1,1,40,1,0
10462,576.923076923077,6,1,1,40,1,0
17673,576.923076923077,4,1,1,40,1,0
22721,-100,4,1,1,30,0,0
29788,576.923076923077,4,1,1,40,1,1
33538,576.923076923077,6,1,1,40,1,1
40749,576.923076923077,4,1,1,40,1,1
45220,-100,4,1,1,30,0,1
45364,-100,4,1,1,30,0,0
45936,576.923076923077,4,1,1,30,1,0
47666,576.923076923077,4,1,1,30,1,0
62955,-100,4,1,1,20,0,0
63436,-100,4,1,1,40,0,0
63810,576.923076923077,4,1,1,40,1,0
68136,576.923076923077,4,1,1,40,1,0
68698,576.923076923077,4,1,1,40,1,0
70428,576.923076923077,4,1,1,40,1,0
72448,576.923076923077,4,1,1,40,1,0
98842,-100,4,1,1,30,0,0
99419,-100,4,1,1,20,0,0
99996,-100,4,1,1,15,0,0
100284,-100,4,1,1,5,0,0

[Colours]
Combo1 : 210,210,210
Combo2 : 100,0,200

[HitObjects]
432,72,6712,2,0,P|392:128|344:136,1,105.000000298023,4|0,0:2|0:0,0:0:0:0:
360,136,7145,1,0,0:0:0:0:
360,136,7289,1,0,0:0:0:0:
448,200,7577,2,0,L|392:216,2,52.5000001490115,0|0|2,0:0|0:0|0:0,0:0:0:0:
400,296,8154,2,0,L|288:264,1,105.000000298023
80,312,10462,6,0,P|120:256|168:248,1,105.000000298023,4|0,0:2|0:0,0:0:0:0:
152,248,10894,1,0,0:0:0:0:
152,248,11038,1,0,0:0:0:0:
64,184,11327,2,0,L|120:168,2,52.5000001490115,0|0|2,0:0|0:0|0:0,0:0:0:0:
112,88,11904,2,0,L|224:120,1,105.000000298023
192,168,13923,5,0,0:0:0:0:
320,216,14212,1,0,0:0:0:0:
32,352,15365,1,0,0:0:0:0:
168,336,15654,1,0,0:0:0:0:
304,320,15942,1,0,0:0:0:0:
464,40,16808,6,0,L|416:56,6,35.000000099341,0|0|0|0|0|0|0,0:0|0:0|0:0|0:0|0:0|0:0|0:0,0:0:0:0:
448,144,17673,1,0,0:0:0:0:
368,208,17961,1,0,0:0:0:0:
368,208,18105,1,0,0:0:0:0:
368,208,18249,1,8,0:0:0:0:
264,192,18538,2,0,L|256:152,3,35.000000099341,0|0|0|0,0:0|0:0|0:0|0:0,0:0:0:0:
208,248,19115,2,0,P|232:312|264:312,2,105.000000298023,0|8|0,0:0|0:0|0:0,0:0:0:0:
104,216,19980,5,4,0:2:0:0:
152,120,20269,1,0,0:0:0:0:
152,120,20365,1,0,0:0:0:0:
152,120,20461,1,0,0:0:0:0:
152,120,20557,2,0,P|80:120|64:144,2,105.000000298023,8|0|0,0:0|0:0|0:0,0:0:0:0:
200,216,21422,1,0,0:0:0:0:
312,216,21711,1,8,0:0:0:0:
168,216,21999,1,0,0:0:0:0:
344,216,22288,6,0,P|432:216|408:112,2,210.000000596046,0|8|0,0:0|0:0|0:0,0:0:0:0:
320,112,23730,1,0,0:0:0:0:
256,32,24019,1,8,0:0:0:0:
192,112,24307,1,0,0:0:0:0:
256,192,24596,6,0,P|264:232|392:208,1,210.000000596046,0|8,0:0|0:0,0:0:0:0:
440,112,25461,1,0,0:0:0:0:
440,112,25605,1,0,0:0:0:0:
440,112,25749,2,0,P|376:136|392:40,1,210.000000596046,0|8,0:0|0:0,0:0:0:0:
184,48,26903,6,0,L|144:264,1,210.000000596046,0|8,0:0|0:0,0:0:0:0:
248,280,27769,1,0,0:0:0:0:
248,280,27913,1,0,0:0:0:0:
248,280,28057,2,0,B|272:272|272:272|296:288|296:288|320:280|320:280|344:296|344:296,1,105.000000298023,2|0,0:2|0:0,0:0:0:0:
256,192,28634,12,4,29788,0:2:0:0:
256,192,30220,5,2,0:0:0:0:
256,192,30364,1,2,0:0:0:0:
44,64,30941,1,2,0:0:0:0:
256,114,31230,1,2,0:0:0:0:
468,64,31518,2,0,B|436:264|256:316|76:264|44:64,1,630.000001788138,2|0,0:0|0:0,0:0:0:0:
192,152,33538,6,0,P|256:112|320:152,1,157.500000447034,4|2,0:2|0:0,0:0:0:0:
256,184,34114,1,2,0:0:0:0:
44,320,34691,1,2,0:0:0:0:
256,270,34980,1,2,0:0:0:0:
468,320,35268,2,0,B|436:120|256:68|76:120|44:320,1,630.000001788138,2|2,0:0|0:0,0:0:0:0:
115,326,37287,6,0,P|256:196|398:340,1,420.000001192092,2|2,0:0|0:0,0:0:0:0:
304,288,38730,2,0,P|256:268|208:288,1,105.000000298023,2|2,0:0|0:0,0:0:0:0:
32,40,39884,6,0,P|40:56|64:72,6,35.000000099341,2|0|0|0|0|0|2,0:1|0:0|0:0|0:0|0:0|0:0|0:1,0:0:0:0:
136,32,40749,1,0,0:0:0:0:
208,104,41037,1,0,0:0:0:0:
208,104,41181,1,0,0:0:0:0:
160,128,41325,2,0,P|160:176|112:192,1,105.000000298023,8|0,0:0|0:0,0:0:0:0:
168,280,41902,1,0,0:0:0:0:
272,264,42191,1,0,0:0:0:0:
168,280,42479,1,8,0:0:0:0:
64,296,42768,1,0,0:0:0:0:
104,200,43056,5,0,0:0:0:0:
208,176,43345,1,0,0:0:0:0:
208,176,43441,1,0,0:0:0:0:
208,176,43537,1,0,0:0:0:0:
208,176,43633,2,0,P|256:160|256:112,1,105.000000298023,8|0,0:0|0:0,0:0:0:0:
360,96,44210,2,0,P|400:96|416:152,1,105.000000298023
336,216,44787,2,0,P|272:272|256:272,1,105.000000298023,8|0,0:0|0:0,0:0:0:0:
272,376,45364,6,0,P|303:376|400:296,1,157.500000447034,4|0,0:2|0:0,0:0:0:0:
432,264,45936,1,8,0:0:0:0:
424,160,46224,1,0,0:0:0:0:
424,160,46368,1,0,0:0:0:0:
424,160,46512,2,0,L|312:136,2,105.000000298023,8|0|8,0:0|0:0|0:0,0:0:0:0:
384,64,47378,1,0,0:0:0:0:
280,48,47666,5,0,0:0:0:0:
80,128,48243,1,8,0:0:0:0:
64,176,48387,1,0,0:0:0:0:
112,200,48532,2,0,L|136:144,1,52.5000001490115
184,161,48820,2,0,B|242:175|272:128|272:128|283:138|283:138|329:138|376:152,1,210.000000596046,8|8,0:0|0:0,0:0:0:0:
416,232,49974,5,0,0:0:0:0:
216,336,50551,1,8,0:0:0:0:
216,336,50695,1,0,0:0:0:0:
216,336,50839,1,0,0:0:0:0:
216,336,50984,1,0,0:0:0:0:
216,336,51128,1,8,0:0:0:0:
320,328,51416,1,0,0:0:0:0:
264,240,51705,2,0,P|264:168|248:128,1,105.000000298023,8|0,0:0|0:0,0:0:0:0:
240,88,52137,1,0,0:0:0:0:
224,40,52282,6,0,P|128:24|56:112,1,210.000000596046,0|8,0:0|0:0,0:0:0:0:
48,304,53435,1,8,0:0:0:0:
256,328,53724,1,0,0:0:0:0:
464,304,54012,1,8,0:0:0:0:
424,208,54301,2,0,L|400:152,1,52.5000001490115
368,120,54589,6,0,P|329:96|160:104,1,210.000000596046,0|8,0:0|0:0,0:0:0:0:
128,136,55310,1,0,0:0:0:0:
96,176,55455,1,0,0:0:0:0:
152,264,55743,1,8,0:0:0:0:
152,264,56032,1,0,0:0:0:0:
152,264,56320,1,8,0:0:0:0:
256,280,56609,1,0,0:0:0:0:
304,264,56753,1,0,0:0:0:0:
352,248,56897,6,0,P|464:176|472:104,1,210.000000596046,0|8,0:0|0:0,0:0:0:0:
424,96,57618,1,0,0:0:0:0:
376,88,57762,1,0,0:0:0:0:
328,80,57907,1,0,0:0:0:0:
280,72,58051,1,8,0:0:0:0:
232,272,58339,1,0,0:0:0:0:
280,72,58628,1,8,0:0:0:0:
344,272,59205,6,0,P|400:192|368:192,1,210.000000596046,0|8,0:0|0:0,0:0:0:0:
176,272,60359,1,8,0:0:0:0:
80,240,60647,1,0,0:0:0:0:
64,136,60935,1,8,0:0:0:0:
64,136,61080,1,0,0:0:0:0:
64,136,61224,1,0,0:0:0:0:
64,136,61368,1,0,0:0:0:0:
64,136,61512,6,0,P|64:80|96:40,1,105.000000298023
144,56,61945,2,0,B|144:116|144:116|168:164,2,105.000000298023,8|8|0,0:0|0:0|0:0,0:0:0:0:
196,64,62666,1,8,0:0:0:0:
248,72,62810,1,0,0:0:0:0:
248,72,63099,6,0,B|312:72|312:72|352:96,1,105.000000298023,8|8,0:0|0:0,0:0:0:0:
376,136,63532,1,0,0:0:0:0:
408,176,63676,1,0,0:0:0:0:
440,216,63810,5,4,0:2:0:0:
372,304,64098,2,0,L|316:320,1,52.5000001490115
216,344,64531,2,0,P|176:311|120:296,1,105.000000298023
152,200,65108,1,0,0:0:0:0:
192,164,65252,1,0,0:0:0:0:
232,128,65396,1,0,0:0:0:0:
416,28,65684,6,0,L|468:28,1,52.5000001490115,0|0,0:0|0:0,0:0:0:0:
480,80,65973,2,0,P|496:136|496:184,1,105.000000298023
456,216,66406,1,0,0:0:0:0:
376,280,66694,2,0,P|312:304|272:304,1,105.000000298023,0|0,0:0|0:0,0:0:0:0:
248,208,67271,2,0,L|304:224,2,52.5000001490115
96,64,67848,6,0,P|88:96|96:120,1,52.5000001490115,0|0,0:0|0:0,0:0:0:0:
104,168,68136,1,4,0:2:0:0:
128,272,68424,1,0,0:0:0:0:
128,272,68568,1,0,0:0:0:0:
216,328,68842,1,0,0:0:0:0:
320,344,69130,1,0,0:0:0:0:
424,312,69419,1,0,0:0:0:0:
440,264,69563,1,0,0:0:0:0:
448,216,69707,1,0,0:0:0:0:
296,72,69996,6,0,L|240:72,1,52.5000001490115,0|0,0:0|0:0,0:0:0:0:
224,120,70284,2,0,P|240:176|240:224,1,105.000000298023
232,272,70716,1,0,0:0:0:0:
160,352,71004,1,0,0:0:0:0:
88,272,71293,1,0,0:0:0:0:
48,176,71581,2,0,P|24:160|8:128,2,52.5000001490115
232,272,72158,6,0,L|296:256,1,52.5000001490115,0|0,0:2|0:0,0:0:0:0:
336,248,72448,1,4,0:0:0:0:
64,256,81678,6,0,P|248:288|272:288,1,210.000000596046,0|8,0:0|0:0,0:0:0:0:
480,280,82544,1,0,0:0:0:0:
288,192,82832,1,8,0:0:0:0:
464,80,83121,1,0,0:0:0:0:
256,32,83409,1,8,0:0:0:0:
408,184,83697,1,0,0:0:0:0:
208,120,83986,6,0,P|136:216|136:304,1,210.000000596046,2|8,0:2|0:0,0:0:0:0:
344,304,84851,1,0,0:0:0:0:
304,96,85140,1,8,0:0:0:0:
272,304,85428,1,0,0:0:0:0:
232,96,85717,1,8,0:0:0:0:
200,304,86005,1,0,0:0:0:0:
160,96,86294,1,0,0:0:0:0:
472,232,86871,5,8,0:0:0:0:
384,40,87159,1,0,0:0:0:0:
176,88,87447,1,8,0:0:0:0:
272,280,87736,1,0,0:0:0:0:
472,232,88024,1,8,0:0:0:0:
384,40,88313,1,0,0:0:0:0:
368,248,88601,6,0,B|312:184|312:184|232:176|184:208,1,210.000000596046,2|8,0:2|0:0,0:0:0:0:
48,360,89467,1,0,0:0:0:0:
48,152,89755,2,0,L|72:256,1,105.000000298023,8|0,0:0|0:0,0:0:0:0:
152,56,90332,2,0,L|152:168,1,105.000000298023,8|0,0:0|0:0,0:0:0:0:
368,136,90909,5,4,0:2:0:0:
368,136,91486,1,8,0:0:0:0:
296,336,91774,1,0,0:0:0:0:
176,160,92063,1,8,0:0:0:0:
88,352,92351,1,0,0:0:0:0:
320,328,92640,1,8,0:0:0:0:
64,360,92928,1,0,0:0:0:0:
352,320,93217,5,2,0:2:0:0:
352,320,93505,1,0,0:0:0:0:
344,112,93794,2,0,L|400:208,1,105.000000298023,8|0,0:0|0:0,0:0:0:0:
200,136,94371,2,0,L|220:248,1,105.000000298023,8|0,0:0|0:0,0:0:0:0:
24,168,94947,2,0,L|24:280,1,105.000000298023,8|0,0:0|0:0,0:0:0:0:
256,328,95524,5,2,0:2:0:0:
464,312,96101,1,8,0:0:0:0:
408,224,96390,1,2,0:2:0:0:
352,136,96678,2,0,L|296:48,1,105.000000298023,8|0,0:0|0:0,0:0:0:0:
248,144,97255,2,0,L|304:232,1,105.000000298023,8|0,0:0|0:0,0:0:0:0:
256,328,97832,5,4,0:2:0:0:
48,128,98409,2,0,L|104:40,1,105.000000298023,8|0,0:0|0:0,0:0:0:0:
160,216,98986,1,8,0:0:0:0:
352,256,99274,1,0,0:0:0:0:
112,248,99563,1,8,0:0:0:0:
392,176,99851,1,0,0:0:0:0:
56,192,100140,1,2,0:2:0:0:
256,192,100284,12,0,101871,0:0:0:0:
