osu file format v9

[General]
AudioFilename: those who hunt elves - tensai wa saigo ni yattekuru (naoko hamasaki).mp3
AudioLeadIn: 0
PreviewTime: 60450
Countdown: 0
SampleSet: Normal
StackLeniency: 0.7
Mode: 0
LetterboxInBreaks: 1

[Editor]
Bookmarks: 3683,18297,32503,46276,60454,74660,88894,103072,117279,124409,152822,167028,181242,202544
DistanceSpacing: 1
BeatDivisor: 4
GridSize: 8

[Metadata]
Title:Tensai Wa Saigo Yattekuru
Artist:Naoko Hamasaki
Creator:roxkyuubiforever
Version:Normal
Source:Those Who Hunt Elves
Tags:ending ed thwe

[Difficulty]
HPDrainRate:4
CircleSize:4
OverallDifficulty:3
ApproachRate:5
SliderMultiplier:1.2
SliderTickRate:1

[Events]
//Background and Video events
0,0,"TWHE.jpg"
//Break Periods
2,18070,30877
2,89101,101908
2,153029,165836
//Storyboard Layer 0 (Background)
//Storyboard Layer 1 (Fail)
//Storyboard Layer 2 (Pass)
//Storyboard Layer 3 (Foreground)
//Storyboard Sound Samples
//Background Colour Transformations
3,100,209,164,255

[TimingPoints]
113,443.944444444445,4,1,0,40,1,0
60489,-100,4,1,0,40,0,1
67148,-100,4,1,0,40,0,0
74695,-100,4,1,0,40,0,1
81798,-100,4,1,0,40,0,0
117298,-200,4,1,0,20,0,0
120421,-100,4,1,0,40,0,0
167036,-100,4,1,0,40,0,1
173695,-100,4,1,0,40,0,0
181242,-100,4,1,0,40,0,1
187901,-100,4,1,0,40,0,0
202551,-100,4,1,0,40,0,1
202662,-100,4,1,0,40,0,0

[Colours]
Combo1 : 60,60,255
Combo2 : 255,255,128
Combo3 : 201,147,255
Combo4 : 128,255,0

[HitObjects]
216,96,3664,1,4
104,48,4108,1,8
104,48,4330,2,0,B|88:176,1,120
24,264,5218,2,0,B|152:280,1,120,0|0
248,336,6106,2,8,B|304:256|288:160,1,180,0|8
184,104,7216,5,0
288,40,7660,1,8
288,40,7882,2,0,B|416:64,1,120,0|0
336,160,8769,2,0,B|312:288,1,120,0|0
200,320,9657,2,0,B|96:312|72:208,1,180,0|8
88,96,10767,5,4
192,152,11211,1,8
192,152,11433,2,0,B|328:128,1,120,0|0
392,216,12321,2,0,B|256:240,1,120,0|0
184,312,13209,2,8,B|272:344|368:312,1,180,0|8
472,272,14319,5,0
256,192,14763,12,4,17870
168,64,32077,5,4
64,104,32520,6,0,B|48:240,1,120,8|0
144,296,33408,1,8
216,200,33852,2,0,B|248:112|200:24,2,180,0|0|8
336,192,35628,2,0,B|304:280|352:368,2,180,0|0|8
352,72,37404,6,0,B|232:64,1,120,0|8
168,168,38292,2,0,B|288:176,1,120,0|8
344,280,39180,1,4
240,344,39624,6,0,B|96:352|40:232,1,240,8|8
192,56,41399,2,0,B|336:48|392:168,1,240,8|8
368,280,42731,6,0,B|176:272,2,180,0|0|8
464,208,44507,2,0,B|480:144|464:88,1,120,0|8
352,40,45395,2,0,B|336:104|352:160,1,120,0|8
336,280,46283,1,4
232,344,46727,5,0
32,216,47615,1,0
192,32,48502,1,0
392,160,49390,1,0
272,168,49834,6,8,B|264:264|320:344,2,180,8|0|8
160,200,51610,2,8,B|168:104|112:24,2,180,8|0|8
184,320,53386,1,4
304,344,53830,5,0
504,216,54718,1,0
344,32,55606,1,0
144,160,56493,1,0
88,264,56937,6,0,B|256:360|432:264,1,360,4|0
432,144,58713,2,0,B|264:48|88:144,1,360,4|0
40,256,60489,5,4
120,344,60933,1,8
120,344,61155,2,0,B|256:328,1,120,0|8
288,216,62043,2,0,B|272:80,1,120,0|8
160,72,62931,2,0,B|120:152|152:256,1,180,0|8
256,296,64040,6,0,B|440:280,2,180,0|0|8
216,184,65816,2,0,B|32:168,2,180,0|0|8
240,64,67592,5,0
360,88,68036,1,8
360,88,68258,2,0,B|376:216,1,120,0|8
488,248,69146,2,0,B|464:344|344:336,1,180,0|8
240,280,70256,1,0
336,208,70700,1,8
256,120,71144,6,0,B|72:96,2,180,0|0|8
208,232,72919,2,0,B|392:256,2,180,0|0|8
136,328,74695,5,4
48,240,75139,1,8
48,240,75361,2,0,B|64:120,1,120,0|8
152,40,76249,2,0,B|168:160,1,120,0|8
288,144,77137,2,0,B|288:248|368:304,1,180,0|8
424,192,78247,6,0,B|440:8,2,180,0|0|8
320,136,80022,2,0,B|304:320,2,180,0|0|8
272,24,81798,6,0,B|56:8|8:224,1,360,4|0
88,312,83574,2,0,B|304:328|352:112,1,360,4|0
256,48,85350,5,0
136,256,86238,1,0
352,360,87126,1,0
472,152,88013,1,0
360,112,88457,1,0
384,232,88901,1,4
328,48,103108,5,0
440,96,103552,1,8
440,96,103774,2,0,B|408:184|440:272,1,180,0|8
336,344,104883,1,0
208,336,105327,1,8
208,336,105549,2,0,B|240:248|208:160,1,180,0|8
88,128,106659,5,0
176,48,107103,1,8
176,48,107325,2,0,B|360:56,1,180,0|8
368,176,108435,1,0
456,272,108879,1,8
456,272,109101,2,0,B|272:280,1,180,0|8
168,336,110211,5,0
64,280,110655,1,8
64,280,110877,2,0,B|32:200|64:104,1,180,0|8
192,120,111987,1,0
296,56,112430,1,8
296,56,112652,2,0,B|328:136|296:232,1,180,0|8
400,296,113762,5,0
448,184,114206,1,8
448,184,114428,2,0,B|272:152,1,180,0|8
56,264,115982,5,0
168,312,116426,1,0
152,192,116870,1,0
272,240,117314,6,0,B|336:232|400:256|456:240,1,180,4|8
400,144,119090,2,0,B|336:152|272:128|216:144,1,180,0|8
120,96,120865,1,4
256,192,120976,12,4,124417
416,152,124861,6,0,B|288:160,1,120,8|0
192,224,125749,1,8
88,168,126193,2,0,B|48:264|120:344,2,180,0|0|8
192,224,127969,2,0,B|232:128|160:48,2,180,0|0|8
120,320,129744,6,0,B|240:344,1,120,0|8
296,240,130632,2,0,B|416:216,1,120,0|8
440,96,131520,1,4
336,40,131964,6,0,B|312:96|336:160,2,120,8|0|8
168,208,133739,2,0,B|192:152|168:88,2,120,8|0|8
248,304,135072,6,0,B|432:280,2,180,0|0|8
128,328,136847,2,0,B|96:272|128:208,1,120,0|8
248,232,137735,2,0,B|280:176|248:112,1,120,0|8
136,72,138623,1,4
48,152,139067,6,0,B|64:272,2,120,8|0|8
136,72,140399,2,0,B|216:24|328:48,2,180,0|0|8
200,176,142174,2,0,B|248:256|224:368,2,180,0|0|8
96,240,143951,6,0,B|88:120,1,120,0|8
200,176,144838,2,0,B|192:56,1,120,0|8
312,40,145726,1,4
424,80,146170,6,0,B|344:192|424:304,1,240,8|8
152,344,147946,2,0,B|232:232|152:120,1,240,8|8
232,32,149278,6,0,B|416:48,2,180,0|0|8
112,32,151054,2,0,B|72:144,1,120,0|8
184,192,151942,2,0,B|224:312,1,120,0|8
336,328,152829,1,4
272,136,167036,5,4
168,72,167480,1,8
168,72,167702,2,0,B|112:48|48:72,1,120,0|8
96,184,168589,2,0,B|72:240|96:304,1,120,0|8
208,264,169477,2,0,B|296:304|384:264,1,180,0|8
448,160,170587,5,0
392,56,171031,1,8
392,56,171253,2,0,B|264:64,1,120,0|8
152,80,172141,2,0,B|160:192|264:208,1,180,0|8
257,206,173029,2,0,B|368:216|376:336,1,180,0|8
256,344,174139,5,0
136,320,174583,1,8
136,320,174805,2,0,B|144:200,1,120,0|8
56,120,175693,2,0,B|96:32|208:40,1,180,0|8
304,112,176802,1,0
208,184,177246,1,8
304,256,177690,6,0,B|376:288|416:224|480:256,2,180,0|0|8
208,184,179466,2,0,B|136:152|96:216|32:184,2,180,0|0|8
232,64,181242,5,4
344,32,181686,1,8
344,32,181908,2,0,B|360:160,1,120,0|8
472,192,182796,2,0,B|456:320,1,120,0|8
344,344,183684,2,0,B|232:384|176:296,1,180,0|8
64,288,184793,5,0
56,168,185237,1,8
56,168,185459,2,0,B|176:184,1,120,0|8
216,72,186347,2,0,B|318:51|370:144,1,180,0|8
368,142,187235,2,0,B|408:255|317:318,1,180,0|8
216,320,188345,6,0,B|40:256,2,180,0|0|8
272,216,190122,2,0,B|448:280,2,180,0|0|8
184,136,191897,6,0,B|56:112,1,120,0|8
176,208,192784,2,0,B|48:184,1,120,0|8
168,280,193672,2,0,B|40:256,1,120,0|8
160,352,194559,2,0,B|32:328,1,120,0|8
256,192,195448,12,4,198112
328,136,199000,6,0,B|456:112,1,120,0|8
336,208,199887,2,0,B|464:184,1,120,0|8
344,280,200775,2,0,B|472:256,1,120,0|8
352,352,201662,2,0,B|480:328,2,120,0|8|4
